osu file format v14

[General]
AudioFilename: audio.mp3
AudioLeadIn: 0
PreviewTime:51759
Countdown: 0
SampleSet: Soft
StackLeniency: 0.3
Mode: 0
LetterboxInBreaks: 0
WidescreenStoryboard: 1

[Editor]
Bookmarks: 55941
DistanceSpacing: 3
BeatDivisor: 4
GridSize: 32
TimelineZoom: 2.5

[Metadata]
Title:Yuugure One Room
TitleUnicode:夕暮れワンルーム
Artist:40mP feat. chano
ArtistUnicode:40mP feat. シャノ
Creator:Kujinn
Version:Nymphe's Expert
Source:CHUNITHM
Tags:reform kiyoshi guarden nymphe shano sunset studio japanese jpop j-pop video game ost original soundtrack 40㍍P 40meterp utaite
BeatmapID:3043831
BeatmapSetID:1464036

[Difficulty]
HPDrainRate:5
CircleSize:4.3
OverallDifficulty:8.7
ApproachRate:9.3
SliderMultiplier:1.82
SliderTickRate:1

[Events]
//Background and Video events
0,0,"BG.jpg",0,0
//Break Periods
//Storyboard Layer 0 (Background)
//Storyboard Layer 1 (Fail)
//Storyboard Layer 2 (Pass)
//Storyboard Layer 3 (Foreground)
//Storyboard Layer 4 (Overlay)
//Storyboard Sound Samples

[TimingPoints]
5204,272.727272727273,4,2,22,65,1,0
6294,-86.9565217391303,4,2,22,65,0,0
7385,-117.647058823529,4,2,22,65,0,0
7931,-222.222222222221,4,2,22,75,0,0
8476,-95.2380952380953,4,2,22,75,0,0
17204,-117.647058823529,4,2,22,55,0,0
34658,-111.111111111111,4,2,22,55,0,0
49931,-117.647058823529,4,2,22,55,0,0
51022,-86.9565217391304,4,2,22,55,0,0
52113,-86.9565217391304,4,2,22,85,0,1
73931,-117.647058823529,4,2,22,75,0,0
74294,-181.818181818181,4,2,22,75,0,0
74749,-86.9565217391302,4,2,22,75,0,0
77204,-133.333333333333,4,2,22,75,0,0
78022,-222.222222222221,4,2,22,75,0,0
78286,-95.2380952380952,4,2,22,75,0,0
87019,-95.2380952380951,4,2,22,75,0,0
95749,-79.9999999999999,4,2,22,75,0,0
97931,-142.857142857143,4,2,22,50,0,0
106658,-117.647058823529,4,2,22,55,0,0
115385,-133.333333333333,4,2,22,55,0,0
117294,-181.818181818181,4,2,22,55,0,0
117567,-285.714285714283,4,2,22,55,0,0
118112,-74.0740740740741,4,2,22,75,0,0
118522,-86.9565217391304,4,2,22,85,0,1
139385,-86.9565217391304,4,2,22,75,0,0

[Colours]
Combo1 : 254,199,231
Combo2 : 222,147,101
Combo3 : 244,211,79
Combo4 : 241,117,50
Combo5 : 243,82,58
Combo6 : 169,208,87
Combo7 : 68,145,62
Combo8 : 87,154,215

[HitObjects]
413,261,5476,6,0,L|403:317,2,45.5,8|8|8,0:3|0:3|0:3,0:0:0:0:
483,203,5749,1,8,0:0:0:0:
376,126,5885,1,8,0:0:0:0:
484,32,6022,1,4,0:3:0:0:
484,32,6294,6,0,P|441:39|423:74,1,69.7666679973603,10|0,1:2|0:0,0:0:0:0:
358,25,6476,2,0,P|342:65|363:98,1,69.7666679973603,10|0,1:2|0:0,0:0:0:0:
286,127,6658,2,0,P|313:160|352:158,1,69.7666679973603,10|0,1:2|0:0,0:0:0:0:
335,226,6840,6,0,P|349:190|311:149,1,69.7666679973603,10|0,1:2|0:0,0:0:0:0:
339,304,7022,2,0,P|377:298|393:244,1,69.7666679973603,10|0,1:2|0:0,0:0:0:0:
275,348,7204,2,0,P|299:378|353:365,1,69.7666679973603,10|0,1:2|0:0,0:0:0:0:
227,278,7385,6,0,B|186:303|152:290|131:252|139:244|146:237|133:187|86:165|43:202,1,232.050004426003,10|0,1:2|0:0,0:0:0:0:
230,63,7931,2,0,P|175:72|165:133,1,122.849996250916,4|0,0:3|0:0,0:0:0:0:
338,325,8476,6,0,P|388:312|447:303,1,95.5499970840455,6|0,1:2|0:0,0:0:0:0:
512,119,8749,2,0,P|462:106|403:97,1,95.5499970840455,8|0,0:0|0:0,0:0:0:0:
241,227,9022,1,2,1:2:0:0:
305,18,9158,2,0,P|313:73|319:125,1,95.5499970840455,2|8,1:2|0:0,0:0:0:0:
251,307,9431,6,0,B|202:329|167:280|167:280|97:297|119:352,1,191.099994168091,2|0,1:2|1:2,0:0:0:0:
241,227,9840,2,0,P|264:181|240:147,1,95.5499970840455,8|0,0:0|0:0,0:0:0:0:
90,69,10113,2,0,P|118:111|159:108,1,95.5499970840455,0|0,1:2|0:0,0:0:0:0:
305,18,10385,1,10,0:0:0:0:
244,56,10522,1,2,0:0:0:0:
512,116,10658,6,0,B|481:88|445:98|423:126|428:133|433:140|419:175|382:193|338:159,1,191.099994168091,2|10,1:2|0:0,0:0:0:0:
444,319,11067,2,0,P|474:275|441:228,1,95.5499970840455,2|0,0:0|1:2,0:0:0:0:
270,344,11340,2,0,L|365:371,1,95.5499970840455,2|8,1:2|0:0,0:0:0:0:
286,125,11613,6,0,B|238:74|159:126|159:126|199:176,1,191.099994168091,2|0,1:2|1:2,0:0:0:0:
42,384,12022,2,0,B|83:352|83:352|86:353|86:353|129:317,1,95.5499970840455,10|0,0:0|0:0,0:0:0:0:
41,170,12294,2,0,B|48:221|48:221|45:223|45:223|55:278,1,95.5499970840455,2|0,1:2|0:0,0:0:0:0:
225,276,12567,2,0,B|176:256|176:256|176:253|176:253|123:234,1,95.5499970840455,10|0,0:0|0:0,0:0:0:0:
355,366,12840,6,0,P|391:327|368:272,1,95.5499970840455,2|0,1:2|0:0,0:0:0:0:
299,128,13113,2,0,P|268:169|291:224,1,95.5499970840455,8|0,0:0|0:0,0:0:0:0:
440,116,13385,1,2,1:2:0:0:
344,16,13522,2,0,L|248:-2,1,95.5499970840455,2|8,1:2|0:0,0:0:0:0:
71,66,13794,6,0,B|103:51|110:23|110:23|167:58|159:106|120:148,1,191.099994168091,2|0,1:2|1:2,0:0:0:0:
9,267,14204,2,0,P|17:214|69:194,1,95.5499970840455,8|0,0:0|0:0,0:0:0:0:
157,367,14476,2,0,L|50:342,1,95.5499970840455,0|0,1:2|0:0,0:0:0:0:
284,244,14749,1,10,0:0:0:0:
322,314,14885,1,2,0:0:0:0:
129,218,15022,6,0,B|160:246|196:236|218:208|213:201|208:194|222:159|259:141|303:175,1,191.099994168091,2|8,1:2|0:0,0:0:0:0:
407,264,15431,2,0,L|394:155,1,95.5499970840455,2|0,0:0|1:2,0:0:0:0:
507,36,15704,2,0,P|510:80|468:109,1,95.5499970840455,2|8,1:2|0:0,0:0:0:0:
257,40,15976,6,0,B|380:12|380:12|337:22|330:61,1,191.099994168091,6|8,1:2|0:0,0:0:0:0:
490,259,16385,2,0,P|521:206|490:171,1,95.5499970840455,10|0,0:0|1:2,0:0:0:0:
350,344,16658,1,10,0:0:0:0:
424,380,16794,1,8,0:0:0:0:
373,190,16931,2,0,P|332:166|284:183,1,95.5499970840455,10|8,0:3|0:3,0:0:0:0:
167,382,17204,6,0,B|211:347|211:347|178:253,1,154.700002950668,6|8,1:2|0:0,0:0:0:0:
166,105,17749,1,2,1:2:0:0:
94,129,17885,2,0,L|199:146,1,77.3500014753342,2|8,0:0|0:0,0:0:0:0:
316,199,18158,6,0,B|275:172|238:197|254:219|216:248|177:223,1,154.700002950668,2|0,1:2|1:2,0:0:0:0:
285,47,18567,2,0,P|252:77|266:130,1,77.3500014753342,8|0,0:0|0:0,0:0:0:0:
435,34,18840,2,0,L|353:4,1,77.3500014753342,0|0,1:2|0:0,0:0:0:0:
458,140,19113,1,10,0:0:0:0:
504,79,19249,1,2,0:0:0:0:
485,217,19385,6,0,B|449:233|415:203|415:203|358:229|384:278,1,154.700002950668,2|8,1:2|0:0,0:0:0:0:
319,379,19931,1,2,1:2:0:0:
381,343,20067,2,0,P|337:348|310:327,1,77.3500014753342,2|8,0:0|0:0,0:0:0:0:
172,282,20340,6,0,B|268:252|268:252|232:264|229:308,1,154.700002950668,2|0,1:2|1:2,0:0:0:0:
104,370,20749,2,0,B|84:332|84:332|84:329|84:329|61:284,1,77.3500014753342,10|0,0:0|0:0,0:0:0:0:
214,217,21022,2,0,B|191:253|191:253|188:254|188:254|161:297,1,77.3500014753342,2|0,1:2|0:0,0:0:0:0:
27,199,21294,2,0,B|69:200|69:200|72:202|72:202|122:204,1,77.3500014753342,10|0,0:0|0:0,0:0:0:0:
341,174,21567,6,0,B|249:142|249:142|283:154|289:189,1,154.700002950668,2|8,1:2|0:0,0:0:0:0:
185,356,22113,1,2,1:2:0:0:
130,302,22249,2,0,L|230:326,1,77.3500014753342,2|8,0:0|0:0,0:0:0:0:
349,356,22522,6,0,B|392:377|418:336|406:323|441:281|486:313,1,154.700002950668,2|0,1:2|1:2,0:0:0:0:
384,160,22931,2,0,L|409:240,1,77.3500014753342,10|0,0:0|0:0,0:0:0:0:
443,84,23204,2,0,L|347:50,1,77.3500014753342,2|0,1:2|0:0,0:0:0:0:
483,178,23476,2,0,L|546:97,1,77.3500014753342,10|0,0:0|0:0,0:0:0:0:
360,148,23749,6,0,L|385:228,1,77.3500014753342,2|0,1:2|0:0,0:0:0:0:
438,353,24022,1,8,0:0:0:0:
505,325,24158,2,0,P|479:288|426:283,1,77.3500014753342,2|0,0:0|1:2,0:0:0:0:
289,357,24431,2,0,P|330:361|359:317,1,77.3500014753342,2|8,0:0|0:0,0:0:0:0:
271,248,24704,6,0,B|220:235|220:235|180:266|180:266|125:252,1,154.700002950668,2|0,1:2|1:2,0:0:0:0:
214,81,25113,2,0,B|227:121|227:121|204:163,1,77.3500014753342,10|0,0:0|0:0,0:0:0:0:
84,43,25385,1,2,1:2:0:0:
153,1,25522,1,2,0:0:0:0:
79,141,25658,2,0,L|-3:112,1,77.3500014753342,10|0,0:0|0:0,0:0:0:0:
78,296,25931,6,0,P|102:232|193:251,1,154.700002950668,2|8,1:2|0:0,0:0:0:0:
340,210,26476,1,2,1:2:0:0:
284,159,26613,2,0,L|307:253,1,77.3500014753342,2|8,0:0|0:0,0:0:0:0:
404,356,26885,6,0,P|475:366|505:301,1,154.700002950668,2|0,1:2|1:2,0:0:0:0:
421,168,27294,2,0,P|418:205|450:236,1,77.3500014753342,8|0,0:0|0:0,0:0:0:0:
501,117,27567,2,0,L|514:32,1,77.3500014753342,0|0,1:2|0:0,0:0:0:0:
356,1,27840,1,10,0:0:0:0:
421,41,27976,1,2,0:0:0:0:
289,113,28113,6,0,B|325:90|366:131|350:144|380:184|441:162,1,154.700002950668,2|8,1:2|0:0,0:0:0:0:
298,253,28658,1,2,1:2:0:0:
336,320,28794,2,0,L|349:234,1,77.3500014753342,2|8,0:0|0:0,0:0:0:0:
217,360,29067,6,0,B|184:334|149:352|149:352|107:306|154:272,1,154.700002950668,2|0,1:2|1:2,0:0:0:0:
240,166,29476,2,0,P|234:206|194:221,1,77.3500014753342,10|0,0:0|0:0,0:0:0:0:
89,142,29749,2,0,P|126:127|159:154,1,77.3500014753342,2|0,1:2|0:0,0:0:0:0:
144,280,30022,2,0,P|112:254|119:212,1,77.3500014753342,10|0,0:0|0:0,0:0:0:0:
246,289,30294,6,0,B|298:279|298:279|345:313|345:313|410:298,1,154.700002950668,2|8,1:2|0:0,0:0:0:0:
512,162,30840,1,2,1:2:0:0:
450,203,30976,2,0,P|429:160|441:125,1,77.3500014753342,2|8,0:0|0:0,0:0:0:0:
512,66,31249,6,0,B|466:79|442:39|462:22|419:-19|379:3,1,154.700002950668,2|0,1:2|1:2,0:0:0:0:
260,13,31658,2,0,B|271:53|271:53|274:57|274:57|288:103,1,77.3500014753342,10|0,0:0|0:0,0:0:0:0:
134,130,31931,2,0,B|163:99|163:99|165:95|165:95|197:60,1,77.3500014753342,2|0,1:2|0:0,0:0:0:0:
299,184,32204,2,0,B|258:173|258:173|253:174|253:174|207:163,1,77.3500014753342,10|0,0:0|0:0,0:0:0:0:
120,282,32476,6,0,P|102:253|119:216,1,77.3500014753342,2|0,1:2|0:0,0:0:0:0:
208,305,32749,1,8,0:0:0:0:
151,357,32885,2,0,P|106:368|71:342,1,77.3500014753342,2|0,0:0|1:2,0:0:0:0:
199,231,33158,2,0,P|244:220|279:246,1,77.3500014753342,2|8,0:0|0:0,0:0:0:0:
418,338,33431,6,0,B|394:346|384:376|384:376|399:254,1,154.700002950668,6|8,1:2|0:3,0:0:0:0:
335,104,33840,1,10,0:3:0:0:
439,153,33976,1,4,0:3:0:0:
392,3,34113,5,10,0:0:0:0:
264,147,34249,1,10,0:0:0:0:
473,256,34385,1,2,1:2:0:0:
411,76,34522,1,2,0:0:0:0:
227,225,34658,6,0,B|195:232|171:217|163:183|170:179|177:176|165:141|134:122|100:142,1,163.799995001221,6|8,1:2|0:0,0:0:0:0:
112,136,35067,1,0,0:0:0:0:
64,47,35204,2,0,B|56:10|18:9|18:9|-23:34|-25:70|10:101,1,163.799995001221,2|8,1:2|0:0,0:0:0:0:
80,230,35613,6,0,B|57:242|53:270|53:270|-15:205|62:152,1,163.799995001221,2|0,1:2|1:2,0:0:0:0:
124,367,36022,2,0,L|216:346,1,81.8999975006104,10|0,0:0|0:0,0:0:0:0:
206,192,36294,2,0,L|157:284,1,81.8999975006104,2|0,1:2|0:0,0:0:0:0:
306,334,36567,2,0,L|256:249,1,81.8999975006104,10|0,0:0|0:0,0:0:0:0:
402,163,36840,6,0,P|439:142|490:168,1,81.8999975006104,2|0,1:2|0:0,0:0:0:0:
390,249,37113,1,10,0:0:0:0:
331,200,37249,2,0,P|313:164|339:124,1,81.8999975006104,2|0,0:0|1:2,0:0:0:0:
387,4,37522,2,0,P|405:40|379:80,1,81.8999975006104,2|8,0:0|0:0,0:0:0:0:
245,48,37794,6,0,B|206:30|174:65|174:65|112:49|141:-10,1,163.799995001221,2|0,1:2|1:2,0:0:0:0:
225,128,38204,2,0,L|206:235,1,81.8999975006104,10|0,0:0|0:0,0:0:0:0:
60,207,38476,2,0,L|153:155,1,81.8999975006104,2|0,1:2|0:0,0:0:0:0:
204,343,38749,1,10,0:0:0:0:
143,270,38885,1,2,0:0:0:0:
48,350,39022,6,0,P|84:374|131:349,1,81.8999975006104,2|0,1:2|0:0,0:0:0:0:
222,269,39294,2,0,P|260:259|292:282,1,81.8999975006104,8|2,0:0|0:0,0:0:0:0:
438,333,39567,1,0,1:2:0:0:
380,383,39704,2,0,L|396:276,1,81.8999975006104,2|8,0:0|0:0,0:0:0:0:
442,171,39976,6,0,B|470:166|485:140|485:140|538:196|484:249,1,163.799995001221,2|0,1:2|1:2,0:0:0:0:
415,92,40385,2,0,P|382:65|331:77,1,81.8999975006104,10|0,0:0|0:0,0:0:0:0:
299,199,40658,2,0,P|343:184|351:132,1,81.8999975006104,2|0,1:2|0:0,0:0:0:0:
262,50,40931,2,0,P|252:95|294:128,1,81.8999975006104,10|0,0:0|0:0,0:0:0:0:
260,270,41204,6,0,B|224:261|214:222|214:222|210:290|145:303,1,163.799995001221,6|10,1:2|0:0,0:0:0:0:
166,296,41613,1,2,0:0:0:0:
13,254,41749,2,0,B|122:225|122:225|87:236|76:277,1,163.799995001221,4|8,1:2|0:0,0:0:0:0:
123,375,42158,6,0,B|166:313|141:276|115:302|96:247|132:212,1,163.799995001221,6|0,1:2|1:2,0:0:0:0:
133,25,42567,1,10,0:0:0:0:
243,171,42704,1,8,0:3:0:0:
12,274,42840,5,2,1:2:0:0:
127,110,42976,1,8,0:0:0:0:
242,263,43113,1,10,0:3:0:0:
28,128,43249,1,4,0:3:0:0:
243,26,43385,6,0,P|285:18|330:61,1,81.8999975006104,6|0,1:2|0:0,0:0:0:0:
329,117,43658,2,0,P|371:125|416:82,1,81.8999975006104,8|0,0:0|0:0,0:0:0:0:
496,23,43931,2,0,P|442:52|445:154,1,163.799995001221,2|8,1:2|0:0,0:0:0:0:
493,297,44340,6,0,B|448:264|480:212|480:212|472:259|518:277,1,163.799995001221,2|0,1:2|1:2,0:0:0:0:
347,353,44749,2,0,P|391:349|412:318,1,81.8999975006104,10|0,0:0|0:0,0:0:0:0:
275,310,45022,2,0,P|256:350|272:383,1,81.8999975006104,2|0,1:2|0:0,0:0:0:0:
345,268,45294,2,0,P|319:231|282:229,1,81.8999975006104,10|0,0:0|0:0,0:0:0:0:
193,300,45567,6,0,B|158:295|137:316|125:334|125:334|128:314|121:278|82:264,1,163.799995001221,2|8,1:2|0:0,0:0:0:0:
87,266,45976,1,0,0:0:0:0:
177,202,46113,2,0,B|222:169|190:117|190:117|198:164|152:182,1,163.799995001221,2|8,1:2|0:0,0:0:0:0:
55,67,46522,6,0,B|101:31|137:81|116:100|154:143|211:108,1,163.799995001221,2|0,1:2|1:2,0:0:0:0:
336,37,46931,2,0,B|295:20|295:20|295:22|295:22|260:9,1,81.8999975006104,8|0,0:0|0:0,0:0:0:0:
386,134,47204,2,0,B|421:106|421:106|419:105|419:105|448:82,1,81.8999975006104,0|0,1:2|0:0,0:0:0:0:
292,126,47476,2,0,B|297:170|297:170|299:169|299:169|305:205,1,81.8999975006104,10|0,0:0|0:0,0:0:0:0:
473,311,47749,6,0,P|437:283|400:294,1,81.8999975006104,2|0,1:2|0:0,0:0:0:0:
279,311,48022,1,10,0:0:0:0:
312,381,48158,2,0,L|334:282,1,81.8999975006104,2|0,0:0|1:2,0:0:0:0:
200,170,48431,2,0,L|211:260,1,81.8999975006104,2|8,0:0|0:0,0:0:0:0:
102,361,48704,6,0,P|29:366|7:291,1,163.799995001221,2|0,1:2|1:2,0:0:0:0:
103,168,49113,2,0,P|102:216|61:244,1,81.8999975006104,10|2,0:0|0:0,0:0:0:0:
171,86,49385,1,0,1:2:0:0:
4,161,49522,1,2,0:0:0:0:
72,0,49658,2,0,P|55:41|76:83,1,81.8999975006104,8|0,0:0|0:0,0:0:0:0:
308,113,49931,6,0,B|337:93|280:73|311:20|311:20|257:37|240:101|281:117,1,232.050004426003,2|0,1:2|0:0,0:0:0:0:
182,255,50476,2,0,B|126:199|209:157|209:157|246:228|330:187,1,232.050004426003,2|0,1:2|0:0,0:0:0:0:
462,45,51022,6,0,P|429:59|412:108,1,69.7666679973603,10|0,1:2|0:0,0:0:0:0:
337,72,51204,2,0,P|332:107|366:146,1,69.7666679973603,10|0,1:2|0:0,0:0:0:0:
298,347,51385,6,0,P|331:333|348:284,1,69.7666679973603,10|0,1:2|0:0,0:0:0:0:
423,320,51567,2,0,P|428:285|394:246,1,69.7666679973603,10|0,1:2|0:0,0:0:0:0:
168,20,51840,5,2,0:0:0:0:
225,76,51976,1,2,0:0:0:0:
0,246,52113,6,0,B|30:276|67:265|89:220|78:215|72:210|95:161|141:151|179:190,1,209.300003992081,6|8,1:2|0:0,0:0:0:0:
201,237,52522,1,0,0:0:0:0:
337,72,52658,2,0,P|293:105|300:163,1,104.65000199604,2|0,1:2|1:2,0:0:0:0:
358,317,52931,1,8,0:0:0:0:
488,189,53067,6,0,B|527:185|530:142|530:142|493:95|437:94|409:152,1,209.300003992081,2|0,1:2|1:2,0:0:0:0:
272,347,53476,2,0,P|323:353|359:310,1,104.65000199604,10|0,0:0|0:0,0:0:0:0:
182,133,53749,2,0,P|146:96|96:103,1,104.65000199604,2|0,1:2|0:0,0:0:0:0:
174,384,54022,2,0,P|168:330|195:286,1,104.65000199604,10|0,0:0|0:0,0:0:0:0:
503,269,54294,6,0,B|448:291|406:237|435:215|394:155|339:186,1,209.300003992081,2|10,1:2|0:0,0:0:0:0:
403,13,54704,2,0,P|440:45|430:106,1,104.65000199604,2|0,0:0|1:2,0:0:0:0:
299,269,54976,1,2,1:2:0:0:
503,172,55113,1,8,0:0:0:0:
241,47,55249,6,0,B|184:30|155:82|155:82|75:70|107:3,1,209.300003992081,2|0,1:2|1:2,0:0:0:0:
212,222,55658,2,0,P|245:175|212:120,1,104.65000199604,8|0,0:0|0:0,0:0:0:0:
68,293,55931,2,0,L|178:324,1,104.65000199604,0|0,1:2|0:0,0:0:0:0:
96,162,56204,1,10,0:0:0:0:
33,203,56340,1,2,0:0:0:0:
268,367,56476,6,0,B|297:332|288:296|252:268|252:268|270:301|269:335|239:365,1,209.300003992081,2|8,1:2|0:0,0:0:0:0:
177,384,56885,1,0,0:0:0:0:
336,220,57022,2,0,P|375:181|439:201,1,104.65000199604,2|0,1:2|1:2,0:0:0:0:
398,296,57294,1,8,0:0:0:0:
253,135,57431,6,0,P|206:59|103:108,1,209.300003992081,2|0,1:2|1:2,0:0:0:0:
139,384,57840,2,0,P|172:332|140:282,1,104.65000199604,10|0,0:0|0:0,0:0:0:0:
1,188,58113,2,0,P|29:242|88:239,1,104.65000199604,2|0,1:2|0:0,0:0:0:0:
229,181,58385,2,0,P|167:178|140:231,1,104.65000199604,10|0,0:0|0:0,0:0:0:0:
284,31,58658,6,0,B|356:5|356:5|419:16|432:72|399:105,1,209.300003992081,2|10,1:2|0:0,0:0:0:0:
332,112,59067,1,2,0:0:0:0:
500,246,59204,2,0,P|463:205|402:228,1,104.65000199604,0|2,1:2|1:2,0:0:0:0:
311,306,59476,1,8,0:0:0:0:
509,264,59613,6,0,B|438:291|409:233|441:216|394:156|327:199,1,209.300003992081,6|0,1:2|1:2,0:0:0:0:
195,378,60022,2,0,P|225:329|201:279,1,104.65000199604,10|8,0:3|0:3,0:0:0:0:
39,229,60294,5,10,0:0:0:0:
253,98,60431,1,8,0:0:0:0:
291,184,60567,5,6,0:3:0:0:
81,54,60704,1,4,0:3:0:0:
13,103,60840,6,0,B|74:71|115:129|115:129|185:107|145:39,1,209.300003992081,6|8,1:2|0:0,0:0:0:0:
205,8,61249,1,0,0:0:0:0:
350,238,61385,2,0,P|327:191|360:137,1,104.65000199604,2|0,1:2|1:2,0:0:0:0:
476,40,61658,1,8,0:0:0:0:
495,257,61794,6,0,B|508:281|542:284|542:284|514:350|434:339|417:284,1,209.300003992081,2|0,1:2|1:2,0:0:0:0:
222,349,62204,2,0,P|293:358|316:310,1,104.65000199604,10|0,0:0|0:0,0:0:0:0:
140,258,62476,2,0,P|96:314|126:358,1,104.65000199604,2|0,1:2|0:0,0:0:0:0:
254,239,62749,2,0,P|226:173|173:177,1,104.65000199604,10|0,0:0|0:0,0:0:0:0:
32,155,63022,6,0,B|6:139|3:90|49:56|49:56|28:97|37:129|63:152,1,209.300003992081,2|10,1:2|0:0,0:0:0:0:
181,22,63431,2,0,P|230:11|281:49,1,104.65000199604,2|0,0:0|1:2,0:0:0:0:
187,294,63704,1,2,1:2:0:0:
124,90,63840,1,8,0:0:0:0:
308,223,63976,6,0,B|358:254|402:201|370:170|422:111|492:160,1,209.300003992081,2|0,1:2|1:2,0:0:0:0:
453,356,64385,2,0,P|467:298|424:267,1,104.65000199604,8|0,0:0|0:0,0:0:0:0:
224,360,64658,2,0,L|326:383,1,104.65000199604,0|0,1:2|0:0,0:0:0:0:
268,158,64931,1,10,0:0:0:0:
199,201,65067,1,2,0:0:0:0:
33,178,65204,6,0,B|160:129|160:129|107:155|113:195,1,209.300003992081,2|10,1:2|0:0,0:0:0:0:
257,372,65613,2,0,P|284:320|260:274,1,104.65000199604,2|0,0:0|1:2,0:0:0:0:
239,73,65885,1,2,1:2:0:0:
112,254,66022,1,8,0:0:0:0:
355,129,66158,6,0,B|403:154|446:114|446:114|523:147|478:217,1,209.300003992081,2|0,1:2|1:2,0:0:0:0:
348,365,66567,2,0,P|295:390|249:361,1,104.65000199604,10|2,0:0|0:0,0:0:0:0:
143,144,66840,2,0,P|200:133|237:173,1,104.65000199604,2|0,1:2|0:0,0:0:0:0:
385,29,67113,2,0,P|363:84|354:141,1,104.65000199604,10|0,0:0|0:0,0:0:0:0:
184,271,67385,6,0,B|138:302|88:243|128:211|78:146|18:188,1,209.300003992081,2|8,1:2|0:0,0:0:0:0:
0,246,67794,1,0,0:0:0:0:
256,368,67931,2,0,L|279:251,1,104.65000199604,2|0,1:2|0:0,0:0:0:0:
155,40,68204,2,0,L|168:146,1,104.65000199604,8|0,0:0|0:0,0:0:0:0:
337,216,68476,6,0,B|363:191|406:203|406:203|268:166,1,209.300003992081,2|8,1:2|0:0,0:0:0:0:
244,103,68885,1,0,0:0:0:0:
383,275,69022,2,0,B|434:310|475:261|475:261|542:307|494:365,1,209.300003992081,2|8,1:2|0:0,0:0:0:0:
433,378,69431,1,0,0:0:0:0:
298,326,69567,6,0,B|272:342|264:376|264:376|180:308|253:242,1,209.300003992081,6|10,1:2|0:0,0:0:0:0:
140,73,69976,2,0,P|181:106|177:164,1,104.65000199604,2|0,0:0|1:2,0:0:0:0:
14,259,70249,2,0,L|129:231,1,104.65000199604,2|8,0:0|0:0,0:0:0:0:
374,163,70522,6,0,B|321:125|342:68|342:68|327:130|265:144,1,209.300003992081,2|0,1:2|1:2,0:0:0:0:
445,253,70931,2,0,P|487:215|473:162,1,104.65000199604,10|0,0:0|0:0,0:0:0:0:
271,262,71204,1,10,0:3:0:0:
431,353,71340,1,8,0:3:0:0:
374,163,71476,2,0,L|353:280,1,104.65000199604,6|4,0:3|0:3,0:0:0:0:
199,364,71749,6,0,B|151:323|100:362|100:362|31:322|99:249,1,209.300003992081,6|8,1:2|0:0,0:0:0:0:
16,235,72158,1,0,0:0:0:0:
168,139,72294,2,0,P|190:186|146:228,1,104.65000199604,6|0,1:2|0:0,0:0:0:0:
8,79,72567,2,0,B|62:66|62:66|62:69|62:69|132:56,1,104.65000199604,8|0,0:0|0:0,0:0:0:0:
351,75,72840,6,0,B|306:62|309:7|309:7|289:103|212:92,1,209.300003992081,6|8,1:2|0:0,0:0:0:0:
193,38,73249,1,0,0:0:0:0:
417,132,73385,2,0,P|446:89|410:39,1,104.65000199604,6|0,1:2|0:0,0:0:0:0:
291,192,73658,2,0,P|260:239|288:291,1,104.65000199604,8|0,0:0|0:0,0:0:0:0:
455,370,73931,6,0,B|468:352|460:314|431:296|431:296|445:318|446:350|424:369,1,154.700002950668,10|0,1:2|0:0,0:0:0:0:
464,380,74294,2,0,B|483:360|485:322|461:297|461:297|469:322|462:353|434:367,1,166.833338424683,10|0,1:2|0:0,0:0:0:0:
330,277,75022,6,0,P|300:253|251:261,1,69.7666679973603,10|0,1:2|0:0,0:0:0:0:
271,179,75204,2,0,P|232:183|193:227,1,69.7666679973603,10|0,1:2|0:0,0:0:0:0:
13,139,75385,6,0,P|43:115|92:123,1,69.7666679973603,10|0,1:2|0:0,0:0:0:0:
72,41,75567,2,0,P|111:45|150:89,1,69.7666679973603,10|0,1:2|0:0,0:0:0:0:
72,41,76113,6,0,P|111:45|150:89,1,69.7666679973603,10|0,1:2|0:0,0:0:0:0:
198,21,76294,2,0,P|214:56|195:112,1,69.7666679973603,10|0,1:2|0:0,0:0:0:0:
286,117,76476,2,0,P|263:148|205:160,1,69.7666679973603,10|0,1:2|0:0,0:0:0:0:
283,205,76658,6,0,P|239:172|238:132,1,69.7666679973603,10|0,1:2|0:0,0:0:0:0:
337,263,76840,2,0,P|286:284|251:265,1,69.7666679973603,10|0,1:2|0:0,0:0:0:0:
411,252,77022,2,0,P|404:306|370:327,1,69.7666679973603,10|0,1:2|0:0,0:0:0:0:
510,157,77204,6,0,B|468:176|440:157|428:114|436:107|446:101|432:52|396:38|344:67,1,204.750007810593,10|0,1:2|0:0,0:0:0:0:
218,9,77749,5,10,0:0:0:0:
318,188,77885,1,8,0:0:0:0:
241,153,78022,2,0,P|235:113|251:90,1,61.4249981254578,4|0,0:3|0:0,0:0:0:0:
246,169,78294,6,0,L|139:148,1,95.5499970840455,6|0,1:2|0:0,0:0:0:0:
24,321,78567,2,0,B|61:295|88:323|88:323|104:374|168:363,1,143.324995626068,8|0,0:0|0:0,0:0:0:0:
140,364,78840,2,0,P|177:323|147:272,1,95.5499970840455,0|0,1:2|0:0,0:0:0:0:
246,364,79113,1,10,0:0:0:0:
85,239,79249,1,2,1:2:0:0:
272,143,79385,6,0,L|242:257,1,95.5499970840455,2|2,0:0|1:2,0:0:0:0:
447,358,79658,2,0,L|422:265,1,95.5499970840455,10|2,0:0|0:0,0:0:0:0:
231,60,79931,5,2,1:2:0:0:
392,173,80067,1,2,0:0:0:0:
284,5,80204,1,10,0:0:0:0:
147,150,80340,1,2,0:0:0:0:
361,57,80476,6,0,L|463:78,1,95.5499970840455,2|0,1:2|0:0,0:0:0:0:
217,255,80749,2,0,L|115:276,1,95.5499970840455,10|2,0:0|0:0,0:0:0:0:
246,36,81022,1,2,1:2:0:0:
339,267,81158,1,2,0:0:0:0:
126,151,81294,1,10,0:0:0:0:
365,40,81431,6,0,L|354:151,1,95.5499970840455,2|0,1:2|0:0,0:0:0:0:
505,324,81704,2,0,L|495:228,1,95.5499970840455,2|8,1:2|0:0,0:0:0:0:
351,366,81976,2,0,P|266:368|239:258,1,191.099994168091,2|0,0:0|0:0,0:0:0:0:
235,34,82385,1,10,0:0:0:0:
55,169,82522,1,2,0:0:0:0:
308,192,82658,6,0,P|328:235|293:276,1,95.5499970840455,2|2,1:2|0:0,0:0:0:0:
110,340,82931,1,10,0:0:0:0:
233,128,83067,2,0,P|269:97|323:118,1,95.5499970840455,2|2,0:0|1:2,0:0:0:0:
233,375,83340,1,2,0:0:0:0:
33,271,83476,1,10,0:0:0:0:
33,271,83544,1,2,0:0:0:0:
33,271,83613,1,2,1:2:0:0:
233,128,83749,6,0,L|218:237,1,95.5499970840455,2|0,0:0|1:2,0:0:0:0:
358,383,84022,2,0,L|344:288,1,95.5499970840455,10|0,0:0|0:0,0:0:0:0:
441,135,84294,1,2,1:2:0:0:
316,264,84431,1,2,0:0:0:0:
391,74,84567,1,10,0:0:0:0:
492,261,84704,1,2,0:0:0:0:
309,97,84840,6,0,B|217:64|217:64|246:80|245:109,1,143.324995626068,2|2,1:2|0:0,0:0:0:0:
317,114,85113,2,0,B|350:70|350:70|325:10,1,95.5499970840455,8|2,0:0|0:0,0:0:0:0:
239,200,85385,1,2,1:2:0:0:
418,146,85522,1,2,0:0:0:0:
336,329,85658,1,10,0:0:0:0:
492,261,85794,6,0,B|434:273|434:273|380:230|380:230|308:252,1,191.099994168091,2|2,1:2|1:2,0:0:0:0:
187,378,86204,2,0,L|199:269,1,95.5499970840455,10|2,0:0|0:0,0:0:0:0:
271,141,86476,1,0,1:2:0:0:
82,213,86613,1,2,0:0:0:0:
168,11,86749,2,0,L|180:120,1,95.5499970840455,8|0,0:0|0:0,0:0:0:0:
314,213,87022,6,0,B|351:181|388:213|388:213|409:255|462:243,1,143.324995626068,2|0,1:2|0:0,0:0:0:0:
435,245,87294,2,0,P|466:189|438:156,1,95.5499970840455,10|2,0:0|0:0,0:0:0:0:
248,157,87567,1,2,1:2:0:0:
359,297,87704,1,2,0:0:0:0:
301,110,87840,1,10,0:0:0:0:
165,295,87976,6,0,B|120:304|92:257|92:257|12:286|62:354,1,191.099994168091,2|0,1:2|1:2,0:0:0:0:
247,361,88385,2,0,P|278:321|248:264,1,95.5499970840455,10|0,0:0|0:0,0:0:0:0:
155,373,88658,1,0,1:2:0:0:
342,258,88794,1,2,0:0:0:0:
189,125,88931,2,0,L|208:240,1,95.5499970840455,8|2,0:0|0:0,0:0:0:0:
457,32,89203,6,0,B|391:17|391:17|311:61|376:120,1,191.099994168091,2|10,1:2|0:0,0:0:0:0:
252,29,89612,1,2,0:0:0:0:
446,215,89749,2,0,P|484:179|455:124,1,95.5499970840455,2|2,1:2|0:0,0:0:0:0:
310,332,90022,2,0,L|421:360,1,95.5499970840455,10|2,0:0|1:2,0:0:0:0:
234,194,90294,6,0,B|185:187|174:146|174:146|179:220|129:236,1,191.099994168091,2|10,0:0|0:0,0:0:0:0:
22,121,90703,1,2,0:0:0:0:
199,0,90840,2,0,P|233:37|217:87,1,95.5499970840455,2|0,1:2|0:0,0:0:0:0:
75,300,91112,2,0,P|41:263|57:213,1,95.5499970840455,8|0,0:0|0:0,0:0:0:0:
277,349,91385,6,0,L|179:371,1,95.5499970840455,2|2,1:2|0:0,0:0:0:0:
331,113,91658,2,0,L|429:135,1,95.5499970840455,10|2,0:0|0:0,0:0:0:0:
268,260,91931,1,2,1:2:0:0:
148,84,92067,1,2,0:0:0:0:
179,228,92203,1,10,0:0:0:0:
258,21,92340,6,0,B|290:69|236:106|236:106|213:158|266:189,1,191.099994168091,2|0,1:2|0:0,0:0:0:0:
429,285,92749,2,0,P|417:236|358:222,1,95.5499970840455,8|2,0:0|0:0,0:0:0:0:
174,313,93022,1,2,1:2:0:0:
357,372,93158,1,2,0:0:0:0:
259,184,93294,2,0,L|279:307,1,95.5499970840455,10|2,0:0|0:0,0:0:0:0:
20,96,93567,6,0,B|59:67|89:99|89:99|113:144|166:125,1,143.324995626068,2|0,1:2|0:0,0:0:0:0:
142,130,93840,2,0,P|176:83|156:40,1,95.5499970840455,10|2,0:0|1:2,0:0:0:0:
82,272,94112,1,2,0:0:0:0:
259,184,94249,1,2,1:2:0:0:
322,372,94385,1,10,0:0:0:0:
201,291,94522,1,2,0:0:0:0:
353,159,94658,5,2,1:2:0:0:
260,338,94794,1,2,0:0:0:0:
265,101,94931,1,10,0:0:0:0:
350,274,95067,2,0,P|404:288|447:250,1,95.5499970840455,2|0,1:2|0:0,0:0:0:0:
274,22,95340,1,0,1:2:0:0:
142,154,95476,2,0,L|122:272,1,95.5499970840455,8|0,0:0|0:0,0:0:0:0:
490,113,95749,6,0,B|529:47|449:17|449:17|412:81|356:54,1,227.5,6|0,1:2|0:0,0:0:0:0:
169,77,96158,2,0,B|208:72|213:24|213:24|262:61|269:136|222:164,1,227.5,2|0,1:2|0:0,0:0:0:0:
160,297,96567,1,2,1:2:0:0:
327,153,96704,2,0,L|342:235,1,56.875,2|2,0:0|0:0,0:0:0:0:
370,379,96840,5,2,1:2:0:0:
19,53,97931,6,0,B|50:33|81:60|81:60|94:106|147:99,1,127.399996112061,2|0,0:0|0:0,0:0:0:0:
277,13,98476,2,0,P|249:79|249:140,1,127.399996112061,2|0,0:0|0:0,0:0:0:0:
166,177,98885,1,2,0:0:0:0:
166,177,99021,6,0,P|190:217|192:253,1,63.6999980560303
223,361,99294,2,0,P|226:322|252:283,1,63.6999980560303,2|0,0:0|0:0,0:0:0:0:
362,221,99567,2,0,B|326:212|303:239|303:239|299:193|255:182,1,127.399996112061,2|2,0:0|0:0,0:0:0:0:
272,188,100112,6,0,P|278:131|241:67,1,127.399996112061,2|2,0:0|0:0,0:0:0:0:
365,3,100521,2,0,P|343:37|347:80,1,63.6999980560303,2|0,0:0|0:0,0:0:0:0:
503,137,100794,2,0,P|498:80|432:66,1,127.399996112061,2|2,0:0|0:0,0:0:0:0:
393,143,101204,6,0,L|412:273,1,127.399996112061,2|0,0:0|0:0,0:0:0:0:
299,357,101749,2,0,B|262:367|240:338|255:325|228:283|190:303,1,127.399996112061,0|2,0:0|0:0,0:0:0:0:
133,353,102158,1,2,0:0:0:0:
0,303,102294,6,0,B|79:277|79:277|51:287|46:317,1,127.399996112061,2|0,0:0|0:0,0:0:0:0:
187,188,102840,2,0,B|136:164|136:164|161:76,1,127.399996112061,2|0,0:0|0:0,0:0:0:0:
127,27,103249,1,2,0:0:0:0:
127,27,103385,6,0,P|158:43|200:45,1,63.6999980560303
266,15,103658,2,0,P|295:0|325:9,1,63.6999980560303,2|0,0:0|0:0,0:0:0:0:
388,146,103931,2,0,B|361:126|365:86|365:86|343:112|309:107,1,127.399996112061,2|2,0:0|0:0,0:0:0:0:
311,107,104476,6,0,L|327:251,1,127.399996112061,2|2,0:0|0:0,0:0:0:0:
409,237,104885,2,0,L|398:302,1,63.6999980560303,2|0,0:0|0:0,0:0:0:0:
321,346,105158,2,0,B|279:324|279:324|240:350|240:350|194:330,1,127.399996112061,2|2,0:0|0:0,0:0:0:0:
109,359,105567,6,0,P|108:316|129:290,1,63.6999980560303,2|0,0:0|0:0,0:0:0:0:
189,245,105840,2,0,P|207:217|198:185,1,63.6999980560303,2|0,0:0|0:0,0:0:0:0:
117,67,106112,1,2,0:0:0:0:
215,113,106249,1,0,0:0:0:0:
103,62,106385,2,0,L|117:146,1,63.6999980560303,2|0,0:0|0:0,0:0:0:0:
130,365,106658,6,0,P|60:356|48:262,1,154.700002950668,2|0,1:2|0:0,0:0:0:0:
37,283,107068,1,0,0:0:0:0:
149,240,107204,2,0,B|188:211|221:252|221:252|233:299|287:298,1,154.700002950668,2|0,1:2|0:0,0:0:0:0:
270,297,107613,1,2,0:0:0:0:
410,362,107750,6,0,B|386:339|360:327|360:327|378:282|396:220,1,154.700002950668,0|2,1:2|0:0,0:0:0:0:
390,238,108159,1,0,0:0:0:0:
507,161,108295,2,0,P|476:130|422:139,1,77.3500014753342,2|0,1:2|0:0,0:0:0:0:
288,164,108568,2,0,P|324:175|358:160,1,77.3500014753342,2|0,0:0|0:0,0:0:0:0:
189,45,108841,6,0,B|226:18|226:18|212:142,1,154.700002950668,2|2,1:2|0:0,0:0:0:0:
213,126,109250,1,2,0:0:0:0:
137,197,109386,2,0,P|105:166|47:175,1,77.3500014753342,0|2,1:2|0:0,0:0:0:0:
136,361,109659,1,0,0:0:0:0:
214,253,109795,1,2,0:0:0:0:
75,300,109931,6,0,B|114:267|159:308|135:327|167:366|222:346,1,154.700002950668,0|0,1:2|0:0,0:0:0:0:
202,350,110341,1,0,0:0:0:0:
316,384,110477,2,0,L|312:296,1,77.3500014753342,0|0,1:2|0:0,0:0:0:0:
333,180,110750,1,2,0:0:0:0:
245,238,110886,1,2,0:0:0:0:
388,245,111022,6,0,B|430:226|426:182|426:182|438:225|495:230,1,154.700002950668,2|2,1:2|0:0,0:0:0:0:
480,227,111431,1,2,0:0:0:0:
461,45,111568,2,0,P|424:73|430:117,1,77.3500014753342,0|2,1:2|0:0,0:0:0:0:
370,7,111841,1,0,0:0:0:0:
509,107,111977,1,2,0:0:0:0:
340,132,112113,6,0,B|244:96|244:96|282:110|285:154,1,154.700002950668,0|2,1:2|0:0,0:0:0:0:
280,131,112522,1,0,0:0:0:0:
188,250,112659,2,0,L|202:168,1,77.3500014753342,2|0,1:2|0:0,0:0:0:0:
105,60,112931,2,0,L|118:136,1,77.3500014753342,2|0,0:0|0:0,0:0:0:0:
8,338,113204,6,0,P|26:274|112:286,1,154.700002950668,2|0,1:2|0:0,0:0:0:0:
104,276,113613,1,0,0:0:0:0:
306,324,113750,2,0,B|267:337|237:295|261:279|225:223|164:259,1,154.700002950668,2|0,1:2|0:0,0:0:0:0:
187,249,114159,1,0,0:0:0:0:
320,144,114295,6,0,B|373:131|373:131|452:158|399:228,1,154.700002950668,2|0,1:2|0:0,0:0:0:0:
413,205,114704,1,0,0:0:0:0:
238,105,114841,2,0,P|227:54|254:26,1,77.3500014753342,2|0,1:2|0:0,0:0:0:0:
181,176,115113,1,2,0:0:0:0:
324,64,115249,1,0,0:0:0:0:
299,343,115386,6,0,B|333:316|327:236|276:220|276:220|304:243|294:282|294:282|309:273,1,204.750007810593,6|0,1:2|0:0,0:0:0:0:
179,251,115931,2,0,B|217:275|253:252|265:219|256:212|246:206|265:156|304:144|347:169,1,204.750007810593,6|0,1:2|0:0,0:0:0:0:
428,214,116476,2,0,B|454:184|437:138|402:117|402:117|423:153|422:179|400:208,1,204.750007810593,6|0,1:2|0:0,0:0:0:0:
338,59,117022,2,0,P|304:45|264:60,1,68.250002603531,6|0,1:2|0:0,0:0:0:0:
89,69,117294,6,0,P|85:47|100:70,1,75.0750022911072,2|0,0:0|0:0,0:0:0:0:
102,96,117567,6,0,P|114:134|90:103,1,111.474996598053,2|0,0:0|0:0,0:0:0:0:
81,105,118113,6,0,P|152:186|111:86,1,307.125001171589,6|0,1:2|0:0,0:0:0:0:
123,142,118522,6,0,B|177:177|221:119|189:88|232:35|304:75,1,209.300003992081,6|0,1:2|1:2,0:0:0:0:
451,179,118931,2,0,B|464:124|464:124|423:84,1,104.65000199604,10|0,0:0|0:0,0:0:0:0:
281,230,119204,2,0,B|268:285|268:285|309:325,1,104.65000199604,2|0,1:2|0:0,0:0:0:0:
512,282,119477,2,0,L|395:255,1,104.65000199604,10|0,0:0|0:0,0:0:0:0:
307,136,119750,6,0,B|287:99|292:49|335:32|335:32|314:58|310:97|345:134,1,209.300003992081,2|10,1:2|0:0,0:0:0:0:
152,286,120159,2,0,P|108:320|48:297,1,104.65000199604,2|0,0:0|1:2,0:0:0:0:
207,136,120431,1,2,1:2:0:0:
294,333,120568,1,8,0:0:0:0:
90,232,120704,6,0,B|141:178|99:112|65:152|10:82|89:13,1,209.300003992081,2|0,1:2|1:2,0:0:0:0:
322,200,121113,2,0,P|294:246|219:236,1,104.65000199604,8|0,0:0|0:0,0:0:0:0:
323,15,121386,2,0,L|424:46,1,104.65000199604,0|0,1:2|0:0,0:0:0:0:
207,136,121659,1,10,0:0:0:0:
173,72,121795,1,2,0:0:0:0:
477,164,121931,6,0,B|346:120|346:120|388:132|397:176,1,209.300003992081,2|8,1:2|0:0,0:0:0:0:
342,217,122341,1,0,0:0:0:0:
482,378,122477,2,0,P|519:341|499:294,1,104.65000199604,2|0,1:2|1:2,0:0:0:0:
258,145,122750,1,8,0:0:0:0:
49,318,122886,6,0,B|95:342|135:295|135:295|209:336|159:392,1,209.300003992081,2|0,1:2|1:2,0:0:0:0:
70,206,123295,2,0,B|77:150|77:150|80:149|80:149|87:96,1,104.65000199604,10|0,0:0|0:0,0:0:0:0:
330,256,123568,2,0,B|278:277|278:277|275:275|275:275|234:293,1,104.65000199604,2|0,1:2|0:0,0:0:0:0:
261,24,123841,2,0,B|305:58|305:58|305:61|305:61|341:88,1,104.65000199604,10|0,0:0|0:0,0:0:0:0:
491,340,124113,6,0,B|426:366|394:315|421:287|382:224|321:260,1,209.300003992081,2|10,1:2|0:0,0:0:0:0:
147,360,124522,2,0,P|195:381|241:336,1,104.65000199604,2|0,0:0|1:2,0:0:0:0:
469,170,124794,1,2,1:2:0:0:
363,379,124931,1,8,0:0:0:0:
175,203,125067,6,0,B|160:175|98:188|98:188|222:155,1,209.300003992081,6|0,1:2|1:2,0:0:0:0:
397,31,125476,5,8,0:0:0:0:
297,223,125613,1,8,0:0:0:0:
362,285,125749,5,8,0:3:0:0:
312,62,125885,1,8,0:3:0:0:
504,238,126022,2,0,P|450:251|408:214,1,104.65000199604,8|8,0:0|0:0,0:0:0:0:
166,38,126295,6,0,B|205:32|223:-5|223:-5|196:141,1,209.300003992081,6|8,1:2|0:0,0:0:0:0:
131,157,126704,1,0,0:0:0:0:
12,322,126841,2,0,P|63:337|106:287,1,104.65000199604,2|0,1:2|1:2,0:0:0:0:
259,208,127113,1,8,0:0:0:0:
0,311,127250,6,0,B|51:271|110:320|73:363|119:406|196:363,1,209.300003992081,2|0,1:2|1:2,0:0:0:0:
345,167,127659,2,0,P|326:125|261:121,1,104.65000199604,10|0,0:0|0:0,0:0:0:0:
412,366,127931,2,0,P|464:369|499:320,1,104.65000199604,2|0,1:2|0:0,0:0:0:0:
238,229,128204,2,0,P|263:274|261:342,1,104.65000199604,10|0,0:0|0:0,0:0:0:0:
471,110,128477,6,0,B|422:126|388:85|388:85|295:103|360:190,1,209.300003992081,2|10,1:2|0:0,0:0:0:0:
178,10,128885,2,0,P|229:10|259:71,1,104.65000199604,2|0,0:0|1:2,0:0:0:0:
84,224,129158,1,2,1:2:0:0:
19,36,129294,1,8,0:0:0:0:
238,229,129431,6,0,B|207:250|207:284|207:284|120:209|214:139,1,209.300003992081,2|0,1:2|1:2,0:0:0:0:
390,345,129841,2,0,P|338:351|306:307,1,104.65000199604,8|0,0:0|0:0,0:0:0:0:
124,117,130113,2,0,P|157:79|206:86,1,104.65000199604,0|0,1:2|0:0,0:0:0:0:
57,321,130386,1,10,0:0:0:0:
13,261,130522,1,2,0:0:0:0:
272,161,130659,6,0,B|307:136|341:196|341:196|281:272|217:212,1,209.300003992081,2|10,1:2|0:0,0:0:0:0:
172,259,131068,1,2,0:0:0:0:
185,9,131204,2,0,L|204:120,1,104.65000199604,0|2,1:2|1:2,0:0:0:0:
392,20,131477,1,8,0:0:0:0:
374,257,131613,6,0,B|418:222|465:254|465:254|535:207|471:158,1,209.300003992081,2|0,1:2|1:2,0:0:0:0:
190,347,132022,2,0,P|139:353|103:310,1,104.65000199604,10|2,0:0|0:0,0:0:0:0:
280,133,132295,2,0,P|316:96|366:103,1,104.65000199604,2|0,1:2|0:0,0:0:0:0:
288,384,132568,2,0,P|294:330|267:286,1,104.65000199604,10|0,0:0|0:0,0:0:0:0:
46,59,132841,6,0,B|-25:71|2:141|2:141|71:159|39:244,1,209.300003992081,2|8,1:2|0:0,0:0:0:0:
47,213,133250,1,0,0:0:0:0:
167,331,133386,2,0,B|217:360|277:305|237:272|285:227|352:257,1,209.300003992081,2|8,1:2|0:0,0:0:0:0:
336,251,133795,1,0,0:0:0:0:
452,82,133931,6,0,B|481:63|482:28|482:28|570:94|492:160,1,209.300003992081,2|8,1:2|0:0,0:0:0:0:
504,148,134341,1,0,0:0:0:0:
284,38,134477,2,0,P|322:5|388:35,1,104.65000199604,2|0,1:2|0:0,0:0:0:0:
228,212,134750,2,0,P|178:222|140:189,1,104.65000199604,8|0,0:0|0:0,0:0:0:0:
505,275,135022,6,0,B|461:246|433:282|433:282|409:332|354:306,1,156.975002994061,6|0,1:2|0:0,0:0:0:0:
371,312,135295,2,0,P|337:260|369:222,1,104.65000199604,10|2,0:0|0:0,0:0:0:0:
286,363,135568,1,0,1:2:0:0:
407,109,135704,2,0,P|440:160|408:198,1,104.65000199604,2|8,0:0|0:0,0:0:0:0:
217,55,135977,6,0,B|351:18|351:18|304:40|306:92,1,209.300003992081,2|8,1:2|0:3,0:0:0:0:
130,227,136386,2,0,P|76:222|58:172,1,104.65000199604,10|8,0:3|0:3,0:0:0:0:
305,244,136659,1,6,0:3:0:0:
152,349,136795,1,4,0:3:0:0:
190,136,136931,2,0,L|220:245,1,104.65000199604,10|4,0:0|0:3,0:0:0:0:
313,364,137204,6,0,B|361:323|412:362|412:362|481:322|413:249,1,209.300003992081,6|8,1:2|0:0,0:0:0:0:
496,235,137613,1,0,0:0:0:0:
344,139,137749,2,0,P|322:186|366:228,1,104.65000199604,6|0,1:2|0:0,0:0:0:0:
504,79,138022,2,0,B|450:66|450:66|450:69|450:69|380:56,1,104.65000199604,8|0,0:0|0:0,0:0:0:0:
162,74,138294,6,0,B|207:61|204:6|204:6|224:102|301:91,1,209.300003992081,6|8,1:2|0:0,0:0:0:0:
322,39,138704,1,0,0:0:0:0:
149,214,138840,1,2,1:2:0:0:
372,315,138976,1,8,0:0:0:0:
232,122,139113,1,8,0:0:0:0:
189,378,139249,1,8,0:0:0:0:
431,212,139385,6,0,B|373:199|373:199|335:228|335:228|280:216,1,156.975002994061,6|0,1:2|0:0,0:0:0:0:
445,226,139658,2,0,B|476:177|476:177|454:114,1,104.65000199604,8|0,0:0|0:0,0:0:0:0:
289,34,139931,2,0,L|307:144,1,104.65000199604,0|0,1:2|0:0,0:0:0:0:
407,0,140204,1,10,0:0:0:0:
212,144,140340,6,0,B|174:110|126:141|126:141|67:88|119:41,1,209.300003992081,2|2,1:2|1:2,0:0:0:0:
174,248,140749,2,0,P|204:293|175:342,1,104.65000199604,8|0,0:0|0:0,0:0:0:0:
19,258,141022,2,0,P|39:212|88:204,1,104.65000199604,2|0,1:2|0:0,0:0:0:0:
105,384,141294,1,10,0:0:0:0:
40,342,141431,1,0,0:0:0:0:
260,215,141567,6,0,B|294:179|341:211|341:211|364:261|426:237,1,156.975002994061,2|0,1:2|0:0,0:0:0:0:
393,244,141840,2,0,P|428:202|398:156,1,104.65000199604,8|0,0:0|0:0,0:0:0:0:
285,41,142113,2,0,B|336:17|336:17|340:20|340:20|403:-7,1,104.65000199604,2|0,1:2|0:0,0:0:0:0:
260,215,142385,1,8,0:0:0:0:
204,150,142522,1,0,0:0:0:0:
165,363,142658,6,0,B|122:328|126:268|171:235|171:235|152:274|168:296|168:296|154:291,1,209.300003992081,2|8,1:2|0:0,0:0:0:0:
165,292,143067,1,0,0:0:0:0:
39,208,143204,2,0,P|10:165|38:117,1,104.65000199604,2|0,1:2|0:0,0:0:0:0:
213,29,143476,2,0,L|109:6,1,104.65000199604,8|0,0:0|0:0,0:0:0:0:
374,218,143749,6,0,B|400:182|382:135|347:115|347:115|365:145|374:180|334:215,1,209.300003992081,10|0,1:2|0:0,0:0:0:0:
232,338,144113,2,0,B|188:278|270:243|270:243|290:308|368:294,1,209.300003992081,10|0,1:2|0:0,0:0:0:0:
329,295,144840,6,0,P|324:258|275:236,1,69.7666679973603,10|0,1:2|0:0,0:0:0:0:
329,174,145022,2,0,P|294:159|250:191,1,69.7666679973603,10|0,1:2|0:0,0:0:0:0:
148,375,145204,6,0,P|180:385|211:371,1,69.7666679973603,10|0,1:2|0:0,0:0:0:0:
173,309,145385,2,0,P|198:286|201:252,1,69.7666679973603,10|0,1:2|0:0,0:0:0:0:
178,316,145931,6,0,P|203:293|206:259,1,69.7666679973603,10|0,1:2|0:0,0:0:0:0:
278,249,146113,2,0,P|270:215|243:195,1,69.7666679973603,10|0,1:2|0:0,0:0:0:0:
270,132,146294,2,0,P|237:121|206:135,1,69.7666679973603,10|0,1:2|0:0,0:0:0:0:
156,99,146476,6,0,P|183:134|221:128,1,69.7666679973603,10|0,1:2|0:0,0:0:0:0:
83,76,146658,2,0,P|66:116|84:149,1,69.7666679973603,10|0,1:2|0:0,0:0:0:0:
75,6,146840,2,0,P|31:11|12:43,1,69.7666679973603,10|0,1:2|0:0,0:0:0:0:
155,22,147021,5,10,1:2:0:0:
