osu file format v14

[General]
AudioFilename: audio.mp3
AudioLeadIn: 0
PreviewTime:51759
Countdown: 0
SampleSet: Soft
StackLeniency: 0.5
Mode: 0
LetterboxInBreaks: 0
WidescreenStoryboard: 1

[Editor]
Bookmarks: 55941
DistanceSpacing: 2.9
BeatDivisor: 4
GridSize: 32
TimelineZoom: 2.5

[Metadata]
Title:Yuugure One Room
TitleUnicode:夕暮れワンルーム
Artist:40mP feat. chano
ArtistUnicode:40mP feat. シャノ
Creator:Kujinn
Version:Insane
Source:CHUNITHM
Tags:reform kiyoshi guarden nymphe shano sunset studio japanese jpop j-pop video game ost original soundtrack 40㍍P 40meterp utaite
BeatmapID:3036714
BeatmapSetID:1464036

[Difficulty]
HPDrainRate:5
CircleSize:4
OverallDifficulty:8
ApproachRate:9
SliderMultiplier:1.74
SliderTickRate:1

[Events]
//Background and Video events
0,0,"BG.jpg",0,0
//Break Periods
2,97931,106058
//Storyboard Layer 0 (Background)
//Storyboard Layer 1 (Fail)
//Storyboard Layer 2 (Pass)
//Storyboard Layer 3 (Foreground)
//Storyboard Layer 4 (Overlay)
//Storyboard Sound Samples

[TimingPoints]
5204,272.727272727273,4,2,22,65,1,0
6294,-86.9565217391303,4,2,22,65,0,0
7931,-153.846153846154,4,2,22,75,0,0
8476,-95.2380952380953,4,2,22,75,0,0
17204,-117.647058823529,4,2,22,55,0,0
51022,-86.9565217391302,4,2,22,55,0,0
52113,-95.2380952380952,4,2,22,85,0,1
73931,-117.647058823529,4,2,22,75,0,0
74749,-86.9565217391302,4,2,22,75,0,0
77204,-133.333333333333,4,2,22,75,0,0
78022,-222.222222222221,4,2,22,75,0,0
78285,-95.2380952380952,4,2,22,75,0,0
87022,-95.2380952380951,4,2,22,75,0,0
88385,-74.0740740740741,4,2,22,75,0,0
88794,-95.2380952380952,4,2,22,75,0,0
95063,-74.0740740740741,4,2,22,75,0,0
95749,-79.9999999999999,4,2,22,75,0,0
106658,-133.333333333333,4,2,22,55,0,0
118113,-64.5161290322581,4,2,22,75,0,0
118522,-86.9565217391304,4,2,22,85,0,1
139385,-86.9565217391304,4,2,22,75,0,0

[Colours]
Combo1 : 254,199,231
Combo2 : 222,147,101
Combo3 : 244,211,79
Combo4 : 241,117,50
Combo5 : 243,82,58
Combo6 : 169,208,87
Combo7 : 68,145,62
Combo8 : 87,154,215

[HitObjects]
97,297,5476,6,0,L|106:345,2,43.5,8|8|8,0:3|0:3|0:3,0:0:0:0:
166,230,5749,1,8,0:0:0:0:
74,179,5885,1,8,0:0:0:0:
143,110,6022,1,4,0:3:0:0:
143,110,6294,6,0,P|185:119|232:138,1,66.7000012722016,10|0,1:2|0:0,0:0:0:0:
289,18,6476,2,0,P|260:49|220:81,1,66.7000012722016,10|0,1:2|0:0,0:0:0:0:
303,189,6658,2,0,P|289:148|282:97,1,66.7000012722016,10|0,1:2|0:0,0:0:0:0:
191,276,6840,6,0,P|219:244|259:212,1,66.7000012722016,10|0,1:2|0:0,0:0:0:0:
367,284,7022,2,0,P|325:274|278:256,1,66.7000012722016,10|0,1:2|0:0,0:0:0:0:
285,124,7204,2,0,P|298:164|305:215,1,66.7000012722016,10|0,1:2|0:0,0:0:0:0:
328,356,7385,5,10,1:2:0:0:
328,356,7931,6,0,B|287:324|228:353|261:379|184:411|140:360,1,197.924990939713,4|0,0:3|0:0,0:0:0:0:
69,344,8476,6,0,P|63:294|52:240,1,91.3499972122193,6|0,1:2|0:0,0:0:0:0:
206,100,8749,2,0,P|197:144|192:190,1,91.3499972122193,8|0,0:0|0:0,0:0:0:0:
236,256,9022,1,2,1:2:0:0:
107,151,9158,2,0,P|57:172|-6:187,1,91.3499972122193,2|8,1:2|0:0,0:0:0:0:
195,329,9431,6,0,P|261:342|376:383,1,182.699994424439,2|0,1:2|1:2,0:0:0:0:
457,342,9840,2,0,P|485:301|476:249,1,91.3499972122193,8|0,0:0|0:0,0:0:0:0:
377,149,10113,2,0,P|349:190|358:242,1,91.3499972122193,0|0,1:2|0:0,0:0:0:0:
489,98,10385,2,0,P|437:77|392:53,1,91.3499972122193,10|2,0:0|0:0,0:0:0:0:
181,117,10658,6,0,P|247:124|299:14,1,182.699994424439,2|10,1:2|0:0,0:0:0:0:
117,48,11067,2,0,P|94:90|110:148,1,91.3499972122193,2|0,0:0|1:2,0:0:0:0:
218,260,11340,2,0,P|193:219|134:203,1,91.3499972122193,2|8,1:2|0:0,0:0:0:0:
95,335,11613,6,0,P|176:309|285:283,1,182.699994424439,2|0,1:2|1:2,0:0:0:0:
407,370,12022,2,0,P|383:327|409:268,1,91.3499972122193,10|0,0:0|0:0,0:0:0:0:
327,167,12294,2,0,P|284:144|219:133,1,91.3499972122193,2|0,1:2|0:0,0:0:0:0:
414,274,12567,2,0,P|438:231|412:172,1,91.3499972122193,10|0,0:0|0:0,0:0:0:0:
427,38,12840,6,0,P|471:27|511:5,1,91.3499972122193,2|0,1:2|0:0,0:0:0:0:
512,224,13113,2,0,P|469:201|404:190,1,91.3499972122193,8|0,0:0|0:0,0:0:0:0:
311,103,13385,1,2,1:2:0:0:
240,219,13522,2,0,P|255:269|263:329,1,91.3499972122193,2|8,1:2|0:0,0:0:0:0:
82,372,13794,6,0,P|13:371|-5:265,1,182.699994424439,2|0,1:2|1:2,0:0:0:0:
50,136,14204,2,0,P|80:175|77:229,1,91.3499972122193,8|0,0:0|0:0,0:0:0:0:
182,31,14476,2,0,P|163:76|114:100,1,91.3499972122193,0|0,1:2|0:0,0:0:0:0:
310,145,14749,2,0,P|261:151|215:121,1,91.3499972122193,10|2,0:0|0:0,0:0:0:0:
399,256,15022,6,0,P|415:182|459:44,1,182.699994424439,2|8,1:2|0:0,0:0:0:0:
387,0,15431,2,0,P|367:26|367:96,1,91.3499972122193,2|0,0:0|1:2,0:0:0:0:
483,245,15704,2,0,P|503:219|503:149,1,91.3499972122193,2|8,1:2|0:0,0:0:0:0:
309,279,15976,6,0,P|373:305|490:368,1,182.699994424439,6|8,1:2|0:0,0:0:0:0:
362,200,16385,2,0,P|326:174|281:174,1,91.3499972122193,10|0,0:0|1:2,0:0:0:0:
171,208,16658,5,10,0:0:0:0:
179,221,16794,1,8,0:0:0:0:
230,307,16931,5,10,0:3:0:0:
224,320,17067,1,8,0:3:0:0:
78,341,17204,6,0,P|14:326|17:229,1,147.900002820969,6|8,1:2|0:0,0:0:0:0:
0,254,17749,1,2,1:2:0:0:
73,190,17885,2,0,P|82:233|96:280,1,73.9500014104843,2|8,0:0|0:0,0:0:0:0:
128,133,18158,6,0,P|98:112|61:112,1,73.9500014104843,2|0,1:2|0:0,0:0:0:0:
219,148,18431,2,0,P|222:111|203:79,1,73.9500014104843,0|8,1:2|0:0,0:0:0:0:
249,229,18704,1,0,0:0:0:0:
249,229,18840,2,0,P|282:213|300:181,1,73.9500014104843,0|0,1:2|0:0,0:0:0:0:
155,213,19113,1,10,0:0:0:0:
155,213,19249,1,2,0:0:0:0:
226,326,19385,6,0,P|285:342|382:382,1,147.900002820969,2|8,1:2|0:0,0:0:0:0:
365,373,19931,1,2,1:2:0:0:
464,283,20067,2,0,P|489:323|484:379,1,73.9500014104843,2|8,0:0|0:0,0:0:0:0:
358,232,20340,6,0,P|379:162|409:81,1,147.900002820969,2|0,1:2|1:2,0:0:0:0:
345,10,20749,2,0,P|311:40|263:41,1,73.9500014104843,10|0,0:0|0:0,0:0:0:0:
147,77,21022,2,0,P|183:79|215:103,1,73.9500014104843,2|0,1:2|0:0,0:0:0:0:
268,204,21294,2,0,P|283:151|298:105,1,73.9500014104843,10|0,0:0|0:0,0:0:0:0:
94,241,21567,6,0,P|113:306|133:387,1,147.900002820969,2|8,1:2|0:0,0:0:0:0:
132,383,22113,1,2,1:2:0:0:
257,307,22249,2,0,P|216:292|180:277,1,73.9500014104843,2|8,0:0|0:0,0:0:0:0:
353,376,22522,6,0,P|401:355|443:340,1,73.9500014104843,2|0,1:2|0:0,0:0:0:0:
361,200,22794,1,0,1:2:0:0:
361,200,22931,2,0,P|355:243|346:290,1,73.9500014104843,10|0,0:0|0:0,0:0:0:0:
494,195,23204,2,0,P|487:158|482:121,1,73.9500014104843,2|0,1:2|0:0,0:0:0:0:
342,30,23476,2,0,P|384:45|426:69,1,73.9500014104843,10|0,0:0|0:0,0:0:0:0:
227,184,23749,6,0,P|191:147|237:48,1,147.900002820969,2|8,1:2|0:0,0:0:0:0:
155,173,24158,2,0,P|119:195|71:196,1,73.9500014104843,2|0,0:0|1:2,0:0:0:0:
281,118,24431,2,0,P|317:123|347:143,1,73.9500014104843,2|8,0:0|0:0,0:0:0:0:
249,330,24704,6,0,P|240:264|224:168,1,147.900002820969,2|0,1:2|1:2,0:0:0:0:
338,341,25113,2,0,P|346:288|353:247,1,73.9500014104843,10|0,0:0|0:0,0:0:0:0:
449,360,25385,1,2,1:2:0:0:
449,360,25522,1,2,0:0:0:0:
425,191,25658,2,0,P|433:244|440:285,1,73.9500014104843,10|0,0:0|0:0,0:0:0:0:
310,149,25931,6,0,B|269:142|232:177|265:186|227:222|187:216,1,147.900002820969,2|8,1:2|0:0,0:0:0:0:
190,217,26476,1,2,1:2:0:0:
125,309,26613,2,0,P|166:322|226:344,1,73.9500014104843,2|8,0:0|0:0,0:0:0:0:
70,164,26885,6,0,P|35:176|0:187,1,73.9500014104843,2|0,1:2|0:0,0:0:0:0:
128,31,27158,2,0,P|152:64|145:112,1,73.9500014104843,0|8,1:2|0:0,0:0:0:0:
93,241,27431,1,0,0:0:0:0:
93,241,27567,2,0,P|69:208|76:160,1,73.9500014104843,0|0,1:2|0:0,0:0:0:0:
208,288,27840,2,0,P|199:329|192:374,1,73.9500014104843,10|2,0:0|0:0,0:0:0:0:
306,210,28113,6,0,B|347:203|384:238|351:247|389:283|429:277,1,147.900002820969,2|8,1:2|0:0,0:0:0:0:
426,277,28658,1,2,1:2:0:0:
354,348,28794,2,0,P|312:360|271:382,1,73.9500014104843,2|8,0:0|0:0,0:0:0:0:
151,228,29067,6,0,P|188:223|245:314,1,147.900002820969,2|0,1:2|1:2,0:0:0:0:
80,277,29476,2,0,P|61:238|79:186,1,73.9500014104843,10|0,0:0|0:0,0:0:0:0:
191,106,29749,2,0,P|166:141|112:152,1,73.9500014104843,2|0,1:2|0:0,0:0:0:0:
0,113,30022,2,0,P|43:116|79:157,1,73.9500014104843,10|0,0:0|0:0,0:0:0:0:
191,267,30294,6,0,P|252:236|360:209,1,147.900002820969,2|8,1:2|0:0,0:0:0:0:
328,213,30840,1,2,1:2:0:0:
424,111,30976,2,0,P|377:97|338:75,1,73.9500014104843,2|8,0:0|0:0,0:0:0:0:
275,8,31249,6,0,P|264:43|252:78,1,73.9500014104843,2|0,1:2|0:0,0:0:0:0:
172,177,31522,1,0,1:2:0:0:
172,177,31658,2,0,P|161:141|149:106,1,73.9500014104843,10|0,0:0|0:0,0:0:0:0:
258,236,31931,2,0,P|217:257|172:284,1,73.9500014104843,2|0,1:2|0:0,0:0:0:0:
329,156,32204,2,0,P|361:174|394:190,1,73.9500014104843,10|0,0:0|0:0,0:0:0:0:
481,358,32476,6,0,P|427:364|375:285,1,147.900002820969,2|8,1:2|0:0,0:0:0:0:
474,222,32885,2,0,P|456:268|442:306,1,73.9500014104843,2|0,0:0|1:2,0:0:0:0:
328,119,33158,2,0,P|346:165|360:203,1,73.9500014104843,2|8,0:0|0:0,0:0:0:0:
497,71,33431,6,0,P|450:54|344:10,1,147.900002820969,6|8,1:2|0:3,0:0:0:0:
266,58,33840,1,10,0:3:0:0:
255,54,33976,1,4,0:3:0:0:
199,125,34113,5,10,0:0:0:0:
266,184,34249,1,10,0:0:0:0:
202,240,34385,1,2,1:2:0:0:
192,245,34522,1,2,0:0:0:0:
299,317,34658,6,0,B|340:310|377:345|344:354|382:390|422:384,1,147.900002820969,6|8,1:2|0:0,0:0:0:0:
419,384,35204,2,0,P|438:324|473:238,1,147.900002820969,2|8,1:2|0:0,0:0:0:0:
495,145,35613,6,0,P|451:132|394:224,1,147.900002820969,2|0,1:2|1:2,0:0:0:0:
325,251,36022,2,0,P|377:273|419:296,1,73.9500014104843,10|0,0:0|0:0,0:0:0:0:
215,184,36294,2,0,P|267:162|309:139,1,73.9500014104843,2|0,1:2|0:0,0:0:0:0:
105,244,36567,2,0,P|157:266|199:289,1,73.9500014104843,10|0,0:0|0:0,0:0:0:0:
92,144,36840,6,0,P|77:207|52:304,1,147.900002820969,2|10,1:2|0:0,0:0:0:0:
126,370,37249,2,0,P|178:370|208:341,1,73.9500014104843,2|0,0:0|1:2,0:0:0:0:
306,264,37522,2,0,P|273:247|237:252,1,73.9500014104843,2|8,0:0|0:0,0:0:0:0:
346,365,37794,6,0,P|414:349|518:327,1,147.900002820969,2|0,1:2|1:2,0:0:0:0:
392,190,38204,2,0,P|411:232|426:266,1,73.9500014104843,10|0,0:0|0:0,0:0:0:0:
433,114,38476,2,0,P|398:106|350:93,1,73.9500014104843,2|0,1:2|0:0,0:0:0:0:
491,177,38749,1,10,0:0:0:0:
499,152,38885,1,2,0:0:0:0:
290,44,39022,6,0,P|261:89|297:172,1,147.900002820969,2|8,1:2|0:0,0:0:0:0:
323,280,39431,2,0,P|280:298|235:325,1,73.9500014104843,2|0,0:0|1:2,0:0:0:0:
121,162,39704,2,0,P|153:179|186:195,1,73.9500014104843,2|8,0:0|0:0,0:0:0:0:
11,222,39976,6,0,P|32:162|64:63,1,147.900002820969,2|0,1:2|1:2,0:0:0:0:
157,6,40385,2,0,P|194:21|215:66,1,73.9500014104843,10|0,0:0|0:0,0:0:0:0:
308,28,40658,2,0,P|313:67|285:108,1,73.9500014104843,2|0,1:2|0:0,0:0:0:0:
367,168,40931,2,0,P|335:192|286:188,1,73.9500014104843,10|0,0:0|0:0,0:0:0:0:
187,285,41204,6,0,P|245:300|346:335,1,147.900002820969,6|10,1:2|0:0,0:0:0:0:
422,377,41613,2,0,P|466:360|516:344,1,73.9500014104843,2|4,0:0|1:2,0:0:0:0:
365,189,41885,2,0,P|352:229|371:265,1,73.9500014104843,2|8,0:0|0:0,0:0:0:0:
441,104,42158,6,0,P|452:162|473:264,1,147.900002820969,6|0,1:2|1:2,0:0:0:0:
424,342,42567,1,10,0:0:0:0:
414,338,42704,1,8,0:3:0:0:
334,284,42840,5,2,1:2:0:0:
256,352,42976,1,8,0:0:0:0:
185,294,43113,1,10,0:3:0:0:
176,299,43249,1,4,0:3:0:0:
39,373,43385,6,0,P|53:300|67:227,1,147.900002820969,6|8,1:2|0:0,0:0:0:0:
67,227,43931,2,0,P|28:222|20:122,1,147.900002820969,2|8,1:2|0:0,0:0:0:0:
48,43,44340,6,0,B|89:36|126:71|93:80|131:116|171:110,1,147.900002820969,2|0,1:2|1:2,0:0:0:0:
248,32,44749,2,0,P|256:83|263:127,1,73.9500014104843,10|0,0:0|0:0,0:0:0:0:
356,170,45022,2,0,P|361:133|367:96,1,73.9500014104843,2|0,1:2|0:0,0:0:0:0:
461,26,45294,2,0,P|469:77|476:121,1,73.9500014104843,10|0,0:0|0:0,0:0:0:0:
476,234,45567,6,0,P|433:227|380:311,1,147.900002820969,2|8,1:2|0:0,0:0:0:0:
378,302,46113,2,0,P|429:317|514:368,1,147.900002820969,2|8,1:2|0:0,0:0:0:0:
343,205,46522,6,0,P|280:244|210:267,1,147.900002820969,2|0,1:2|1:2,0:0:0:0:
79,216,46931,2,0,P|60:182|76:130,1,73.9500014104843,8|0,0:0|0:0,0:0:0:0:
120,36,47204,2,0,P|83:53|34:67,1,73.9500014104843,0|0,1:2|0:0,0:0:0:0:
161,133,47476,2,0,P|196:144|229:160,1,73.9500014104843,10|0,0:0|0:0,0:0:0:0:
304,66,47749,6,0,P|284:120|254:234,1,147.900002820969,2|10,1:2|0:0,0:0:0:0:
166,310,48158,2,0,P|156:265|179:229,1,73.9500014104843,2|0,0:0|1:2,0:0:0:0:
347,213,48431,2,0,P|357:258|334:294,1,73.9500014104843,2|8,0:0|0:0,0:0:0:0:
254,346,48704,6,0,P|310:357|421:392,1,147.900002820969,2|0,1:2|1:2,0:0:0:0:
397,382,49113,1,10,0:0:0:0:
502,278,49249,2,0,P|466:295|409:312,1,73.9500014104843,2|0,0:0|1:2,0:0:0:0:
351,169,49522,1,2,0:0:0:0:
351,169,49658,2,0,P|385:181|419:197,1,73.9500014104843,8|0,0:0|0:0,0:0:0:0:
224,243,49931,6,0,P|240:178|271:77,1,147.900002820969,2|0,1:2|0:0,0:0:0:0:
39,330,50476,6,0,P|21:258|0:187,1,147.900002820969,2|0,1:2|0:0,0:0:0:0:
0,187,51022,6,0,P|40:201|91:218,1,66.7000012722016,10|0,1:2|0:0,0:0:0:0:
101,315,51204,2,0,P|126:293|151:271,1,66.7000012722016,10|0,1:2|0:0,0:0:0:0:
237,202,51385,2,0,P|196:187|146:171,1,66.7000012722016,10|0,1:2|0:0,0:0:0:0:
136,73,51567,2,0,P|109:94|84:116,1,66.7000012722016,10|0,1:2|0:0,0:0:0:0:
280,107,51840,5,2,0:0:0:0:
277,97,51976,1,2,0:0:0:0:
353,208,52113,6,0,B|407:199|454:240|412:257|461:289|520:278,1,182.699994424439,6|8,1:2|0:0,0:0:0:0:
509,280,52522,1,0,0:0:0:0:
314,305,52658,2,0,P|252:325|138:382,1,182.699994424439,2|8,1:2|0:0,0:0:0:0:
43,320,53067,6,0,P|48:258|162:256,1,182.699994424439,2|0,1:2|1:2,0:0:0:0:
268,114,53476,2,0,P|252:162|236:227,1,91.3499972122193,10|0,0:0|0:0,0:0:0:0:
111,29,53749,2,0,P|127:77|143:142,1,91.3499972122193,2|0,1:2|0:0,0:0:0:0:
317,50,54022,2,0,P|257:32|205:14,1,91.3499972122193,10|0,0:0|0:0,0:0:0:0:
352,188,54294,6,0,B|390:139|452:170|452:170|462:222|527:223,1,182.699994424439,2|10,1:2|0:0,0:0:0:0:
417,290,54704,2,0,P|368:309|326:332,1,91.3499972122193,2|0,0:0|1:2,0:0:0:0:
184,182,54976,2,0,P|224:203|267:219,1,91.3499972122193,2|8,1:2|0:0,0:0:0:0:
117,274,55249,6,0,P|133:211|168:81,1,182.699994424439,2|0,1:2|1:2,0:0:0:0:
101,21,55658,2,0,B|70:52|70:52|78:109,1,91.3499972122193,8|0,0:0|0:0,0:0:0:0:
217,209,55931,2,0,B|248:178|248:178|240:121,1,91.3499972122193,0|0,1:2|0:0,0:0:0:0:
59,194,56204,1,10,0:0:0:0:
50,194,56340,1,2,0:0:0:0:
163,306,56476,6,0,B|208:286|267:331|221:346|271:383|338:358,1,182.699994424439,2|8,1:2|0:0,0:0:0:0:
321,362,56885,1,0,0:0:0:0:
409,217,57022,2,0,B|361:170|290:211|290:211|301:254|346:261,1,182.699994424439,2|8,1:2|0:0,0:0:0:0:
456,342,57431,6,0,P|475:271|521:137,1,182.699994424439,2|0,1:2|1:2,0:0:0:0:
472,29,57840,2,0,P|421:49|365:65,1,91.3499972122193,10|0,0:0|0:0,0:0:0:0:
233,155,58113,2,0,P|276:168|318:185,1,91.3499972122193,2|0,1:2|0:0,0:0:0:0:
320,0,58385,2,0,P|292:37|309:98,1,91.3499972122193,10|0,0:0|0:0,0:0:0:0:
440,189,58658,6,0,P|391:176|333:278,1,182.699994424439,2|10,1:2|0:0,0:0:0:0:
275,349,59067,2,0,P|238:383|178:367,1,91.3499972122193,2|0,0:0|1:2,0:0:0:0:
97,240,59340,2,0,P|141:241|173:273,1,91.3499972122193,2|8,1:2|0:0,0:0:0:0:
35,341,59613,6,0,P|52:274|84:151,1,182.699994424439,6|0,1:2|1:2,0:0:0:0:
25,75,60022,1,10,0:3:0:0:
34,74,60158,1,8,0:3:0:0:
122,14,60294,5,10,0:0:0:0:
199,104,60431,1,8,0:0:0:0:
278,25,60567,1,6,0:3:0:0:
269,24,60704,1,4,0:3:0:0:
345,133,60840,6,0,B|390:147|430:114|430:114|480:163|426:207,1,182.699994424439,6|8,1:2|0:0,0:0:0:0:
439,194,61249,1,0,0:0:0:0:
345,296,61385,2,0,B|300:276|241:321|287:336|237:373|170:348,1,182.699994424439,2|8,1:2|0:0,0:0:0:0:
86,170,61794,2,0,P|146:163|209:264,1,182.699994424439,2|0,1:2|1:2,0:0:0:0:
100,332,62204,6,0,P|116:274|135:220,1,91.3499972122193,10|0,0:0|0:0,0:0:0:0:
0,135,62476,2,0,P|14:178|25:222,1,91.3499972122193,2|0,1:2|0:0,0:0:0:0:
175,74,62749,2,0,P|123:60|66:40,1,91.3499972122193,10|0,0:0|0:0,0:0:0:0:
247,205,63022,6,0,P|290:190|447:152,1,182.699994424439,2|10,1:2|0:0,0:0:0:0:
439,69,63431,2,0,P|398:61|352:98,1,91.3499972122193,2|0,0:0|1:2,0:0:0:0:
399,248,63704,2,0,P|440:256|486:219,1,91.3499972122193,2|8,1:2|0:0,0:0:0:0:
191,119,63976,6,0,B|167:175|218:205|224:193|231:191|291:219|257:284,1,182.699994424439,2|0,1:2|1:2,0:0:0:0:
172,339,64385,2,0,P|119:355|65:374,1,91.3499972122193,8|0,0:0|0:0,0:0:0:0:
264,264,64658,2,0,P|307:278|351:291,1,91.3499972122193,0|0,1:2|0:0,0:0:0:0:
117,202,64931,1,10,0:0:0:0:
105,197,65067,1,2,0:0:0:0:
254,75,65204,6,0,B|301:45|341:88|341:88|363:142|425:128,1,182.699994424439,2|10,1:2|0:0,0:0:0:0:
470,6,65613,2,0,P|427:20|406:60,1,91.3499972122193,2|0,0:0|1:2,0:0:0:0:
501,223,65885,2,0,P|509:179|485:141,1,91.3499972122193,2|8,1:2|0:0,0:0:0:0:
337,274,66158,6,0,P|408:292|547:334,1,182.699994424439,2|0,1:2|1:2,0:0:0:0:
312,201,66567,2,0,P|272:224|267:290,1,91.3499972122193,10|2,0:0|0:0,0:0:0:0:
402,200,66840,2,0,P|418:157|435:115,1,91.3499972122193,2|0,1:2|0:0,0:0:0:0:
260,18,67113,2,0,P|276:60|292:103,1,91.3499972122193,10|0,0:0|0:0,0:0:0:0:
448,39,67385,6,0,B|399:24|350:59|392:81|335:126|276:97,1,182.699994424439,2|8,1:2|0:0,0:0:0:0:
15,179,67931,2,0,B|64:164|113:199|71:221|128:266|187:237,1,182.699994424439,2|8,1:2|0:0,0:0:0:0:
362,372,68476,6,0,P|375:319|411:187,1,182.699994424439,2|8,1:2|0:0,0:0:0:0:
124,65,69022,2,0,P|148:153|171:242,1,182.699994424439,2|8,1:2|0:0,0:0:0:0:
171,241,69567,6,0,P|142:285|11:277,1,182.699994424439,6|10,1:2|0:0,0:0:0:0:
153,146,69976,2,0,P|202:161|268:180,1,91.3499972122193,2|0,0:0|1:2,0:0:0:0:
42,111,70249,2,0,P|55:154|68:198,1,91.3499972122193,2|8,0:0|0:0,0:0:0:0:
181,41,70522,6,0,B|228:11|268:54|268:54|290:108|352:94,1,182.699994424439,2|0,1:2|1:2,0:0:0:0:
457,32,70931,2,0,P|443:86|431:151,1,91.3499972122193,10|0,0:0|0:0,0:0:0:0:
353,202,71204,1,10,0:3:0:0:
439,275,71340,1,8,0:3:0:0:
362,348,71476,1,6,0:3:0:0:
346,340,71613,1,4,0:3:0:0:
200,377,71749,6,0,P|171:322|48:346,1,182.699994424439,6|8,1:2|0:0,0:0:0:0:
270,162,72294,2,0,P|299:107|422:131,1,182.699994424439,6|8,1:2|0:0,0:0:0:0:
96,22,72840,6,0,P|84:103|63:211,1,182.699994424439,6|8,1:2|0:0,0:0:0:0:
351,168,73385,2,0,P|363:249|384:357,1,182.699994424439,6|8,1:2|0:0,0:0:0:0:
382,347,73931,6,0,B|348:318|264:346|315:377|239:418|175:357,1,197.200003761292,10|10,1:2|1:2,0:0:0:0:
43,192,75022,6,0,P|78:192|114:154,1,66.7000012722016,10|0,1:2|0:0,0:0:0:0:
66,51,75204,2,0,P|48:81|63:131,1,66.7000012722016,10|0,1:2|0:0,0:0:0:0:
178,142,75385,2,0,P|160:111|109:99,1,66.7000012722016,10|0,1:2|0:0,0:0:0:0:
43,192,75567,1,10,1:2:0:0:
456,336,76113,6,0,L|476:251,1,66.7000012722016,10|0,1:2|0:0,0:0:0:0:
381,293,76294,2,0,L|401:208,1,66.7000012722016,10|0,1:2|0:0,0:0:0:0:
306,250,76476,2,0,L|326:165,1,66.7000012722016,10|0,1:2|0:0,0:0:0:0:
306,120,76658,6,0,L|326:205,1,66.7000012722016,10|0,1:2|0:0,0:0:0:0:
231,163,76840,2,0,L|251:248,1,66.7000012722016,10|0,1:2|0:0,0:0:0:0:
156,206,77022,2,0,L|176:291,1,66.7000012722016,10|0,1:2|0:0,0:0:0:0:
36,345,77204,6,0,P|128:362|233:381,1,195.75000746727,10|0,1:2|0:0,0:0:0:0:
307,335,77749,1,10,0:0:0:0:
319,338,77885,1,8,0:0:0:0:
216,220,78022,2,0,P|188:238|178:267,1,58.7249982078553,4|0,0:3|0:0,0:0:0:0:
266,279,78294,6,0,P|257:216|245:151,1,91.3499972122193,6|0,1:2|0:0,0:0:0:0:
86,133,78567,2,0,B|138:149|169:89|133:78|172:21|228:36,1,182.699994424439,8|0,0:0|1:2,0:0:0:0:
216,34,78976,1,0,0:0:0:0:
301,102,79113,2,0,P|347:119|404:147,1,91.3499972122193,10|2,0:0|1:2,0:0:0:0:
393,225,79385,6,0,P|342:222|306:185,1,91.3499972122193,2|2,0:0|1:2,0:0:0:0:
382,44,79658,2,0,P|433:47|469:84,1,91.3499972122193,10|2,0:0|0:0,0:0:0:0:
278,122,79931,5,2,1:2:0:0:
214,78,80067,1,2,0:0:0:0:
141,130,80204,1,10,0:0:0:0:
129,127,80340,1,2,0:0:0:0:
190,239,80476,6,0,L|265:254,2,60.8999981414796,2|2|2,1:2|0:0|0:0,0:0:0:0:
115,275,80749,2,0,P|89:317|118:375,1,91.3499972122193,10|2,0:0|0:0,0:0:0:0:
97,192,81022,2,0,P|73:148|8:144,1,91.3499972122193,2|2,1:2|0:0,0:0:0:0:
190,239,81294,1,10,0:0:0:0:
298,154,81431,6,0,P|309:109|319:47,1,91.3499972122193,2|0,1:2|0:0,0:0:0:0:
446,245,81704,2,0,P|435:200|425:138,1,91.3499972122193,2|8,1:2|0:0,0:0:0:0:
293,273,81976,2,0,B|348:265|379:317|340:328|374:380|435:370,1,182.699994424439,2|0,0:0|0:0,0:0:0:0:
197,347,82385,2,0,P|153:365|94:396,1,91.3499972122193,10|2,0:0|0:0,0:0:0:0:
35,260,82658,6,0,L|22:200,2,45.6749986061097,2|2|2,1:2|0:0|0:0,0:0:0:0:
154,142,82931,2,0,P|106:130|56:110,1,91.3499972122193,10|2,0:0|0:0,0:0:0:0:
187,270,83204,2,0,P|229:253|274:243,1,91.3499972122193,2|2,1:2|0:0,0:0:0:0:
387,318,83476,2,0,L|400:378,2,45.6749986061097,10|2|2,0:0|0:0|1:2,0:0:0:0:
468,226,83749,6,0,P|484:191|457:131,1,91.3499972122193,2|0,0:0|1:2,0:0:0:0:
306,72,84022,2,0,P|328:103|393:109,1,91.3499972122193,10|0,0:0|0:0,0:0:0:0:
512,23,84294,2,0,P|473:26|435:80,1,91.3499972122193,2|2,1:2|0:0,0:0:0:0:
356,198,84567,1,10,0:0:0:0:
361,210,84704,1,2,0:0:0:0:
468,357,84840,6,0,P|442:316|353:333,1,137.024995818329,2|2,1:2|0:0,0:0:0:0:
332,358,85113,2,0,P|294:377|245:354,1,91.3499972122193,8|2,0:0|0:0,0:0:0:0:
203,279,85385,1,2,1:2:0:0:
192,280,85522,1,2,0:0:0:0:
291,214,85658,1,10,0:0:0:0:
212,134,85794,1,2,1:2:0:0:
294,29,85931,6,0,P|351:50|410:64,1,91.3499972122193,2|2,0:0|1:2,0:0:0:0:
380,57,86204,1,10,0:0:0:0:
212,134,86340,2,0,P|168:146|125:162,1,91.3499972122193,2|0,0:0|1:2,0:0:0:0:
320,275,86613,1,2,0:0:0:0:
316,269,86749,2,0,P|327:219|344:157,1,91.3499972122193,8|0,0:0|0:0,0:0:0:0:
45,137,87022,6,0,P|40:173|71:223,1,91.3499972122193,2|2,1:2|0:0,0:0:0:0:
200,39,87294,1,10,0:0:0:0:
186,36,87431,1,2,0:0:0:0:
196,235,87567,2,0,P|247:252|303:271,1,91.3499972122193,2|2,1:2|0:0,0:0:0:0:
173,34,87840,2,0,P|129:48|86:63,1,91.3499972122193,10|2,0:0|1:2,0:0:0:0:
343,147,88113,2,0,P|348:111|317:61,1,91.3499972122193,2|0,0:0|1:2,0:0:0:0:
83,215,88385,6,0,B|119:241|175:225|191:184|186:168|182:150|205:115|262:105|305:139,1,234.900000896072,10|0,0:0|1:2,0:0:0:0:
371,243,88794,2,0,P|324:262|257:301,1,91.3499972122193,2|8,0:0|0:0,0:0:0:0:
431,355,89067,1,2,0:0:0:0:
470,250,89204,6,0,P|429:153|332:152,1,182.699994424439,2|10,1:2|0:0,0:0:0:0:
269,226,89613,1,2,0:0:0:0:
192,153,89749,2,0,P|180:95|167:31,1,91.3499972122193,2|2,1:2|0:0,0:0:0:0:
101,219,90022,2,0,P|89:277|76:341,1,91.3499972122193,10|2,0:0|1:2,0:0:0:0:
0,143,90294,6,0,P|62:127|109:113,1,91.3499972122193,2|0,0:0|1:2,0:0:0:0:
187,21,90567,1,10,0:0:0:0:
275,107,90704,2,0,P|260:184|237:319,1,182.699994424439,2|0,0:0|0:0,0:0:0:0:
172,359,91113,2,0,B|140:319|140:319|172:263,1,91.3499972122193,8|0,0:0|0:0,0:0:0:0:
341,213,91385,6,0,B|370:253|370:253|338:309,1,91.3499972122193,2|2,1:2|0:0,0:0:0:0:
178,164,91658,1,10,0:0:0:0:
342,84,91794,2,0,P|389:99|456:118,1,91.3499972122193,2|2,0:0|1:2,0:0:0:0:
278,254,92067,1,2,0:0:0:0:
205,95,92204,2,0,B|181:54|181:54|210:14,1,91.3499972122193,10|2,0:0|1:2,0:0:0:0:
341,214,92476,6,0,P|269:238|157:294,1,182.699994424439,2|8,0:0|0:0,0:0:0:0:
172,284,92885,1,2,0:0:0:0:
91,239,93022,2,0,P|122:201|178:204,1,91.3499972122193,2|2,1:2|0:0,0:0:0:0:
244,338,93294,2,0,P|213:376|157:373,1,91.3499972122193,10|2,0:0|0:0,0:0:0:0:
300,199,93567,6,0,P|319:255|338:314,1,91.3499972122193,2|2,1:2|0:0,0:0:0:0:
404,108,93840,2,0,P|418:64|432:21,1,91.3499972122193,10|2,0:0|1:2,0:0:0:0:
300,102,94113,1,2,0:0:0:0:
286,95,94249,1,2,1:2:0:0:
400,211,94385,1,10,0:0:0:0:
414,204,94522,1,2,0:0:0:0:
263,284,94658,6,0,P|316:303|383:333,1,91.3499972122193,2|2,1:2|0:0,0:0:0:0:
261,168,94931,1,10,0:0:0:0:
98,265,95067,6,0,B|136:247|182:272|187:314|179:322|175:326|179:369|221:394|269:375,1,234.900000896072,2|0,1:2|1:2,0:0:0:0:
296,171,95476,2,0,P|280:221|259:297,1,117.450000448036,8|0,0:0|0:0,0:0:0:0:
107,63,95749,6,0,B|79:33|36:41|36:41|108:-6|169:44,1,217.5,6|0,1:2|0:0,0:0:0:0:
231,143,96158,2,0,B|259:173|302:165|302:165|230:212|169:162,1,217.5,2|0,1:2|0:0,0:0:0:0:
49,119,96567,2,0,P|63:172|75:249,1,108.75,2|2,1:2|0:0,0:0:0:0:
76,241,96772,1,2,0:0:0:0:
77,253,96840,1,2,1:2:0:0:
61,318,106658,6,0,P|84:360|173:359,1,130.50000497818,2|0,1:2|0:0,0:0:0:0:
160,367,107204,2,0,P|150:315|127:219,1,130.50000497818,2|0,1:2|0:0,0:0:0:0:
177,177,107613,1,2,0:0:0:0:
177,177,107749,6,0,P|187:125|210:29,1,130.50000497818,0|2,1:2|0:0,0:0:0:0:
472,158,108294,2,0,P|449:200|360:199,1,130.50000497818,2|2,1:2|0:0,0:0:0:0:
373,208,108840,6,0,P|388:271|400:335,1,130.50000497818,2|2,1:2|0:0,0:0:0:0:
330,382,109249,2,0,P|289:370|247:360,1,65.2500024890901,2|0,0:0|1:2,0:0:0:0:
198,306,109522,2,0,P|239:294|281:284,1,65.2500024890901,2|0,0:0|0:0,0:0:0:0:
161,237,109794,5,2,0:0:0:0:
161,237,109931,2,0,P|123:269|135:350,1,130.50000497818,0|0,1:2|0:0,0:0:0:0:
338,306,110476,2,0,P|337:256|266:214,1,130.50000497818,0|2,1:2|0:0,0:0:0:0:
218,156,110885,1,2,0:0:0:0:
218,156,111022,6,0,P|228:94|241:14,1,130.50000497818,2|2,1:2|0:0,0:0:0:0:
315,0,111431,2,0,P|349:14|382:23,1,65.2500024890901,2|0,0:0|1:2,0:0:0:0:
468,79,111704,2,0,P|434:93|401:102,1,65.2500024890901,2|0,0:0|0:0,0:0:0:0:
331,152,111976,1,2,0:0:0:0:
331,152,112113,6,0,P|379:171|477:194,1,130.50000497818,0|2,1:2|0:0,0:0:0:0:
236,335,112658,2,0,P|172:350|111:373,1,130.50000497818,2|2,1:2|0:0,0:0:0:0:
310,358,113204,6,0,P|297:285|240:257,1,130.50000497818,2|0,1:2|0:0,0:0:0:0:
183,236,113613,1,0,0:0:0:0:
183,236,113749,2,0,P|131:199|125:136,1,130.50000497818,2|0,1:2|0:0,0:0:0:0:
320,45,114294,6,0,P|371:81|377:144,1,130.50000497818,2|0,1:2|0:0,0:0:0:0:
320,209,114704,1,0,0:0:0:0:
320,209,114840,2,0,P|286:215|267:218,3,32.625001244545,2|0|0|0,1:2|0:0|0:0|0:0,0:0:0:0:
381,268,115113,2,0,P|415:274|432:277,3,32.625001244545,2|0|0|0,0:0|0:0|0:0|0:0,0:0:0:0:
308,332,115385,6,0,B|258:298|281:229|281:229|242:189|183:223,1,195.75000746727,6|0,1:2|0:0,0:0:0:0:
114,318,115931,2,0,B|168:291|216:346|216:346|270:332|270:264,1,195.75000746727,6|0,1:2|0:0,0:0:0:0:
203,147,116476,2,0,B|198:207|127:221|127:221|112:275|171:309,1,195.75000746727,6|0,1:2|0:0,0:0:0:0:
218,365,117022,6,0,P|256:339|319:354,1,97.8750037336351,6|0,1:2|0:0,0:0:0:0:
371,381,117294,2,0,P|418:387|458:360,1,97.8750037336351,2|0,0:0|0:0,0:0:0:0:
501,304,117567,5,2,0:0:0:0:
501,304,118113,6,0,B|476:364|373:365|349:271|349:271|398:293|445:255,1,269.700002057648,6|0,1:2|1:2,0:0:0:0:
351,161,118522,6,0,P|329:239|298:369,1,200.100003816605,6|0,1:2|1:2,0:0:0:0:
218,365,118931,2,0,P|204:312|244:266,1,100.050001908302,10|0,0:0|0:0,0:0:0:0:
189,185,119204,2,0,P|150:170|73:147,1,100.050001908302,2|0,1:2|0:0,0:0:0:0:
291,20,119476,2,0,P|305:73|265:119,1,100.050001908302,10|0,0:0|0:0,0:0:0:0:
342,227,119749,6,0,B|390:175|448:217|448:217|465:274|534:261,1,200.100003816605,2|10,1:2|0:0,0:0:0:0:
501,40,120158,2,0,P|469:32|417:101,1,100.050001908302,2|0,0:0|1:2,0:0:0:0:
319,127,120431,2,0,P|269:109|199:90,1,100.050001908302,2|8,1:2|0:0,0:0:0:0:
37,279,120704,6,0,B|152:241|152:241|160:296|219:305,1,200.100003816605,2|0,1:2|1:2,0:0:0:0:
310,365,121113,2,0,P|321:314|341:243,1,100.050001908302,8|0,0:0|0:0,0:0:0:0:
211,129,121385,2,0,P|223:177|234:226,1,100.050001908302,0|0,1:2|0:0,0:0:0:0:
305,67,121658,1,10,0:0:0:0:
316,60,121794,1,2,0:0:0:0:
127,157,121931,6,0,P|109:94|230:31,1,200.100003816605,2|8,1:2|0:0,0:0:0:0:
204,22,122340,1,0,0:0:0:0:
330,154,122476,2,0,P|278:177|220:209,1,100.050001908302,2|0,1:2|1:2,0:0:0:0:
377,241,122749,1,8,0:0:0:0:
366,76,122885,6,0,B|328:42|276:69|277:81|281:97|227:144|168:85,1,200.100003816605,2|0,1:2|1:2,0:0:0:0:
64,232,123294,2,0,P|109:192|172:167,1,100.050001908302,10|0,0:0|0:0,0:0:0:0:
97,0,123567,2,0,P|109:58|99:126,1,100.050001908302,2|0,1:2|0:0,0:0:0:0:
276,140,123840,2,0,P|218:121|165:78,1,100.050001908302,10|0,0:0|0:0,0:0:0:0:
201,290,124113,6,0,B|248:308|295:251|295:251|358:277|331:342,1,200.100003816605,2|10,1:2|0:0,0:0:0:0:
504,362,124522,2,0,P|463:370|416:317,1,100.050001908302,2|0,0:0|1:2,0:0:0:0:
428,208,124794,2,0,P|469:200|516:253,1,100.050001908302,2|8,1:2|0:0,0:0:0:0:
298,306,125067,6,0,P|224:328|82:390,1,200.100003816605,6|0,1:2|1:2,0:0:0:0:
22,313,125476,1,8,0:0:0:0:
32,311,125613,1,8,0:0:0:0:
130,234,125749,1,8,0:3:0:0:
30,184,125885,1,8,0:3:0:0:
125,116,126022,1,8,0:0:0:0:
115,114,126158,1,8,0:0:0:0:
1,24,126294,6,0,P|21:118|45:236,1,200.100003816605,6|8,1:2|0:0,0:0:0:0:
41,219,126704,1,0,0:0:0:0:
149,273,126840,2,0,B|168:223|168:223|122:177,1,100.050001908302,2|0,1:2|1:2,0:0:0:0:
41,307,127113,1,8,0:0:0:0:
191,367,127249,6,0,B|304:325|304:325|327:366|378:377,1,200.100003816605,2|0,1:2|1:2,0:0:0:0:
461,132,127658,2,0,P|408:144|391:216,1,100.050001908302,10|0,0:0|0:0,0:0:0:0:
455,338,127931,2,0,P|471:286|417:235,1,100.050001908302,2|0,1:2|0:0,0:0:0:0:
259,219,128204,2,0,P|295:258|366:237,1,100.050001908302,10|0,0:0|0:0,0:0:0:0:
317,44,128476,6,0,B|251:29|251:29|197:70|197:70|101:50,1,200.100003816605,2|10,1:2|0:0,0:0:0:0:
0,9,128885,2,0,P|21:54|35:102,1,100.050001908302,2|0,0:0|1:2,0:0:0:0:
131,245,129158,2,0,P|142:207|178:133,1,100.050001908302,2|8,1:2|0:0,0:0:0:0:
0,309,129431,6,0,B|56:275|120:315|74:338|144:370|199:329,1,200.100003816605,2|0,1:2|1:2,0:0:0:0:
307,213,129840,2,0,P|276:233|263:309,1,100.050001908302,8|0,0:0|0:0,0:0:0:0:
363,124,130113,2,0,P|330:107|257:133,1,100.050001908302,0|0,1:2|0:0,0:0:0:0:
453,211,130385,1,10,0:0:0:0:
459,203,130522,1,2,0:0:0:0:
270,309,130658,6,0,P|342:328|474:364,1,200.100003816605,2|10,1:2|0:0,0:0:0:0:
174,263,131067,2,0,P|195:326|210:381,1,100.050001908302,2|0,0:0|1:2,0:0:0:0:
324,131,131340,2,0,P|303:194|288:249,1,100.050001908302,2|8,1:2|0:0,0:0:0:0:
45,50,131613,6,0,B|101:27|140:69|132:77|129:89|164:143|235:111,1,200.100003816605,2|0,1:2|1:2,0:0:0:0:
337,52,132022,2,0,P|281:38|225:15,1,100.050001908302,10|2,0:0|0:0,0:0:0:0:
406,135,132294,2,0,P|446:95|433:32,1,100.050001908302,2|0,1:2|0:0,0:0:0:0:
321,210,132567,2,0,P|324:258|360:290,1,100.050001908302,10|0,0:0|0:0,0:0:0:0:
509,297,132840,6,0,P|421:286|369:394,1,200.100003816605,2|8,1:2|0:0,0:0:0:0:
34,216,133385,6,0,P|122:205|174:313,1,200.100003816605,2|8,1:2|0:0,0:0:0:0:
431,199,133931,6,0,P|416:122|390:-8,1,200.100003816605,2|8,1:2|0:0,0:0:0:0:
84,287,134476,6,0,P|99:210|125:80,1,200.100003816605,2|8,1:2|0:0,0:0:0:0:
122,90,135022,6,0,P|145:150|280:152,1,200.100003816605,6|10,1:2|0:0,0:0:0:0:
369,106,135431,2,0,P|306:84|247:65,1,100.050001908302,2|0,0:0|1:2,0:0:0:0:
444,189,135704,2,0,P|396:204|349:221,1,100.050001908302,2|8,0:0|0:0,0:0:0:0:
139,318,135976,6,0,B|177:275|242:302|242:302|259:360|333:356,1,200.100003816605,2|8,1:2|0:3,0:0:0:0:
400,315,136385,1,10,0:3:0:0:
415,319,136522,1,8,0:3:0:0:
332,236,136658,1,6,0:3:0:0:
415,172,136794,1,4,0:3:0:0:
343,105,136931,1,10,0:0:0:0:
328,109,137067,1,4,0:3:0:0:
161,175,137204,6,0,B|173:113|108:92|108:92|114:27|181:22,1,200.100003816605,6|8,1:2|0:0,0:0:0:0:
245,290,137749,6,0,B|185:310|199:377|199:377|140:404|102:349,1,200.100003816605,6|8,1:2|0:0,0:0:0:0:
361,148,138294,6,0,B|408:189|459:143|459:143|512:181|483:241,1,200.100003816605,6|8,1:2|0:0,0:0:0:0:
397,370,138840,5,2,1:2:0:0:
315,346,138976,1,8,0:0:0:0:
221,255,139113,5,8,0:0:0:0:
139,279,139249,1,8,0:0:0:0:
50,366,139385,6,0,P|15:330|50:241,1,150.075002862454,6|0,1:2|0:0,0:0:0:0:
63,232,139658,2,0,P|99:197|85:130,1,100.050001908302,8|0,0:0|0:0,0:0:0:0:
0,8,139931,2,0,P|12:56|77:78,1,100.050001908302,0|0,1:2|0:0,0:0:0:0:
213,23,140204,1,10,0:0:0:0:
171,152,140340,6,0,P|105:178|52:199,1,100.050001908302,2|0,1:2|0:0,0:0:0:0:
245,308,140613,1,2,1:2:0:0:
253,317,140749,2,0,P|270:254|290:191,1,100.050001908302,8|0,0:0|0:0,0:0:0:0:
60,286,141022,2,0,P|106:332|150:381,1,100.050001908302,2|0,1:2|0:0,0:0:0:0:
209,138,141294,2,0,P|228:83|184:33,1,100.050001908302,10|0,0:0|0:0,0:0:0:0:
270,264,141567,6,0,B|313:237|361:274|356:286|353:298|384:354|452:322,1,200.100003816605,2|8,1:2|0:0,0:0:0:0:
439,326,141976,1,0,0:0:0:0:
370,162,142113,2,0,P|341:243|301:380,1,200.100003816605,2|8,1:2|0:0,0:0:0:0:
308,352,142522,1,0,0:0:0:0:
206,168,142658,6,0,B|163:141|115:178|120:190|123:202|92:258|24:226,1,200.100003816605,2|8,1:2|0:0,0:0:0:0:
36,230,143067,1,0,0:0:0:0:
106,66,143204,2,0,P|135:147|175:284,1,200.100003816605,2|8,1:2|0:0,0:0:0:0:
167,256,143613,1,0,0:0:0:0:
427,185,143749,6,0,B|416:130|469:107|469:107|452:42|380:52,1,200.100003816605,10|0,1:2|0:0,0:0:0:0:
382,60,144113,1,10,1:2:0:0:
276,358,144840,6,0,P|283:316|243:276,1,66.7000012722016,10|0,1:2|0:0,0:0:0:0:
303,225,145022,2,0,P|271:199|216:212,1,66.7000012722016,10|0,1:2|0:0,0:0:0:0:
185,140,145204,2,0,P|146:155|130:209,1,66.7000012722016,10|0,1:2|0:0,0:0:0:0:
58,203,145385,2,0,P|50:244|90:284,1,66.7000012722016,10|0,1:2|0:0,0:0:0:0:
61,265,145931,6,0,P|103:256|150:237,1,66.7000012722016,10|0,1:2|0:0,0:0:0:0:
208,358,146113,2,0,P|179:327|139:295,1,66.7000012722016,10|0,1:2|0:0,0:0:0:0:
222,187,146294,2,0,P|208:228|201:279,1,66.7000012722016,10|0,1:2|0:0,0:0:0:0:
110,100,146476,6,0,P|138:132|178:164,1,66.7000012722016,10|0,1:2|0:0,0:0:0:0:
286,92,146658,2,0,P|244:102|197:120,1,66.7000012722016,10|0,1:2|0:0,0:0:0:0:
204,252,146840,2,0,P|217:212|224:161,1,66.7000012722016,10|0,1:2|0:0,0:0:0:0:
247,20,147022,5,10,1:2:0:0:
