osu file format v14

[General]
AudioFilename: audio.mp3
AudioLeadIn: 0
PreviewTime: 139595
Countdown: 1
SampleSet: Soft
StackLeniency: 0.7
Mode: 0
LetterboxInBreaks: 0
WidescreenStoryboard: 0

[Editor]
DistanceSpacing: 0.2
BeatDivisor: 6
GridSize: 32
TimelineZoom: 1.9

[Metadata]
Title:Usotsuki wa Koi no Hajimari
TitleUnicode:嘘つきは恋のはじまり
Artist:40mP feat. Luo Tianyi
ArtistUnicode:40mP feat. 洛天依
Creator:NeKroMan4ik
Version:Insane
Source:
Tags:kowari 40㍍P 40meterp utaite vocaloid Lost In Tianyi Lies Are The Start of Love japanese novelty
BeatmapID:2195777
BeatmapSetID:1050580

[Difficulty]
HPDrainRate:5
CircleSize:4
OverallDifficulty:8
ApproachRate:8.5
SliderMultiplier:1.6
SliderTickRate:1

[Events]
//Background and Video events
0,0,"BG.jpg",0,0
//Break Periods
//Storyboard Layer 0 (Background)
//Storyboard Layer 1 (Fail)
//Storyboard Layer 2 (Pass)
//Storyboard Layer 3 (Foreground)
//Storyboard Layer 4 (Overlay)
//Storyboard Sound Samples

[TimingPoints]
115,389.61038961039,4,2,1,25,1,0
1673,-133.333333333333,4,2,1,25,0,0
7907,-100,4,2,1,45,0,0
20374,-133.333333333333,4,2,1,35,0,0
32842,-133.333333333333,4,2,1,35,0,0
44725,-111.111111111111,4,2,1,35,0,0
45212,-111.111111111111,4,2,1,35,0,0
45309,-117.647058823529,4,2,1,35,0,0
62257,-100,4,2,1,55,0,1
81251,-100,4,2,1,55,0,1
81348,-100,4,2,1,55,0,1
82712,-133.333333333333,4,2,1,35,0,0
85829,-100,4,2,1,45,0,0
98199,-100,4,2,1,45,0,0
98296,-133.333333333333,4,2,1,35,0,0
110764,-117.647058823529,4,2,1,45,0,0
123231,-117.647058823529,4,2,1,35,0,0
140179,-100,4,2,1,55,0,1
159173,-100,4,2,1,55,0,1
159270,-100,4,2,1,55,0,1
160634,-133.333333333333,4,2,1,35,0,0
163751,-100,4,2,1,45,0,0
173102,-100,4,2,1,45,0,0
185569,-117.647058823529,4,2,1,35,0,0
191803,-133.333333333333,4,2,1,35,0,0
194920,-117.647058823529,4,2,1,35,0,0
205634,-133.333333333333,4,2,1,35,0,0
208751,-117.647058823529,4,2,1,35,0,0
210309,-111.111111111111,4,2,1,35,0,0
210602,-111.111111111111,4,2,1,35,0,0
210699,-117.647058823529,4,2,1,35,0,0
211868,-100,4,2,1,55,0,1
229205,-133.333333333333,4,2,1,35,0,0
232322,-100,4,2,1,45,0,0
243329,-100,4,2,1,45,0,0
243426,-100,4,2,1,45,0,0
245569,-100,4,2,1,45,0,0
246348,-100,4,2,1,40,0,0
247127,-100,4,2,1,35,0,0
247907,-100,4,2,1,30,0,0
248686,-100,4,2,1,25,0,0
249465,-100,4,2,1,20,0,0
250244,-100,4,2,1,15,0,0
251024,-100,4,2,1,10,0,0
251803,-100,4,2,1,5,0,0

[Colours]
Combo1 : 224,157,84
Combo2 : 0,128,192
Combo3 : 205,205,205
Combo4 : 0,185,185

[HitObjects]
130,146,1089,5,2,0:0:0:0:
237,114,1283,1,2,0:0:0:0:
157,37,1478,1,2,0:0:0:0:
109,167,1673,6,0,P|97:231|90:292,1,120.000004577637,2|0,0:0|0:0,0:0:0:0:
232,371,2322,1,2,0:0:0:0:
232,371,2387,1,2,0:0:0:0:
232,371,2452,2,0,P|285:357|365:346,1,120.000004577637,2|0,0:0|0:0,0:0:0:0:
471,242,3037,2,0,P|411:233|353:218,1,120.000004577637,2|2,0:0|0:0,0:0:0:0:
232,44,3816,1,2,0:0:0:0:
232,44,4205,1,2,0:0:0:0:
315,115,4400,1,2,0:0:0:0:
210,153,4595,1,2,0:0:0:0:
337,7,4790,6,0,P|374:15|413:17,2,60.0000022888184,2|2|2,0:0|0:0|0:0,0:0:0:0:
232,44,5374,2,0,L|241:123,1,60.0000022888184,2|0,0:0|0:0,0:0:0:0:
294,182,5764,2,0,L|283:257,1,60.0000022888184,2|0,0:0|0:0,0:0:0:0:
360,344,6218,1,2,0:0:0:0:
360,344,6283,1,2,0:0:0:0:
360,344,6348,2,0,P|414:322|488:330,1,120.000004577637,2|0,0:0|0:0,0:0:0:0:
474,325,7517,5,8,0:0:0:0:
445,96,7907,6,0,B|355:101|400:149|303:159,1,160,6|8,1:2|0:0,0:0:0:0:
109,113,8491,1,2,0:0:0:0:
194,25,8686,2,0,P|201:104|209:184,1,160,2|8,1:2|0:0,0:0:0:0:
129,273,9270,6,0,P|89:280|51:293,1,80,2|0,0:0|1:0,0:0:0:0:
209,364,9660,2,0,P|247:376|286:384,1,80,2|8,0:0|0:0,0:0:0:0:
373,284,10050,2,0,P|365:243|353:203,1,80,2|2,0:0|1:2,0:0:0:0:
328,181,10342,1,8,0:0:0:0:
328,181,10439,1,2,0:0:0:0:
509,131,10634,2,0,P|497:169|490:208,1,80,8|2,0:0|0:0,0:0:0:0:
387,60,11024,6,0,P|321:19|245:39,1,160,2|8,1:2|0:0,0:0:0:0:
82,146,11608,1,2,0:0:0:0:
179,205,11803,2,0,L|157:46,1,160,2|8,1:2|0:0,0:0:0:0:
307,120,12387,6,0,P|346:126|386:131,1,80,2|0,0:0|1:0,0:0:0:0:
204,230,12777,2,0,P|165:236|125:241,1,80,2|8,0:0|0:0,0:0:0:0:
289,344,13166,2,0,P|328:350|368:355,1,80,2|2,0:0|1:2,0:0:0:0:
401,340,13459,1,8,0:0:0:0:
401,340,13556,1,2,0:0:0:0:
504,196,13751,1,10,0:0:0:0:
355,82,13946,1,10,0:0:0:0:
355,82,14043,1,8,0:0:0:0:
354,82,14140,6,0,P|306:144|314:221,1,160,2|8,1:2|0:0,0:0:0:0:
401,171,14725,1,2,0:0:0:0:
332,323,14920,2,0,B|243:319|275:383|159:374,1,160,2|8,1:2|0:0,0:0:0:0:
34,219,15504,6,0,L|20:317,1,80,2|0,0:0|1:0,0:0:0:0:
169,157,15894,2,0,P|166:122|158:77,1,80,2|8,0:0|0:0,0:0:0:0:
130,263,16283,2,0,P|169:268|209:274,1,80,2|2,0:0|1:2,0:0:0:0:
247,259,16576,1,8,0:0:0:0:
247,259,16673,1,2,0:0:0:0:
384,122,16868,1,8,0:0:0:0:
473,282,17063,1,10,0:0:0:0:
475,301,17160,1,8,0:0:0:0:
477,321,17257,5,2,1:2:0:0:
328,190,17452,1,2,1:2:0:0:
482,111,17647,2,0,L|477:137,2,26.6666666666667,10|8|8,0:0|0:0|0:0,0:0:0:0:
506,79,17842,2,0,L|494:0,1,80,10|0,1:2|0:0,0:0:0:0:
300,171,18231,2,0,L|288:92,1,80,2|0,1:2|1:0,0:0:0:0:
494,270,18621,5,14,0:0:0:0:
256,192,18718,12,0,20179,0:0:0:0:
100,31,20374,6,0,P|109:90|116:150,1,120.000004577637,2|2,0:0|0:0,0:0:0:0:
34,262,20959,1,2,0:0:0:0:
34,262,21153,2,0,P|59:246|88:241,2,60.0000022888184,2|2|2,0:0|0:0|0:0,0:0:0:0:
116,343,21738,1,2,0:0:0:0:
198,293,21933,2,0,P|256:275|326:303,1,120.000004577637,2|0,0:0|0:0,0:0:0:0:
408,356,22517,1,2,0:0:0:0:
474,287,22712,2,0,P|480:225|495:157,1,120.000004577637,2|2,0:0|0:0,0:0:0:0:
287,10,23491,6,0,P|299:68|304:128,1,120.000004577637,2|2,0:0|0:0,0:0:0:0:
203,184,24076,1,2,0:0:0:0:
203,184,24270,2,0,P|197:154|192:125,2,60.0000022888184,2|2|2,0:0|0:0|0:0,0:0:0:0:
263,265,24855,1,2,0:0:0:0:
197,337,25050,2,0,B|128:339|154:373|80:377,1,120.000004577637,2|0,0:0|0:0,0:0:0:0:
9,311,25634,1,2,0:0:0:0:
9,311,25731,1,2,0:0:0:0:
9,311,25829,2,0,P|2:276|-1:234,2,60.0000022888184,2|2|2,0:0|0:0|0:0,0:0:0:0:
89,262,26413,1,2,0:0:0:0:
51,166,26608,6,0,P|75:118|140:123,1,120.000004577637,2|2,0:0|0:0,0:0:0:0:
221,68,27192,1,2,0:0:0:0:
221,68,27387,2,0,P|280:78|340:84,1,120.000004577637,2|2,0:0|0:0,0:0:0:0:
441,49,27972,1,2,0:0:0:0:
505,121,28166,2,0,L|492:201,1,60.0000022888184,2|0,0:0|0:0,0:0:0:0:
404,239,28556,2,0,P|400:210|394:181,1,60.0000022888184,2|0,0:0|0:0,0:0:0:0:
299,229,28946,2,0,P|292:258|288:287,1,60.0000022888184,2|0,0:0|0:0,0:0:0:0:
217,353,29335,1,2,0:0:0:0:
135,302,29530,1,2,0:0:0:0:
38,354,29725,6,0,P|27:302|20:230,1,120.000004577637,2|0,0:0|0:0,0:0:0:0:
77,52,30504,1,2,0:0:0:0:
142,122,30699,1,2,0:0:0:0:
49,144,30894,1,2,0:0:0:0:
171,31,31089,1,2,0:0:0:0:
221,177,31283,2,0,B|292:182|266:216|342:223,1,120.000004577637,2|0,0:0|0:0,0:0:0:0:
431,289,31868,1,2,0:0:0:0:
506,230,32063,2,0,L|493:107,1,120.000004577637,2|2,0:0|0:0,0:0:0:0:
165,60,32842,6,0,L|154:140,1,60.0000022888184,2|0,0:0|0:0,0:0:0:0:
80,218,33231,1,2,1:2:0:0:
14,140,33426,2,0,L|5:80,2,60.0000022888184,2|2|2,0:0|0:0|0:0,0:0:0:0:
80,218,34011,2,0,P|75:249|71:278,1,60.0000022888184,2|2,1:2|0:0,0:0:0:0:
128,345,34303,1,2,0:0:0:0:
128,345,34400,2,0,L|246:327,1,120.000004577637,2|2,0:0|1:2,0:0:0:0:
346,198,34985,1,2,0:0:0:0:
283,125,35179,2,0,P|252:175|257:234,1,120.000004577637,2|0,0:0|1:0,0:0:0:0:
339,338,35764,1,2,0:0:0:0:
451,238,35959,6,0,L|442:171,1,60.0000022888184,2|0,0:0|0:0,0:0:0:0:
382,95,36348,1,2,1:2:0:0:
455,25,36543,2,0,P|493:12|518:12,2,60.0000022888184,2|2|2,0:0|0:0|0:0,0:0:0:0:
382,95,37127,2,0,L|322:86,1,60.0000022888184,0|2,1:0|0:0,0:0:0:0:
261,25,37420,1,2,0:0:0:0:
261,25,37517,2,0,P|208:18|153:64,1,120.000004577637,2|0,0:0|1:0,0:0:0:0:
128,219,38102,1,2,0:0:0:0:
226,98,38296,1,2,0:0:0:0:
87,132,38491,1,2,0:0:0:0:
235,211,38686,1,2,1:2:0:0:
118,312,38881,1,2,0:0:0:0:
118,312,39076,6,0,L|51:324,1,60.0000022888184,2|0,0:0|0:0,0:0:0:0:
0,239,39465,1,2,1:2:0:0:
0,239,39660,2,0,L|7:173,2,60.0000022888184,2|2|2,0:0|0:0|0:0,0:0:0:0:
58,322,40244,1,0,1:0:0:0:
136,229,40439,1,2,0:0:0:0:
136,229,40537,1,2,0:0:0:0:
136,229,40634,2,0,P|168:222|202:218,1,60.0000022888184,2|0,0:0|0:0,0:0:0:0:
279,289,41024,2,0,P|311:296|345:300,1,60.0000022888184,2|0,1:2|0:0,0:0:0:0:
425,238,41413,2,0,L|435:178,1,60.0000022888184,2|0,0:0|0:0,0:0:0:0:
484,85,41803,1,2,1:2:0:0:
384,11,41998,1,2,0:0:0:0:
384,11,42095,1,2,0:0:0:0:
384,11,42192,6,0,P|326:26|260:34,1,120.000004577637,2|0,0:0|1:0,0:0:0:0:
193,96,42777,1,0,0:0:0:0:
130,23,42972,1,2,0:0:0:0:
120,159,43166,1,2,0:0:0:0:
225,5,43361,1,2,1:2:0:0:
299,168,43556,5,2,0:0:0:0:
143,333,43946,5,2,1:2:0:0:
98,114,44335,5,2,1:2:0:0:
269,292,44725,6,0,P|336:316|304:253,1,179.999994506836,2|0,1:2|0:0,0:0:0:0:
236,223,45309,5,2,1:2:0:0:
458,128,46089,1,2,1:2:0:0:
280,0,46673,2,0,L|266:88,1,68.0000012969971,10|0,0:0|0:0,0:0:0:0:
189,159,47063,1,2,1:2:0:0:
236,245,47257,1,0,1:0:0:0:
170,338,47452,2,0,L|82:352,1,68.0000012969971,10|0,0:0|0:0,0:0:0:0:
236,245,47842,1,2,1:2:0:0:
288,374,48037,2,0,L|376:388,1,68.0000012969971,10|2,0:0|0:0,0:0:0:0:
454,282,48426,5,2,1:2:0:0:
298,105,49205,1,2,1:2:0:0:
234,309,49790,2,0,L|317:294,1,68.0000012969971,2|8,1:2|0:0,0:0:0:0:
363,236,50050,1,8,0:0:0:0:
363,236,50115,1,8,0:0:0:0:
363,236,50179,2,0,P|352:204|359:171,1,68.0000012969971,2|0,1:2|0:0,0:0:0:0:
498,104,50569,2,0,L|488:171,1,68.0000012969971,6|0,1:2|0:0,0:0:0:0:
388,68,50959,1,10,0:0:0:0:
256,128,51153,1,10,0:0:0:0:
124,68,51348,1,10,0:0:0:0:
93,256,51543,5,2,1:2:0:0:
34,17,52322,1,2,1:2:0:0:
195,144,52907,2,0,P|227:135|261:130,1,68.0000012969971,10|0,0:0|0:0,0:0:0:0:
349,73,53296,2,0,L|345:48,3,22.666667098999,2|8|8|10,1:2|0:0|0:0|0:0,0:0:0:0:
422,144,53686,2,0,L|412:211,1,68.0000012969971,2|0,1:2|0:0,0:0:0:0:
324,362,54076,1,2,1:2:0:0:
473,281,54270,1,10,0:0:0:0:
323,203,54465,1,2,0:0:0:0:
195,349,54660,6,0,P|179:282|170:215,1,136.000002593994,2|2,1:2|1:2,0:0:0:0:
18,100,55244,1,2,0:0:0:0:
60,200,55439,1,2,1:2:0:0:
126,113,55634,1,0,0:0:0:0:
73,292,55829,1,2,1:2:0:0:
30,122,56024,1,2,0:0:0:0:
170,215,56218,2,0,P|203:208|237:203,1,68.0000012969971,2|2,1:2|0:0,0:0:0:0:
304,33,56608,1,2,1:2:0:0:
185,132,56803,1,2,0:0:0:0:
185,132,56900,1,2,0:0:0:0:
185,132,56998,1,2,1:2:0:0:
333,185,57192,2,0,P|340:151|353:120,1,68.0000012969971,2|2,0:0|1:2,0:0:0:0:
467,228,57582,1,2,0:0:0:0:
437,72,57777,5,10,0:0:0:0:
339,270,57972,1,10,0:0:0:0:
234,91,58166,1,10,0:0:0:0:
197,313,58361,1,10,0:0:0:0:
197,313,58459,1,10,0:0:0:0:
197,313,58556,1,10,0:0:0:0:
338,150,58751,1,10,0:0:0:0:
126,186,58946,1,10,0:0:0:0:
339,270,59140,1,10,0:0:0:0:
134,384,59335,5,14,0:0:0:0:
364,112,60115,1,14,0:0:0:0:
187,189,60894,5,10,0:0:0:0:
319,301,61089,1,10,0:0:0:0:
47,195,62257,6,0,L|126:184,1,80,6|0,1:2|0:0,0:0:0:0:
212,350,62647,2,0,L|133:339,1,80,2|8,1:2|0:0,0:0:0:0:
230,185,63037,1,2,0:0:0:0:
230,185,63134,1,8,0:0:0:0:
230,185,63231,1,2,1:2:0:0:
280,300,63426,1,2,1:2:0:0:
127,184,63621,1,8,0:0:0:0:
271,44,63816,6,0,P|311:39|350:29,1,80,2|0,1:2|0:0,0:0:0:0:
481,180,64205,2,0,P|441:175|402:165,1,80,2|8,1:2|0:0,0:0:0:0:
252,252,64595,1,2,0:0:0:0:
252,252,64692,1,8,0:0:0:0:
252,252,64790,1,2,1:2:0:0:
413,309,64985,1,2,1:2:0:0:
305,152,65179,1,8,0:0:0:0:
183,321,65374,6,0,P|143:314|103:308,1,80,2|0,1:2|0:0,0:0:0:0:
15,146,65764,1,2,1:2:0:0:
156,226,65959,1,10,0:0:0:0:
14,367,66153,6,0,P|6:327|-1:288,1,80,2|0,1:2|0:0,0:0:0:0:
141,147,66543,2,0,P|148:186|155:225,1,80,10|0,0:0|0:0,0:0:0:0:
280,361,66933,6,0,P|320:316|424:335,1,160,6|0,1:2|1:0,0:0:0:0:
500,165,67517,2,0,P|464:180|425:173,1,80,10|0,0:0|1:0,0:0:0:0:
373,105,67809,1,8,0:0:0:0:
373,105,67907,1,10,0:0:0:0:
512,0,68102,1,2,1:2:0:0:
424,172,68296,1,10,0:0:0:0:
298,11,68491,6,0,L|218:0,1,80,6|0,1:2|0:0,0:0:0:0:
122,164,68881,2,0,P|158:176|203:171,1,80,2|8,1:2|0:0,0:0:0:0:
43,73,69270,1,2,0:0:0:0:
43,73,69368,1,8,0:0:0:0:
43,73,69465,1,2,1:2:0:0:
92,265,69660,1,2,1:2:0:0:
171,82,69855,1,8,0:0:0:0:
92,265,70050,6,0,P|49:271|5:280,1,80,2|0,1:2|0:0,0:0:0:0:
193,332,70439,2,0,P|236:338|280:347,1,80,2|8,1:2|0:0,0:0:0:0:
187,232,70829,1,2,0:0:0:0:
187,232,70926,1,8,0:0:0:0:
187,232,71024,1,2,1:2:0:0:
303,129,71218,1,10,0:0:0:0:
178,52,71413,1,8,0:0:0:0:
307,225,71608,6,0,P|376:187|397:113,1,160,6|2,1:2|1:2,0:0:0:0:
287,33,72192,1,8,0:0:0:0:
223,118,72387,2,0,P|263:122|303:129,1,80,6|0,1:2|0:0,0:0:0:0:
153,10,72777,2,0,B|114:-1|114:-1|75:9,1,80,2|0,1:2|0:0,0:0:0:0:
11,187,73166,6,0,B|95:177|67:232|167:219,1,160,6|0,1:2|1:0,0:0:0:0:
28,276,73751,1,10,0:0:0:0:
144,125,73946,2,0,L|150:80,3,26.6666666666667,8|8|8|10,0:0|0:0|0:0|0:0,0:0:0:0:
183,287,74335,1,10,0:0:0:0:
73,198,74530,1,10,0:0:0:0:
237,144,74725,6,0,P|277:152|334:161,1,80,6|0,1:2|0:0,0:0:0:0:
475,102,75115,2,0,P|441:82|383:90,1,80,2|8,1:2|0:0,0:0:0:0:
507,223,75504,1,2,0:0:0:0:
507,223,75602,1,8,0:0:0:0:
507,223,75699,1,2,1:2:0:0:
331,280,75894,1,2,1:2:0:0:
417,164,76089,1,8,0:0:0:0:
385,361,76283,6,0,L|301:374,1,80,2|0,1:2|0:0,0:0:0:0:
197,186,76673,2,0,L|276:198,1,80,2|8,1:2|0:0,0:0:0:0:
370,37,77063,1,2,0:0:0:0:
370,37,77160,1,8,0:0:0:0:
370,37,77257,1,2,1:2:0:0:
245,109,77452,1,2,1:2:0:0:
385,189,77647,1,8,0:0:0:0:
309,344,77842,6,0,P|245:386|169:370,1,160,2|2,1:2|1:2,0:0:0:0:
81,262,78426,1,10,0:0:0:0:
0,370,78621,6,0,P|38:361|78:355,1,80,2|0,1:2|0:0,0:0:0:0:
205,183,79011,2,0,B|165:193|165:193|126:182,1,80,2|0,1:2|0:0,0:0:0:0:
278,344,79400,6,0,P|352:324|385:253,1,160,6|0,1:2|1:0,0:0:0:0:
303,72,79985,1,10,0:0:0:0:
291,249,80179,1,0,1:0:0:0:
291,249,80277,1,8,0:0:0:0:
291,249,80374,1,10,0:0:0:0:
383,113,80569,1,0,1:2:0:0:
242,149,80764,1,8,0:0:0:0:
385,252,80959,6,0,L|503:269,1,120,6|0,1:2|0:0,0:0:0:0:
512,292,81348,2,0,P|472:296|432:303,1,80,2|8,1:2|0:0,0:0:0:0:
318,155,81738,2,0,P|279:145|239:139,1,80,2|0,0:0|1:0,0:0:0:0:
200,342,82127,2,0,P|160:346|120:353,1,80,2|8,1:2|0:0,0:0:0:0:
0,220,82517,1,2,0:0:0:0:
145,60,82712,5,2,1:2:0:0:
202,137,83102,1,2,1:2:0:0:
292,107,83491,1,2,1:2:0:0:
291,11,83881,1,2,1:2:0:0:
202,137,84140,1,2,0:0:0:0:
202,137,84205,1,2,0:0:0:0:
202,137,84270,1,2,1:2:0:0:
374,58,84660,1,2,1:2:0:0:
341,190,84855,2,0,L|338:216,3,20.0000007629395,2|8|8|8,0:0|0:0|0:0|0:0,0:0:0:0:
292,107,85244,1,0,1:0:0:0:
493,51,85439,1,4,0:3:0:0:
422,288,85829,6,0,P|343:277|264:266,1,160,6|8,1:2|0:0,0:0:0:0:
194,82,86413,1,2,0:0:0:0:
78,192,86608,2,0,P|158:182|237:172,1,160,2|8,1:2|0:0,0:0:0:0:
363,23,87192,6,0,P|354:64|347:110,1,80,2|0,0:0|1:0,0:0:0:0:
497,225,87582,2,0,L|482:146,1,80,2|8,0:0|0:0,0:0:0:0:
317,318,87972,2,0,P|353:324|394:308,1,80,2|2,0:0|1:2,0:0:0:0:
415,276,88264,1,8,0:0:0:0:
415,276,88361,1,2,0:0:0:0:
321,140,88556,2,0,P|279:148|242:153,1,80,8|2,0:0|0:0,0:0:0:0:
27,338,88946,6,0,B|132:357|132:357|151:332|146:286,1,160,2|8,1:2|0:0,0:0:0:0:
183,148,89530,1,2,0:0:0:0:
53,95,89725,2,0,L|70:259,1,160,2|8,1:2|0:0,0:0:0:0:
258,162,90309,6,0,P|221:145|182:147,1,80,2|0,0:0|1:0,0:0:0:0:
198,334,90699,2,0,P|237:335|273:318,1,80,2|8,0:0|0:0,0:0:0:0:
374,196,91089,2,0,L|386:289,1,80,2|2,0:0|1:2,0:0:0:0:
405,302,91381,1,8,0:0:0:0:
490,180,91576,1,8,0:0:0:0:
482,170,91673,2,0,L|471:90,1,80,10|10,0:0|0:0,0:0:0:0:
394,32,91965,1,8,0:0:0:0:
385,40,92063,6,0,B|300:44|325:-8|201:1,1,160,2|8,1:2|0:0,0:0:0:0:
179,191,92647,1,2,0:0:0:0:
48,74,92842,2,0,P|128:84|207:94,1,160,2|8,1:2|0:0,0:0:0:0:
9,246,93426,6,0,L|0:166,1,80,2|0,0:0|1:0,0:0:0:0:
151,288,93816,2,0,P|147:327|141:367,1,80,2|8,0:0|0:0,0:0:0:0:
277,219,94205,2,0,P|313:205|352:212,1,80,2|2,0:0|1:2,0:0:0:0:
383,243,94498,1,8,0:0:0:0:
383,243,94595,1,2,0:0:0:0:
512,160,94790,1,8,0:0:0:0:
460,334,94985,1,2,0:0:0:0:
384,140,95179,5,2,1:2:0:0:
512,256,95374,1,2,0:0:0:0:
345,361,95569,1,10,0:0:0:0:
345,361,95666,1,0,1:0:0:0:
345,361,95764,2,0,L|266:373,1,80,2|0,1:2|0:0,0:0:0:0:
175,203,96153,2,0,L|254:191,1,80,2|0,1:2|1:0,0:0:0:0:
57,346,96543,5,10,0:0:0:0:
105,87,96933,1,10,0:0:0:0:
105,87,97907,6,0,P|115:49|113:93,1,120,2|0,0:0|0:0,0:0:0:0:
101,164,98296,6,0,P|114:223|121:285,1,120.000004577637,2|2,1:2|1:2,0:0:0:0:
196,362,98881,1,2,0:0:0:0:
195,362,99076,2,0,P|220:345|249:341,2,60.0000022888184,0|2|0,1:0|0:0|1:0,0:0:0:0:
233,245,99660,1,2,0:0:0:0:
233,245,99757,1,2,0:0:0:0:
233,245,99855,2,0,P|300:257|344:319,1,120.000004577637,2|2,1:2|1:2,0:0:0:0:
446,369,100439,2,0,L|386:378,1,60.0000022888184,2|2,0:0|1:2,0:0:0:0:
512,247,100829,1,8,0:0:0:0:
390,181,101024,1,0,1:0:0:0:
418,275,101218,1,8,0:0:0:0:
472,132,101413,6,0,P|429:93|370:86,1,120.000004577637,2|2,1:2|1:2,0:0:0:0:
279,1,101998,1,2,0:0:0:0:
279,1,102192,2,0,P|249:10|216:16,2,60.0000022888184,0|2|2,1:0|0:0|1:2,0:0:0:0:
250,105,102777,1,2,0:0:0:0:
282,198,102972,2,0,B|213:200|239:234|165:238,1,120.000004577637,2|2,1:2|1:2,0:0:0:0:
78,173,103556,1,2,0:0:0:0:
77,157,103653,1,2,0:0:0:0:
74,142,103751,1,2,1:2:0:0:
2,250,103946,2,0,L|-1:277,3,20.0000007629395,2|8|8|8,0:0|0:0|0:0|0:0,0:0:0:0:
106,341,104335,1,2,0:0:0:0:
106,340,104530,6,0,P|135:334|164:330,1,60.0000022888184,2|0,1:2|0:0,0:0:0:0:
240,260,104920,1,2,1:2:0:0:
240,260,105115,2,0,P|269:266|298:270,1,60.0000022888184,2|0,0:0|1:0,0:0:0:0:
404,359,105504,2,0,P|374:357|346:367,1,60.0000022888184,2|2,0:0|1:2,0:0:0:0:
457,270,105894,1,2,0:0:0:0:
457,270,105991,1,2,0:0:0:0:
457,270,106089,2,0,L|464:210,1,60.0000022888184,2|0,1:2|0:0,0:0:0:0:
410,119,106478,2,0,L|402:59,1,60.0000022888184,2|2,1:2|0:0,0:0:0:0:
254,0,106868,1,2,1:2:0:0:
287,165,107063,1,10,0:0:0:0:
319,74,107257,1,2,1:2:0:0:
196,133,107452,1,10,0:0:0:0:
255,257,107647,6,0,P|285:262|314:269,1,60.0000022888184,2|2,1:2|0:0,0:0:0:0:
450,334,108037,1,2,1:2:0:0:
450,334,108231,2,0,P|420:339|391:346,1,60.0000022888184,2|2,0:0|1:2,0:0:0:0:
482,243,108621,1,2,0:0:0:0:
418,171,108816,1,2,1:2:0:0:
388,262,109011,1,2,0:0:0:0:
388,262,109108,1,2,0:0:0:0:
388,262,109205,1,2,1:2:0:0:
327,139,109400,1,2,0:0:0:0:
450,80,109595,1,2,0:0:0:0:
388,262,109790,1,2,0:0:0:0:
206,200,109985,2,0,B|185:135|224:139|197:67,1,120.000004577637,2|2,0:0|0:0,0:0:0:0:
47,310,110764,6,0,L|185:331,1,136.000002593994,6|10,1:2|0:0,0:0:0:0:
340,280,111348,1,2,0:0:0:0:
340,280,111543,2,0,P|309:264|276:266,1,68.0000012969971,0|2,1:0|1:2,0:0:0:0:
380,384,111933,1,8,0:0:0:0:
464,281,112127,1,2,0:0:0:0:
464,281,112225,1,2,0:0:0:0:
464,281,112322,2,0,L|474:213,1,68.0000012969971,2|2,1:2|0:0,0:0:0:0:
377,51,112712,1,8,0:0:0:0:
337,139,112907,2,0,P|370:148|412:141,1,68.0000012969971,2|0,0:0|1:0,0:0:0:0:
279,29,113296,1,2,1:2:0:0:
220,183,113491,1,8,0:0:0:0:
337,139,113686,1,2,0:0:0:0:
154,0,113881,6,0,P|143:70|135:148,1,136.000002593994,2|10,1:2|0:0,0:0:0:0:
26,220,114465,1,2,0:0:0:0:
26,219,114660,2,0,P|28:185|19:152,1,68.0000012969971,2|2,1:2|1:2,0:0:0:0:
118,240,115050,1,8,0:0:0:0:
24,332,115244,1,2,0:0:0:0:
24,332,115342,1,2,0:0:0:0:
24,332,115439,2,0,P|90:341|158:350,1,136.000002593994,2|8,1:2|0:0,0:0:0:0:
320,302,116024,1,2,0:0:0:0:
159,351,116218,1,2,1:2:0:0:
261,216,116413,1,2,1:2:0:0:
256,384,116608,1,8,0:0:0:0:
161,245,116803,1,2,0:0:0:0:
161,245,116998,6,0,P|159:211|151:178,1,68.0000012969971,2|0,1:2|0:0,0:0:0:0:
48,81,117387,1,10,0:0:0:0:
48,81,117582,2,0,L|115:72,1,68.0000012969971,2|2,0:0|1:2,0:0:0:0:
218,187,117972,2,0,L|150:178,1,68.0000012969971,2|8,1:2|0:0,0:0:0:0:
270,40,118361,1,2,0:0:0:0:
270,40,118459,1,2,0:0:0:0:
270,40,118556,2,0,P|282:72|287:106,1,68.0000012969971,2|2,1:2|0:0,0:0:0:0:
393,202,118946,2,0,P|397:168|409:136,1,68.0000012969971,8|2,0:0|0:0,0:0:0:0:
303,274,119335,2,0,L|235:284,1,68.0000012969971,2|2,1:2|1:2,0:0:0:0:
131,149,119725,1,10,0:0:0:0:
254,199,119920,1,2,0:0:0:0:
128,321,120115,6,0,P|120:248|105:178,1,136.000002593994,2|10,1:2|0:0,0:0:0:0:
22,80,120699,1,2,0:0:0:0:
130,151,120894,2,0,P|167:161|217:164,1,68.0000012969971,2|2,1:2|1:2,0:0:0:0:
302,102,121283,1,8,0:0:0:0:
403,211,121478,5,2,1:2:0:0:
196,164,121868,5,2,1:2:0:0:
302,102,122063,1,8,0:0:0:0:
244,262,122257,5,2,1:2:0:0:
244,262,122355,1,8,0:0:0:0:
244,262,122452,1,8,0:0:0:0:
210,69,122647,5,2,1:2:0:0:
394,135,122842,1,8,0:0:0:0:
257,360,123231,5,6,1:2:0:0:
140,153,124011,1,2,1:2:0:0:
316,26,124400,1,8,0:0:0:0:
222,2,124595,2,0,P|230:39|236:90,1,68.0000012969971,2|0,1:2|0:0,0:0:0:0:
297,141,124985,2,0,P|289:178|283:229,1,68.0000012969971,2|0,1:2|0:0,0:0:0:0:
340,322,125374,2,0,L|428:336,1,68.0000012969971,10|2,0:0|0:0,0:0:0:0:
474,183,125764,2,0,L|483:156,2,22.666667098999,2|8|8,1:2|0:0|0:0,0:0:0:0:
449,209,125959,2,0,L|381:198,1,68.0000012969971,10|2,0:0|0:0,0:0:0:0:
245,304,126348,5,2,1:2:0:0:
401,102,127127,1,2,1:2:0:0:
215,0,127517,1,8,0:0:0:0:
163,79,127712,2,0,L|246:94,1,68.0000012969971,2|0,1:2|0:0,0:0:0:0:
81,217,128102,2,0,P|71:184|77:151,1,68.0000012969971,2|0,1:2|0:0,0:0:0:0:
213,252,128491,2,0,L|200:318,1,68.0000012969971,14|0,0:0|0:0,0:0:0:0:
176,347,128751,2,0,L|180:373,2,22.666667098999,8|8|10,0:0|0:0|0:0,0:0:0:0:
304,276,129076,1,10,0:0:0:0:
423,364,129270,1,10,0:0:0:0:
423,364,129368,1,8,0:0:0:0:
423,364,129465,6,0,L|433:296,1,68.0000012969971,2|0,1:2|0:0,0:0:0:0:
494,227,129757,1,8,0:3:0:0:
486,211,129855,2,0,L|476:143,1,68.0000012969971,4|4,0:3|0:3,0:0:0:0:
384,10,130244,1,2,1:2:0:0:
350,162,130439,1,4,0:3:0:0:
495,103,130634,1,8,0:0:0:0:
350,162,130829,2,0,P|316:157|283:147,1,68.0000012969971,6|0,1:2|0:0,0:0:0:0:
181,42,131218,1,2,1:2:0:0:
102,159,131413,1,2,0:0:0:0:
102,159,131608,2,0,L|112:226,1,68.0000012969971,2|0,1:2|0:0,0:0:0:0:
202,368,131998,1,2,1:2:0:0:
43,300,132192,1,10,0:0:0:0:
198,215,132387,1,2,0:0:0:0:
329,364,132582,6,0,P|345:297|354:230,1,136.000002593994,2|2,1:2|1:2,0:0:0:0:
506,115,133166,1,2,0:0:0:0:
464,215,133361,1,2,1:2:0:0:
398,128,133556,1,0,0:0:0:0:
451,307,133751,1,2,1:2:0:0:
486,135,133946,1,2,0:0:0:0:
354,230,134140,2,0,P|321:223|287:218,1,68.0000012969971,2|2,1:2|0:0,0:0:0:0:
166,140,134530,1,2,1:2:0:0:
166,140,134725,2,0,P|199:133|233:128,1,68.0000012969971,2|2,0:0|1:2,0:0:0:0:
117,240,135115,2,0,L|50:228,1,68.0000012969971,2|2,0:0|1:2,0:0:0:0:
13,131,135504,1,2,0:0:0:0:
136,17,135699,5,10,0:0:0:0:
234,182,135894,1,10,0:0:0:0:
300,32,136089,1,10,0:0:0:0:
126,180,136283,1,10,0:0:0:0:
359,208,136478,1,10,0:0:0:0:
194,86,136673,1,10,0:0:0:0:
236,312,136868,1,10,0:0:0:0:
380,122,137063,1,10,0:0:0:0:
126,180,137257,5,14,0:0:0:0:
436,263,138037,1,14,0:0:0:0:
260,299,138816,5,10,0:0:0:0:
303,137,139011,1,10,0:0:0:0:
47,189,140179,6,0,L|126:200,1,80,6|0,1:2|0:0,0:0:0:0:
212,34,140569,2,0,L|133:45,1,80,2|8,1:2|0:0,0:0:0:0:
230,199,140959,1,2,0:0:0:0:
230,199,141056,1,8,0:0:0:0:
230,199,141153,1,2,1:2:0:0:
280,84,141348,1,2,1:2:0:0:
127,200,141543,1,8,0:0:0:0:
271,340,141738,6,0,P|311:345|350:355,1,80,2|0,1:2|0:0,0:0:0:0:
481,204,142127,2,0,P|441:209|402:219,1,80,2|8,1:2|0:0,0:0:0:0:
252,132,142517,1,2,0:0:0:0:
252,132,142615,1,8,0:0:0:0:
252,132,142712,1,2,1:2:0:0:
413,75,142907,1,2,1:2:0:0:
305,232,143102,1,8,0:0:0:0:
183,63,143296,6,0,P|143:70|103:76,1,80,2|0,1:2|0:0,0:0:0:0:
15,238,143686,1,2,1:2:0:0:
156,158,143881,1,10,0:0:0:0:
14,17,144076,6,0,P|6:57|-1:96,1,80,2|0,1:2|0:0,0:0:0:0:
141,237,144465,2,0,P|148:198|155:159,1,80,10|0,0:0|0:0,0:0:0:0:
280,23,144855,6,0,P|320:68|424:49,1,160,6|0,1:2|1:0,0:0:0:0:
500,219,145439,2,0,P|464:204|425:211,1,80,10|0,0:0|1:0,0:0:0:0:
373,279,145731,1,8,0:0:0:0:
373,279,145829,1,10,0:0:0:0:
512,384,146024,1,10,0:0:0:0:
424,212,146218,1,10,0:0:0:0:
298,373,146413,6,0,L|218:384,1,80,6|0,1:2|0:0,0:0:0:0:
122,220,146803,2,0,P|158:208|203:213,1,80,2|8,1:2|0:0,0:0:0:0:
43,311,147192,1,2,0:0:0:0:
43,311,147290,1,8,0:0:0:0:
43,311,147387,1,2,1:2:0:0:
92,119,147582,1,2,1:2:0:0:
171,302,147777,1,8,0:0:0:0:
92,119,147972,6,0,P|49:113|5:104,1,80,2|0,1:2|0:0,0:0:0:0:
193,52,148361,2,0,P|236:46|280:37,1,80,2|8,1:2|0:0,0:0:0:0:
187,152,148751,1,2,0:0:0:0:
187,152,148848,1,8,0:0:0:0:
187,152,148946,1,2,1:2:0:0:
303,255,149140,1,10,0:0:0:0:
178,332,149335,1,8,0:0:0:0:
307,159,149530,6,0,P|376:197|397:271,1,160,6|2,1:2|1:2,0:0:0:0:
287,351,150115,1,8,0:0:0:0:
223,266,150309,2,0,P|263:262|303:255,1,80,6|0,1:2|0:0,0:0:0:0:
153,374,150699,2,0,B|114:385|114:385|75:375,1,80,2|8,1:2|0:0,0:0:0:0:
11,197,151089,6,0,B|95:207|67:152|167:165,1,160,6|0,1:2|1:0,0:0:0:0:
28,108,151673,1,10,0:0:0:0:
139,250,151868,2,0,L|133:295,3,26.6666666666667,8|8|8|10,0:0|0:0|0:0|0:0,0:0:0:0:
132,81,152257,1,10,0:0:0:0:
237,240,152452,1,8,0:0:0:0:
237,240,152550,1,8,0:0:0:0:
237,240,152647,6,0,P|277:232|334:223,1,80,6|0,1:2|0:0,0:0:0:0:
475,282,153037,2,0,P|441:302|383:294,1,80,2|8,1:2|0:0,0:0:0:0:
507,161,153426,1,2,0:0:0:0:
507,161,153524,1,8,0:0:0:0:
507,161,153621,1,2,1:2:0:0:
331,104,153816,1,2,1:2:0:0:
417,220,154011,1,8,0:0:0:0:
385,23,154205,6,0,L|301:10,1,80,2|0,1:2|0:0,0:0:0:0:
197,198,154595,2,0,L|276:186,1,80,2|8,1:2|0:0,0:0:0:0:
370,347,154985,1,2,0:0:0:0:
370,347,155082,1,8,0:0:0:0:
370,347,155179,1,2,1:2:0:0:
245,275,155374,1,2,1:2:0:0:
385,195,155569,1,8,0:0:0:0:
309,40,155764,6,0,P|245:-2|169:14,1,160,6|2,1:2|1:2,0:0:0:0:
81,122,156348,1,10,0:0:0:0:
0,14,156543,6,0,P|38:23|78:29,1,80,2|0,1:2|0:0,0:0:0:0:
205,201,156933,2,0,B|165:191|165:191|126:202,1,80,10|0,0:0|1:0,0:0:0:0:
278,40,157322,6,0,P|352:60|385:131,1,160,6|0,1:2|1:0,0:0:0:0:
294,297,157907,1,10,0:0:0:0:
237,128,158102,1,0,0:0:0:0:
237,128,158199,1,8,0:0:0:0:
237,128,158296,2,0,L|200:123,3,26.6666666666667,10|8|8|8,0:0|0:0|0:0|0:0,0:0:0:0:
365,208,158686,1,8,0:0:0:0:
192,319,158881,6,0,L|74:336,1,120,6|0,1:2|0:0,0:0:0:0:
58,353,159270,2,0,P|98:357|138:364,1,80,2|8,1:2|0:0,0:0:0:0:
221,209,159660,2,0,P|260:199|300:193,1,80,2|0,0:0|1:0,0:0:0:0:
365,374,160050,2,0,P|405:378|445:385,1,80,2|8,1:2|0:0,0:0:0:0:
512,254,160439,1,2,0:0:0:0:
405,94,160634,5,2,1:2:0:0:
348,171,161024,1,2,1:2:0:0:
328,37,161218,1,2,0:0:0:0:
328,37,161316,1,2,0:0:0:0:
328,37,161413,1,2,1:2:0:0:
223,118,161803,1,2,1:2:0:0:
137,78,162192,1,2,1:2:0:0:
43,87,162582,1,2,1:2:0:0:
0,177,162972,2,0,L|4:197,14,15.0000005722046,2|2|2|2|2|2|2|2|10|2|2|2|2|2|2,1:2|0:0|0:0|0:0|1:2|0:0|0:0|0:0|0:0|0:0|0:0|0:0|0:0|0:0|0:0,0:0:0:0:
60,258,163751,6,0,P|138:244|218:233,1,160,6|0,1:2|0:0,0:0:0:0:
390,333,164335,1,0,1:0:0:0:
298,369,164530,2,0,B|282:277|331:294|313:190,1,160,10|0,0:0|1:0,0:0:0:0:
173,58,165115,6,0,L|252:45,1,80,2|2,1:2|0:0,0:0:0:0:
406,131,165504,2,0,P|366:129|331:110,1,80,10|0,0:0|1:0,0:0:0:0:
485,0,165894,1,2,1:2:0:0:
485,0,165991,1,8,0:0:0:0:
485,0,166089,2,0,P|491:39|496:79,1,80,8|2,0:0|0:0,0:0:0:0:
316,212,166478,1,10,0:0:0:0:
389,51,166673,1,10,0:0:0:0:
445,290,166868,6,0,B|357:274|381:327|289:310,1,160,6|0,1:2|0:0,0:0:0:0:
120,191,167452,1,0,1:0:0:0:
218,145,167647,2,0,L|198:304,1,160,10|0,0:0|1:0,0:0:0:0:
25,181,168231,6,0,P|62:168|101:174,1,80,2|2,1:2|0:0,0:0:0:0:
236,32,168621,2,0,P|196:25|157:19,1,80,10|0,0:0|1:0,0:0:0:0:
322,148,169011,1,2,1:2:0:0:
322,148,169108,1,8,0:0:0:0:
322,148,169205,1,10,0:0:0:0:
475,32,169400,1,2,0:0:0:0:
475,32,169498,1,8,0:0:0:0:
475,32,169595,1,2,0:0:0:0:
512,199,169790,1,10,0:0:0:0:
403,89,169985,6,0,P|337:48|261:68,1,160,6|0,1:2|0:0,0:0:0:0:
95,175,170569,1,0,1:0:0:0:
194,233,170764,2,0,L|172:74,1,160,10|0,0:0|1:0,0:0:0:0:
322,148,171348,6,0,P|363:139|406:155,1,80,2|2,1:2|0:0,0:0:0:0:
217,261,171738,2,0,P|176:252|133:268,1,80,10|0,0:0|1:0,0:0:0:0:
340,370,172127,1,2,1:2:0:0:
340,370,172225,1,8,0:0:0:0:
340,370,172322,1,8,0:0:0:0:
398,149,172517,1,10,0:0:0:0:
217,261,172712,1,10,0:0:0:0:
440,297,172907,1,10,0:0:0:0:
283,118,173102,6,0,P|245:100|204:103,1,80,4|0,1:2|0:0,0:0:0:0:
55,59,173491,1,10,0:0:0:0:
41,230,173686,2,0,P|80:221|119:215,1,80,2|0,0:0|1:0,0:0:0:0:
254,350,174076,2,0,P|214:357|176:343,1,80,2|8,1:2|0:0,0:0:0:0:
310,198,174465,1,2,0:0:0:0:
310,198,174563,1,2,0:0:0:0:
310,198,174660,6,0,L|322:285,1,80,2|2,1:2|0:0,0:0:0:0:
482,327,175050,1,8,0:0:0:0:
488,157,175244,1,2,0:0:0:0:
488,157,175439,2,0,L|401:145,1,80,2|2,1:2|1:2,0:0:0:0:
354,89,175731,1,2,0:0:0:0:
354,89,175829,2,0,P|318:71|278:75,1,80,10|2,0:0|0:0,0:0:0:0:
71,174,176218,6,0,B|160:181|123:226|216:233,1,160,2|10,1:2|0:0,0:0:0:0:
65,266,176803,1,2,0:0:0:0:
210,136,176998,1,2,1:2:0:0:
53,73,177192,1,2,1:2:0:0:
165,233,177387,1,10,0:0:0:0:
165,233,177582,6,0,P|204:241|243:247,1,80,2|2,0:0|1:2,0:0:0:0:
354,334,177972,1,2,0:0:0:0:
456,229,178166,1,10,0:0:0:0:
456,229,178264,1,2,0:0:0:0:
456,229,178361,2,0,L|460:203,3,26.6666666666667,2|8|8|8,1:2|0:0|0:0|0:0,0:0:0:0:
512,309,178751,1,10,0:0:0:0:
348,185,178946,1,10,0:0:0:0:
481,72,179140,1,10,0:0:0:0:
481,72,179238,1,8,0:0:0:0:
481,72,179335,6,0,L|394:54,1,80,6|0,1:2|0:0,0:0:0:0:
320,0,179627,1,2,0:0:0:0:
314,11,179725,2,0,P|320:50|309:88,1,80,10|2,0:0|0:0,0:0:0:0:
160,187,180115,2,0,P|148:148|154:109,1,80,2|0,1:2|1:0,0:0:0:0:
182,31,180407,1,2,0:0:0:0:
171,22,180504,2,0,P|132:12|92:6,1,80,10|2,0:0|0:0,0:0:0:0:
0,204,180894,6,0,L|79:192,1,80,2|0,1:2|0:0,0:0:0:0:
160,187,181186,1,2,0:0:0:0:
166,196,181283,2,0,P|177:234|171:273,1,80,10|2,0:0|0:0,0:0:0:0:
24,363,181673,1,0,1:2:0:0:
79,191,181868,1,2,1:2:0:0:
222,356,182063,2,0,P|260:346|300:341,1,80,8|2,0:0|0:0,0:0:0:0:
472,208,182452,6,0,P|437:277|468:347,2,160,2|8|0,1:2|0:0|1:0,0:0:0:0:
507,76,183426,1,2,1:2:0:0:
507,76,183524,1,8,0:0:0:0:
507,76,183621,2,0,L|428:89,1,80,8|2,0:0|0:0,0:0:0:0:
315,233,184011,5,2,1:2:0:0:
182,75,184205,1,8,0:0:0:0:
145,291,184400,1,8,0:0:0:0:
285,128,184595,1,2,1:2:0:0:
285,128,184692,1,2,1:2:0:0:
285,128,184790,1,2,1:2:0:0:
94,90,184985,1,0,1:0:0:0:
228,242,185179,2,0,L|239:321,1,80,8|2,0:0|0:0,0:0:0:0:
363,384,185569,5,6,1:2:0:0:
115,242,186348,1,6,1:2:0:0:
315,97,186933,2,0,P|302:128|294:161,1,68.0000012969971,2|0,1:2|0:0,0:0:0:0:
213,241,187322,2,0,P|206:207|192:176,1,68.0000012969971,2|0,0:0|0:0,0:0:0:0:
122,101,187712,2,0,P|88:95|54:92,2,68.0000012969971,2|2|2,0:0|0:0|0:0,0:0:0:0:
192,176,188296,1,2,0:0:0:0:
130,257,188491,1,2,0:0:0:0:
203,372,188686,5,6,1:2:0:0:
454,231,189465,1,6,1:2:0:0:
323,119,190050,2,0,L|256:108,1,68.0000012969971,2|0,1:2|0:0,0:0:0:0:
123,28,190439,2,0,P|154:16|188:20,1,68.0000012969971,2|0,1:2|0:0,0:0:0:0:
68,175,190829,2,0,P|62:141|53:108,1,68.0000012969971,2|0,1:2|0:0,0:0:0:0:
163,176,191218,1,2,0:0:0:0:
115,258,191413,1,2,0:0:0:0:
178,329,191608,1,2,0:0:0:0:
264,291,191803,6,0,P|311:256|369:264,1,120.000004577637,2|0,0:0|1:0,0:0:0:0:
467,322,192387,1,2,0:0:0:0:
512,236,192582,2,0,P|498:178|492:118,1,120.000004577637,2|0,0:0|1:0,0:0:0:0:
349,40,193166,2,0,P|343:99|329:158,1,120.000004577637,2|0,0:0|0:0,0:0:0:0:
244,234,193751,1,2,1:2:0:0:
166,177,193946,2,0,P|138:165|108:161,1,60.0000022888184,2|0,0:0|0:0,0:0:0:0:
14,234,194335,1,2,0:0:0:0:
89,174,194530,1,2,1:2:0:0:
0,140,194725,1,2,0:0:0:0:
103,268,194920,6,0,B|181:260|163:307|247:294,1,136.000002593994,2|2,1:2|1:2,0:0:0:0:
383,182,195504,1,2,0:0:0:0:
341,282,195699,1,2,1:2:0:0:
275,195,195894,1,2,0:0:0:0:
233,295,196089,1,2,1:2:0:0:
376,193,196283,1,2,0:0:0:0:
376,193,196381,1,2,0:0:0:0:
375,192,196478,2,0,P|407:182|441:179,1,68.0000012969971,2|0,1:2|0:0,0:0:0:0:
512,77,196868,1,2,1:2:0:0:
512,77,197063,2,0,P|478:74|445:64,1,68.0000012969971,2|2,0:0|1:2,0:0:0:0:
327,0,197452,2,0,L|316:67,1,68.0000012969971,2|2,0:0|1:2,0:0:0:0:
234,168,197842,1,2,0:0:0:0:
234,168,197939,1,2,0:0:0:0:
234,168,198037,6,0,P|268:171|301:181,1,68.0000012969971,2|0,1:2|0:0,0:0:0:0:
403,276,198426,1,2,1:2:0:0:
491,172,198621,2,0,L|495:149,3,22.666667098999,2|8|8|10,0:0|0:0|0:0|1:2,0:0:0:0:
512,292,199011,1,10,0:0:0:0:
327,160,199205,1,10,1:2:0:0:
512,43,199400,1,10,0:0:0:0:
403,276,199595,5,6,1:2:0:0:
277,31,200179,2,0,L|275:54,3,22.666667098999,8|8|8|6,0:3|0:3|0:3|0:0,0:0:0:0:
186,23,200569,1,8,0:3:0:0:
106,79,200764,1,4,0:3:0:0:
75,299,201153,5,6,1:2:0:0:
365,132,201738,1,6,0:0:0:0:
376,357,202712,5,10,0:0:0:0:
274,164,202907,1,10,0:0:0:0:
188,382,203102,1,10,0:0:0:0:
149,114,203296,1,10,0:0:0:0:
300,289,203491,1,10,0:0:0:0:
396,73,203686,1,10,0:0:0:0:
454,296,203881,1,10,0:0:0:0:
275,128,204076,1,10,0:0:0:0:
188,382,204270,5,10,1:2:0:0:
423,204,204465,1,10,1:2:0:0:
112,19,205634,6,0,P|128:76|135:136,1,120.000004577637,2|2,0:0|0:0,0:0:0:0:
86,218,206218,1,2,0:0:0:0:
135,300,206413,1,2,0:0:0:0:
135,300,206511,1,2,0:0:0:0:
135,300,206608,2,0,P|160:284|189:279,2,60.0000022888184,2|2|2,0:0|0:0|0:0,0:0:0:0:
198,371,207192,2,0,P|254:352|314:343,1,120.000004577637,2|2,0:0|0:0,0:0:0:0:
397,294,207777,1,2,0:0:0:0:
344,213,207972,1,2,0:0:0:0:
344,213,208069,1,2,0:0:0:0:
344,213,208166,2,0,P|348:183|355:154,1,60.0000022888184,2|2,0:0|0:0,0:0:0:0:
421,71,208556,1,8,0:0:0:0:
500,254,208751,5,6,1:2:0:0:
111,125,209530,5,6,1:2:0:0:
330,80,209920,5,10,0:0:0:0:
259,293,210309,6,0,P|245:332|272:302,1,107.999996704102,6|0,1:2|0:0,0:0:0:0:
308,217,210699,6,0,L|311:239,3,22.666667098999,8|8|8|8,0:0|0:0|0:0|0:0,0:0:0:0:
198,31,211040,6,0,L|194:60,13,17.0000003242493,2|2|2|2|2|2|2|2|2|2|2|2|2|10,0:0|0:0|0:0|0:0|0:0|0:0|0:0|0:0|0:0|0:0|0:0|0:0|0:0|0:0,0:0:0:0:
222,0,211868,6,0,L|233:79,1,80,6|0,1:2|0:0,0:0:0:0:
67,165,212257,2,0,L|78:86,1,80,2|8,1:2|0:0,0:0:0:0:
232,183,212647,1,2,0:0:0:0:
115,236,212842,1,2,1:2:0:0:
233,80,213037,1,2,1:2:0:0:
319,243,213231,1,8,0:0:0:0:
233,80,213426,6,0,P|193:75|154:65,1,80,2|0,1:2|0:0,0:0:0:0:
23,216,213816,2,0,P|63:211|102:201,1,80,2|8,1:2|0:0,0:0:0:0:
252,288,214205,1,2,0:0:0:0:
252,288,214303,1,8,0:0:0:0:
252,288,214400,1,2,1:2:0:0:
91,345,214595,1,2,1:2:0:0:
199,188,214790,1,8,0:0:0:0:
329,338,214985,6,0,P|369:331|409:325,1,80,2|0,1:2|0:0,0:0:0:0:
497,163,215374,1,2,1:2:0:0:
356,243,215569,1,8,0:0:0:0:
498,384,215764,2,0,P|506:344|513:305,1,80,2|0,1:2|0:0,0:0:0:0:
371,164,216153,2,0,P|364:203|357:242,1,80,10|0,0:0|0:0,0:0:0:0:
232,378,216543,6,0,P|192:333|88:352,1,160,6|2,1:2|1:2,0:0:0:0:
12,182,217127,2,0,P|48:197|87:190,1,80,10|0,0:0|1:0,0:0:0:0:
141,133,217387,2,0,L|146:99,2,26.6666666666667,8|8|10,0:0|0:0|0:0,0:0:0:0:
0,17,217712,1,2,1:2:0:0:
88,189,217907,1,10,0:0:0:0:
209,28,218102,6,0,L|289:17,1,80,6|0,1:2|0:0,0:0:0:0:
385,181,218491,2,0,P|349:193|304:188,1,80,2|8,1:2|0:0,0:0:0:0:
464,90,218881,1,2,0:0:0:0:
406,293,219076,2,0,L|397:335,2,40,2|2|2,1:2|0:0|1:2,0:0:0:0:
336,99,219465,1,8,0:0:0:0:
434,263,219660,6,0,P|477:269|521:278,1,80,2|0,1:2|0:0,0:0:0:0:
323,350,220050,2,0,P|280:356|236:365,1,80,2|8,1:2|0:0,0:0:0:0:
326,248,220439,1,2,0:0:0:0:
326,248,220537,1,8,0:0:0:0:
326,248,220634,1,2,1:2:0:0:
210,145,220829,1,2,1:2:0:0:
336,67,221024,1,8,0:0:0:0:
206,241,221218,6,0,P|137:203|116:129,1,160,6|2,1:2|1:2,0:0:0:0:
134,88,221673,2,0,L|128:54,2,26.6666666666667,8|8|8,0:0|0:0|0:0,0:0:0:0:
290,134,221998,6,0,P|250:138|210:145,1,80,6|0,1:2|0:0,0:0:0:0:
385,17,222387,2,0,P|346:7|306:-1,1,80,6|0,1:2|0:0,0:0:0:0:
474,127,222777,6,0,P|495:202|458:269,1,160,6|2,1:2|1:2,0:0:0:0:
347,275,223361,1,8,0:0:0:0:
322,177,223556,1,2,0:0:0:0:
322,177,223653,1,8,0:0:0:0:
322,177,223751,2,0,P|361:180|401:188,1,80,6|0,1:2|1:0,0:0:0:0:
347,275,224140,1,8,0:0:0:0:
314,84,224335,6,0,B|232:78|265:153|131:136,1,160,6|2,1:2|1:2,0:0:0:0:
80,43,224920,1,10,0:0:0:0:
34,218,225115,1,2,0:0:0:0:
34,218,225212,1,8,0:0:0:0:
34,218,225309,1,0,1:0:0:0:
175,49,225504,1,2,1:2:0:0:
301,255,225894,6,0,B|383:249|350:324|484:307,1,160,6|2,1:2|1:2,0:0:0:0:
437,214,226478,1,10,0:0:0:0:
303,352,226673,1,2,0:0:0:0:
303,352,226770,1,8,0:0:0:0:
303,352,226868,1,0,1:0:0:0:
508,371,227063,1,6,1:2:0:0:
282,154,227452,6,0,B|294:57|249:92|257:-3,1,160,6|2,1:2|1:2,0:0:0:0:
169,152,228037,1,10,0:0:0:0:
344,16,228231,2,0,L|380:9,3,26.6666666666667,2|8|8|2,1:2|0:0|0:0|1:2,0:0:0:0:
180,43,228621,1,8,0:3:0:0:
253,133,228816,1,4,0:3:0:0:
212,239,229011,1,2,0:0:0:0:
284,348,229205,5,6,1:2:0:0:
334,266,229595,1,2,0:0:0:0:
426,288,229985,1,2,0:0:0:0:
433,384,230374,1,2,0:0:0:0:
334,266,230634,2,0,L|329:235,2,20.0000007629395,2|2|2,0:0|0:0|0:0,0:0:0:0:
512,330,231153,1,2,0:0:0:0:
337,384,231543,1,10,0:0:0:0:
337,384,231640,1,8,0:0:0:0:
337,384,231738,1,8,0:0:0:0:
302,185,231933,1,8,0:0:0:0:
117,302,232127,1,10,0:0:0:0:
117,302,232225,1,8,0:0:0:0:
117,302,232322,6,0,P|196:291|275:280,1,160,6|8,1:2|0:0,0:0:0:0:
345,96,232907,1,2,0:0:0:0:
461,206,233102,2,0,P|381:196|302:186,1,160,2|8,1:2|0:0,0:0:0:0:
176,37,233686,6,0,P|185:78|192:124,1,80,2|0,0:0|1:0,0:0:0:0:
42,239,234076,2,0,L|57:160,1,80,2|8,0:0|0:0,0:0:0:0:
222,332,234465,2,0,P|186:338|145:322,1,80,2|2,0:0|1:2,0:0:0:0:
124,290,234757,1,8,0:0:0:0:
124,290,234855,1,2,0:0:0:0:
218,154,235050,2,0,P|260:162|297:167,1,80,10|2,0:0|0:0,0:0:0:0:
512,352,235439,6,0,B|407:371|407:371|388:346|393:300,1,160,2|8,1:2|0:0,0:0:0:0:
356,162,236024,1,2,0:0:0:0:
486,109,236218,2,0,L|469:273,1,160,2|8,1:2|0:0,0:0:0:0:
281,176,236803,6,0,P|318:159|357:161,1,80,2|0,0:0|1:0,0:0:0:0:
317,334,237192,2,0,L|224:322,1,80,2|10,0:0|0:0,0:0:0:0:
101,271,237582,2,0,L|54:277,3,26.6666666666667,2|8|8|2,1:2|0:0|0:0|1:2,0:0:0:0:
51,308,237874,1,8,0:0:0:0:
51,308,237972,1,2,1:2:0:0:
137,174,238166,1,10,0:0:0:0:
67,69,238361,1,10,0:0:0:0:
67,69,238459,1,8,0:0:0:0:
67,69,238556,6,0,P|111:6|188:11,1,160,6|8,1:2|0:0,0:0:0:0:
285,179,239140,1,2,0:0:0:0:
416,57,239335,2,0,P|336:67|257:77,1,160,2|8,1:2|0:0,0:0:0:0:
447,245,239920,6,0,L|456:165,1,80,2|0,0:0|1:0,0:0:0:0:
305,287,240309,2,0,L|314:367,1,80,2|8,0:0|0:0,0:0:0:0:
182,215,240699,2,0,P|146:201|107:208,1,80,2|2,0:0|1:2,0:0:0:0:
76,239,240991,1,8,0:0:0:0:
76,239,241089,1,2,0:0:0:0:
207,376,241283,1,10,0:0:0:0:
340,221,241478,1,2,1:2:0:0:
475,337,241673,5,6,1:2:0:0:
475,337,241770,1,8,0:0:0:0:
475,337,241868,1,10,0:0:0:0:
356,203,242063,1,10,0:0:0:0:
424,60,242257,2,0,L|503:48,1,80,2|0,1:2|0:0,0:0:0:0:
293,172,242647,2,0,L|372:184,1,80,2|0,1:2|1:0,0:0:0:0:
191,0,243037,6,0,L|209:118,1,120,6|0,1:2|0:0,0:0:0:0:
182,157,243426,1,2,1:2:0:0:
104,253,243621,2,0,L|66:259,3,26.6666666666667,2|8|8|10,1:2|0:0|0:0|0:0,0:0:0:0:
260,361,244205,1,2,1:2:0:0:
151,336,244400,1,0,1:0:0:0:
256,192,244595,5,6,1:2:0:0:
256,192,244692,12,0,251803,0:0:0:0:
