osu file format v14

[General]
AudioFilename: audio.ogg
AudioLeadIn: 0
PreviewTime: 55381
Countdown: 0
SampleSet: Normal
StackLeniency: 0.7
Mode: 1
LetterboxInBreaks: 0
WidescreenStoryboard: 1

[Editor]
DistanceSpacing: 1.6
BeatDivisor: 4
GridSize: 32
TimelineZoom: 2.5

[Metadata]
Title:Yuugure One Room
TitleUnicode:夕暮れワンルーム
Artist:40mP feat. chano
ArtistUnicode:40mP feat. シャノ
Creator:KyeX
Version:Kantan
Source:CHUNITHM
Tags:sunset studio japanese pop jpop j-pop shano video game ost original soundtrack 40㍍p 40meterp 歌い手 utaite 歌ってみた utattemita utakatarelation mint
BeatmapID:3485638
BeatmapSetID:1656675

[Difficulty]
HPDrainRate:8
CircleSize:3
OverallDifficulty:3
ApproachRate:10
SliderMultiplier:1.4
SliderTickRate:1

[Events]
//Background and Video events
0,0,"27.jpg",0,80
//Break Periods
//Storyboard Layer 0 (Background)
//Storyboard Layer 1 (Fail)
//Storyboard Layer 2 (Pass)
//Storyboard Layer 3 (Foreground)
//Storyboard Layer 4 (Overlay)
//Storyboard Sound Samples

[TimingPoints]
86,272.727272727273,4,1,0,90,1,8
20813,-105.263157894737,4,1,0,90,0,0
38267,-100,4,1,0,95,0,0
55722,-100,4,1,0,100,0,1
77540,-100,4,1,0,100,0,0
77813,-100,4,1,0,90,0,0
94995,-111.111111111111,4,1,0,85,0,0
99358,-105.263157894737,4,1,0,90,0,0
112449,-100,4,1,0,95,0,0
158267,-117.647058823529,4,1,0,85,0,0
166995,-111.111111111111,4,1,0,90,0,0
175722,-105.263157894737,4,1,0,95,0,0
178449,-100,4,1,0,95,0,0
178858,-100,4,1,0,100,0,1
199722,-99.972535017852,4,1,0,100,0,0
217176,-100,4,1,0,90,0,0

[HitObjects]
256,192,1176,5,4,0:0:0:0:
256,192,1722,1,4,0:0:0:0:
256,192,2267,1,4,0:0:0:0:
256,192,3358,1,12,0:0:0:0:
256,192,3904,1,0,0:0:0:0:
256,192,4313,1,8,0:0:0:0:
256,192,5267,1,8,0:0:0:0:
256,192,5540,1,0,0:0:0:0:
256,192,6086,1,0,0:0:0:0:
256,192,6495,1,8,0:0:0:0:
256,192,6904,1,8,0:0:0:0:
256,192,7176,1,0,0:0:0:0:
256,192,7722,1,0,0:0:0:0:
256,192,8267,1,0,0:0:0:0:
256,192,8676,1,8,0:0:0:0:
256,192,9631,1,8,0:0:0:0:
256,192,9904,1,0,0:0:0:0:
256,192,10449,1,0,0:0:0:0:
256,192,10858,1,8,0:0:0:0:
256,192,11267,1,8,0:0:0:0:
256,192,11540,1,8,0:0:0:0:
256,192,12086,1,0,0:0:0:0:
256,192,12631,1,0,0:0:0:0:
256,192,13040,1,8,0:0:0:0:
256,192,13995,1,8,0:0:0:0:
256,192,14267,1,0,0:0:0:0:
256,192,14813,1,0,0:0:0:0:
256,192,15222,1,8,0:0:0:0:
256,192,15631,1,8,0:0:0:0:
256,192,15904,1,0,0:0:0:0:
256,192,16449,1,0,0:0:0:0:
256,192,16995,1,0,0:0:0:0:
256,192,17404,1,8,0:0:0:0:
256,192,18358,1,8,0:0:0:0:
256,192,18631,1,0,0:0:0:0:
256,192,19176,1,8,0:0:0:0:
256,192,19586,1,4,0:0:0:0:
256,192,20813,1,12,0:0:0:0:
256,192,21358,1,8,0:0:0:0:
256,192,21767,1,0,0:0:0:0:
256,192,22722,1,8,0:0:0:0:
256,192,22995,1,0,0:0:0:0:
256,192,23540,1,0,0:0:0:0:
256,192,23949,1,8,0:0:0:0:
256,192,24904,1,8,0:0:0:0:
256,192,25176,1,0,0:0:0:0:
256,192,25722,1,8,0:0:0:0:
256,192,26131,1,0,0:0:0:0:
256,192,27086,1,8,0:0:0:0:
256,192,27358,1,0,0:0:0:0:
256,192,27904,1,0,0:0:0:0:
256,192,28313,1,8,0:0:0:0:
256,192,28995,1,8,0:0:0:0:
256,192,29540,1,0,0:0:0:0:
256,192,30086,1,0,0:0:0:0:
256,192,30495,1,8,0:0:0:0:
256,192,31449,1,8,0:0:0:0:
256,192,31722,1,0,0:0:0:0:
256,192,32267,1,8,0:0:0:0:
256,192,32676,1,0,0:0:0:0:
256,192,33631,1,8,0:0:0:0:
256,192,33904,1,0,0:0:0:0:
256,192,34449,1,8,0:0:0:0:
256,192,34858,1,0,0:0:0:0:
256,192,35540,1,8,0:0:0:0:
256,192,36086,1,0,0:0:0:0:
256,192,36631,1,0,0:0:0:0:
256,192,37040,1,12,0:0:0:0:
256,192,38267,1,12,0:0:0:0:
256,192,38813,1,8,0:0:0:0:
256,192,39222,1,0,0:0:0:0:
256,192,39904,1,8,0:0:0:0:
256,192,40176,1,8,0:0:0:0:
256,192,40449,1,0,0:0:0:0:
256,192,40995,1,8,0:0:0:0:
256,192,41404,1,0,0:0:0:0:
256,192,42358,1,8,0:0:0:0:
256,192,42631,1,0,0:0:0:0:
256,192,43176,1,8,0:0:0:0:
256,192,43586,1,0,0:0:0:0:
256,192,43995,1,8,0:0:0:0:
256,192,44267,1,0,0:0:0:0:
256,192,44813,1,4,0:0:0:0:
256,192,45358,1,4,0:0:0:0:
256,192,45767,1,12,0:0:0:0:
256,192,46995,1,4,0:0:0:0:
256,192,47540,1,8,0:0:0:0:
256,192,47949,1,0,0:0:0:0:
256,192,48631,1,8,0:0:0:0:
256,192,48904,1,8,0:0:0:0:
256,192,49176,1,0,0:0:0:0:
256,192,49722,1,8,0:0:0:0:
256,192,50131,1,0,0:0:0:0:
256,192,51086,1,8,0:0:0:0:
256,192,51358,1,0,0:0:0:0:
256,192,51904,1,8,0:0:0:0:
256,192,52313,1,0,0:0:0:0:
256,192,52722,1,8,0:0:0:0:
256,192,52995,1,0,0:0:0:0:
256,192,53540,1,4,0:0:0:0:
256,192,54086,1,4,0:0:0:0:
256,192,54631,1,12,0:0:0:0:
256,192,55722,1,4,0:0:0:0:
256,192,56267,1,8,0:0:0:0:
256,192,56676,1,0,0:0:0:0:
256,192,57086,1,8,0:0:0:0:
256,192,57358,1,8,0:0:0:0:
256,192,57904,1,0,0:0:0:0:
256,192,58449,1,8,0:0:0:0:
256,192,58858,1,0,0:0:0:0:
256,192,60086,1,0,0:0:0:0:
256,192,60631,1,8,0:0:0:0:
256,192,61040,1,0,0:0:0:0:
256,192,61449,1,8,0:0:0:0:
256,192,61722,1,0,0:0:0:0:
256,192,62267,1,0,0:0:0:0:
256,192,63222,1,4,0:0:0:0:
256,192,63904,1,8,0:0:0:0:
256,192,64449,1,4,0:0:0:0:
256,192,64995,1,0,0:0:0:0:
256,192,65404,1,8,0:0:0:0:
256,192,65813,1,8,0:0:0:0:
256,192,66086,1,8,0:0:0:0:
256,192,66631,1,0,0:0:0:0:
256,192,67586,1,0,0:0:0:0:
256,192,67995,1,8,0:0:0:0:
256,192,68813,1,0,0:0:0:0:
256,192,69358,1,0,0:0:0:0:
256,192,69767,1,8,0:0:0:0:
256,192,70449,1,0,0:0:0:0:
256,192,70995,1,8,0:0:0:0:
256,192,71540,1,0,0:0:0:0:
256,192,72086,1,8,0:0:0:0:
256,192,72631,1,8,0:0:0:0:
256,192,73176,1,4,0:0:0:0:
256,192,74131,1,0,0:0:0:0:
256,192,74540,1,8,0:0:0:0:
256,192,74813,1,0,0:0:0:0:
256,192,75358,1,4,0:0:0:0:
256,192,75904,1,12,0:0:0:0:
256,192,76449,1,4,0:0:0:0:
256,192,76995,1,12,0:0:0:0:
256,192,77540,1,4,0:0:0:0:
256,192,78086,1,0,0:0:0:0:
256,192,78495,1,8,0:0:0:0:
256,192,79449,1,8,0:0:0:0:
256,192,79722,1,0,0:0:0:0:
256,192,80267,1,0,0:0:0:0:
256,192,80676,1,8,0:0:0:0:
256,192,81086,1,8,0:0:0:0:
256,192,81358,1,0,0:0:0:0:
256,192,81904,1,0,0:0:0:0:
256,192,82449,1,0,0:0:0:0:
256,192,82858,1,8,0:0:0:0:
256,192,83813,1,8,0:0:0:0:
256,192,84086,1,0,0:0:0:0:
256,192,84631,1,0,0:0:0:0:
256,192,85040,1,8,0:0:0:0:
256,192,85449,1,8,0:0:0:0:
256,192,85722,1,8,0:0:0:0:
256,192,86267,1,0,0:0:0:0:
256,192,86813,1,0,0:0:0:0:
256,192,87222,1,8,0:0:0:0:
256,192,88176,1,8,0:0:0:0:
256,192,88449,1,0,0:0:0:0:
256,192,88995,1,0,0:0:0:0:
256,192,89404,1,8,0:0:0:0:
256,192,89813,1,8,0:0:0:0:
256,192,90086,1,0,0:0:0:0:
256,192,90631,1,0,0:0:0:0:
256,192,91176,1,0,0:0:0:0:
256,192,91586,1,8,0:0:0:0:
256,192,92540,1,8,0:0:0:0:
256,192,92813,1,0,0:0:0:0:
256,192,93358,1,0,0:0:0:0:
256,192,93767,1,4,0:0:0:0:
256,192,94995,1,4,0:0:0:0:
256,192,95540,1,0,0:0:0:0:
256,192,95949,1,8,0:0:0:0:
256,192,96631,1,8,0:0:0:0:
256,192,97176,1,0,0:0:0:0:
256,192,97722,1,0,0:0:0:0:
256,192,98131,1,8,0:0:0:0:
256,192,99358,1,4,0:0:0:0:
256,192,99904,1,8,0:0:0:0:
256,192,100313,1,0,0:0:0:0:
256,192,101267,1,8,0:0:0:0:
256,192,101540,1,0,0:0:0:0:
256,192,102086,1,0,0:0:0:0:
256,192,102495,1,8,0:0:0:0:
256,192,103176,1,0,0:0:0:0:
256,192,103722,1,12,0:0:0:0:
256,192,104676,1,12,0:0:0:0:
256,192,105631,1,8,0:0:0:0:
256,192,105904,1,0,0:0:0:0:
256,192,106449,1,0,0:0:0:0:
256,192,106858,1,8,0:0:0:0:
256,192,107813,1,8,0:0:0:0:
256,192,108086,1,0,0:0:0:0:
256,192,108631,1,8,0:0:0:0:
256,192,109040,1,0,0:0:0:0:
256,192,109722,1,8,0:0:0:0:
256,192,110267,1,0,0:0:0:0:
256,192,110813,1,0,0:0:0:0:
256,192,111222,1,4,0:0:0:0:
256,192,112449,1,12,0:0:0:0:
256,192,112995,1,8,0:0:0:0:
256,192,113404,1,0,0:0:0:0:
256,192,114086,1,8,0:0:0:0:
256,192,114358,1,8,0:0:0:0:
256,192,114631,1,0,0:0:0:0:
256,192,115176,1,8,0:0:0:0:
256,192,115586,1,0,0:0:0:0:
256,192,116540,1,8,0:0:0:0:
256,192,116813,1,0,0:0:0:0:
256,192,117358,1,0,0:0:0:0:
256,192,117767,1,8,0:0:0:0:
256,192,118176,1,8,0:0:0:0:
256,192,118449,1,0,0:0:0:0:
256,192,118995,1,4,0:0:0:0:
256,192,119540,1,4,0:0:0:0:
256,192,119949,1,12,0:0:0:0:
256,192,121176,1,12,0:0:0:0:
256,192,121722,1,8,0:0:0:0:
256,192,122131,1,0,0:0:0:0:
256,192,122813,1,8,0:0:0:0:
256,192,123086,1,8,0:0:0:0:
256,192,123358,1,0,0:0:0:0:
256,192,123904,1,8,0:0:0:0:
256,192,124313,1,0,0:0:0:0:
256,192,125267,1,8,0:0:0:0:
256,192,125540,1,0,0:0:0:0:
256,192,126086,1,8,0:0:0:0:
256,192,126495,1,0,0:0:0:0:
256,192,126904,1,8,0:0:0:0:
256,192,127176,1,0,0:0:0:0:
256,192,127722,1,4,0:0:0:0:
256,192,128267,1,8,0:0:0:0:
256,192,128813,1,4,0:0:0:0:
256,192,129904,1,4,0:0:0:0:
256,192,130995,1,4,0:0:0:0:
256,192,132086,1,4,0:0:0:0:
256,192,132631,1,4,0:0:0:0:
256,192,133176,1,4,0:0:0:0:
256,192,134267,1,4,0:0:0:0:
256,192,135358,1,4,0:0:0:0:
256,192,136449,1,4,0:0:0:0:
256,192,136995,1,4,0:0:0:0:
256,192,137540,1,4,0:0:0:0:
256,192,138631,1,4,0:0:0:0:
256,192,139449,1,8,0:0:0:0:
256,192,139722,1,8,0:0:0:0:
256,192,140267,1,0,0:0:0:0:
256,192,140813,1,0,0:0:0:0:
256,192,141086,1,8,0:0:0:0:
256,192,142040,1,8,0:0:0:0:
256,192,142313,1,0,0:0:0:0:
256,192,142995,1,0,0:0:0:0:
256,192,143540,1,8,0:0:0:0:
256,192,144086,1,8,0:0:0:0:
256,192,144358,1,8,0:0:0:0:
256,192,144631,1,0,0:0:0:0:
256,192,145176,1,8,0:0:0:0:
256,192,145722,1,0,0:0:0:0:
256,192,146267,1,8,0:0:0:0:
256,192,147358,1,8,0:0:0:0:
256,192,147904,1,0,0:0:0:0:
256,192,148449,1,8,0:0:0:0:
256,192,149131,1,8,0:0:0:0:
256,192,149540,1,0,0:0:0:0:
256,192,150086,1,8,0:0:0:0:
256,192,150631,1,0,0:0:0:0:
256,192,151722,1,8,0:0:0:0:
256,192,152267,1,8,0:0:0:0:
256,192,152813,1,0,0:0:0:0:
256,192,153358,1,0,0:0:0:0:
256,192,153904,1,8,0:0:0:0:
256,192,154449,1,0,0:0:0:0:
256,192,154995,1,8,0:0:0:0:
256,192,156086,1,4,0:0:0:0:
256,192,157176,1,12,0:0:0:0:
256,192,158267,1,0,0:0:0:0:
256,192,159358,1,8,0:0:0:0:
256,192,160449,1,0,0:0:0:0:
256,192,161540,1,8,0:0:0:0:
256,192,162631,1,0,0:0:0:0:
256,192,163176,1,8,0:0:0:0:
256,192,163722,1,0,0:0:0:0:
256,192,164813,1,0,0:0:0:0:
256,192,165904,1,8,0:0:0:0:
256,192,166995,1,0,0:0:0:0:
256,192,167540,1,8,0:0:0:0:
256,192,168086,1,0,0:0:0:0:
256,192,168631,1,8,0:0:0:0:
256,192,169176,1,0,0:0:0:0:
256,192,169722,1,0,0:0:0:0:
256,192,170267,1,8,0:0:0:0:
256,192,171358,1,0,0:0:0:0:
256,192,171904,1,8,0:0:0:0:
256,192,172449,1,0,0:0:0:0:
256,192,172995,1,0,0:0:0:0:
256,192,173540,1,8,0:0:0:0:
256,192,174086,1,0,0:0:0:0:
256,192,174631,1,8,0:0:0:0:
256,192,175722,1,12,0:0:0:0:
256,192,176267,1,4,0:0:0:0:
256,192,176813,1,12,0:0:0:0:
256,192,177358,1,4,0:0:0:0:
256,192,178449,1,12,0:0:0:0:
256,192,178858,1,12,0:0:0:0:
256,192,179540,1,0,0:0:0:0:
256,192,180086,1,8,0:0:0:0:
256,192,180358,1,8,0:0:0:0:
256,192,181040,1,0,0:0:0:0:
256,192,182267,1,0,0:0:0:0:
256,192,182813,1,8,0:0:0:0:
256,192,183222,1,0,0:0:0:0:
256,192,183631,1,8,0:0:0:0:
256,192,183904,1,0,0:0:0:0:
256,192,184449,1,0,0:0:0:0:
256,192,185404,1,4,0:0:0:0:
256,192,186086,1,8,0:0:0:0:
256,192,186631,1,4,0:0:0:0:
256,192,187176,1,0,0:0:0:0:
256,192,187586,1,8,0:0:0:0:
256,192,187995,1,8,0:0:0:0:
256,192,188267,1,8,0:0:0:0:
256,192,188813,1,0,0:0:0:0:
256,192,189767,1,0,0:0:0:0:
256,192,190176,1,8,0:0:0:0:
256,192,190995,1,4,0:0:0:0:
256,192,191540,1,0,0:0:0:0:
256,192,191949,1,8,0:0:0:0:
256,192,192631,1,0,0:0:0:0:
256,192,193176,1,8,0:0:0:0:
256,192,193722,1,0,0:0:0:0:
256,192,194267,1,8,0:0:0:0:
256,192,194813,1,8,0:0:0:0:
256,192,195358,1,4,0:0:0:0:
256,192,196313,1,0,0:0:0:0:
256,192,196722,1,8,0:0:0:0:
256,192,196995,1,0,0:0:0:0:
256,192,197540,1,4,0:0:0:0:
256,192,198086,1,12,0:0:0:0:
256,192,198631,1,4,0:0:0:0:
256,192,199176,1,12,0:0:0:0:
256,192,199722,1,4,0:0:0:0:
256,192,200267,1,0,0:0:0:0:
256,192,200676,1,8,0:0:0:0:
256,192,201086,1,8,0:0:0:0:
256,192,201631,1,8,0:0:0:0:
256,192,201904,1,0,0:0:0:0:
256,192,202449,1,8,0:0:0:0:
256,192,202858,1,0,0:0:0:0:
256,192,203813,1,8,0:0:0:0:
256,192,204086,1,0,0:0:0:0:
256,192,204631,1,8,0:0:0:0:
256,192,205040,1,0,0:0:0:0:
256,192,205449,1,8,0:0:0:0:
256,192,205995,1,8,0:0:0:0:
256,192,206267,1,8,0:0:0:0:
256,192,206813,1,0,0:0:0:0:
256,192,207222,1,12,0:0:0:0:
256,192,208449,1,4,0:0:0:0:
256,192,208995,1,0,0:0:0:0:
256,192,209404,1,8,0:0:0:0:
256,192,209813,1,8,0:0:0:0:
256,192,210358,1,8,0:0:0:0:
256,192,210631,1,0,0:0:0:0:
256,192,211176,1,8,0:0:0:0:
256,192,211586,1,0,0:0:0:0:
256,192,212540,1,8,0:0:0:0:
256,192,212813,1,0,0:0:0:0:
256,192,213358,1,0,0:0:0:0:
256,192,214313,1,8,0:0:0:0:
256,192,214722,1,8,0:0:0:0:
256,192,214995,1,0,0:0:0:0:
256,192,215540,1,8,0:0:0:0:
256,192,216358,1,12,0:0:0:0:
256,192,217176,1,12,0:0:0:0:
256,192,217995,1,8,0:0:0:0:
256,192,218540,1,8,0:0:0:0:
256,192,219086,1,0,0:0:0:0:
256,192,219358,1,8,0:0:0:0:
256,192,219904,1,0,0:0:0:0:
256,192,220449,1,8,0:0:0:0:
256,192,220995,1,8,0:0:0:0:
256,192,221540,1,4,0:0:0:0:
256,192,222631,1,4,0:0:0:0:
256,192,223722,1,4,0:0:0:0:
256,192,224267,1,4,0:0:0:0:
256,192,224813,1,12,0:0:0:0:
