osu file format v14

[General]
AudioFilename: audio.ogg
AudioLeadIn: 0
PreviewTime: 55381
Countdown: 0
SampleSet: Normal
StackLeniency: 0.7
Mode: 1
LetterboxInBreaks: 0
WidescreenStoryboard: 1

[Editor]
DistanceSpacing: 1.2
BeatDivisor: 4
GridSize: 32
TimelineZoom: 2.5

[Metadata]
Title:Yuugure One Room
TitleUnicode:夕暮れワンルーム
Artist:40mP feat. chano
ArtistUnicode:40mP feat. シャノ
Creator:KyeX
Version:Inner Oni
Source:CHUNITHM
Tags:sunset studio japanese pop jpop j-pop shano video game ost original soundtrack 40㍍p 40meterp 歌い手 utaite 歌ってみた utattemita utakatarelation mint
BeatmapID:3381496
BeatmapSetID:1656675

[Difficulty]
HPDrainRate:5.5
CircleSize:3
OverallDifficulty:6.5
ApproachRate:10
SliderMultiplier:1.4
SliderTickRate:1

[Events]
//Background and Video events
0,0,"27.jpg",0,80
//Break Periods
//Storyboard Layer 0 (Background)
//Storyboard Layer 1 (Fail)
//Storyboard Layer 2 (Pass)
//Storyboard Layer 3 (Foreground)
//Storyboard Layer 4 (Overlay)
//Storyboard Sound Samples

[TimingPoints]
86,272.727272727273,4,1,0,90,1,8
86,-111.111111111111,4,1,0,90,0,0
1176,-90.909090909091,4,1,0,90,0,0
2813,-125,4,1,0,90,0,0
3358,-100,4,1,0,90,0,0
19858,-102.267044507418,4,1,0,90,0,0
19994,-103.439554881133,4,1,0,90,0,0
20131,-104.648187633262,4,1,0,90,0,0
20267,-105.87626197256,4,1,0,90,0,0
20335,-106.501171773284,4,1,0,90,0,0
20403,-107.133502139178,4,1,0,90,0,0
20472,-107.782853127196,4,1,0,90,0,0
20540,-108.430540827147,4,1,0,90,0,0
20676,-109.749552772809,4,1,0,90,0,0
20813,-111.111111111111,4,1,0,90,0,0
38267,-105.263157894737,4,1,0,95,0,0
44813,-100,4,1,0,95,0,0
45085,-105.263157894737,4,1,0,95,0,0
45358,-95.238095238095,4,1,0,95,0,0
45631,-105.263157894737,4,1,0,95,0,0
45767,-90.909090909091,4,1,0,95,0,0
45903,-92.303066746843,4,1,0,95,0,0
46040,-93.751192884681,4,1,0,95,0,0
46176,-95.234402264531,4,1,0,95,0,0
46313,-96.776735755379,4,1,0,95,0,0
46381,-97.560975609756,4,1,0,95,0,0
46449,-98.358029635563,4,1,0,95,0,0
46517,-99.168214487604,4,1,0,95,0,0
46585,-99.991857340607,4,1,0,95,0,0
46722,-101.693511655832,4,1,0,95,0,0
46858,-103.441014193657,4,1,0,95,0,0
46994,-105.249625026784,4,1,0,95,0,0
53540,-111.111111111111,4,1,0,95,0,0
54085,-125,4,1,0,95,0,0
54631,-90.909090909091,4,1,0,95,0,0
55722,-100,4,1,0,100,0,1
75217,-95.238095238095,4,1,0,100,0,1
75358,-90.909090909091,4,1,0,100,0,1
75631,-100,4,1,0,100,0,1
75767,-95.238095238095,4,1,0,100,0,1
75903,-90.909090909091,4,1,0,100,0,1
76176,-100,4,1,0,100,0,1
76313,-95.238095238095,4,1,0,100,0,1
76449,-90.909090909091,4,1,0,100,0,1
76722,-100,4,1,0,100,0,1
76858,-95.238095238095,4,1,0,100,0,1
76994,-90.909090909091,4,1,0,100,0,1
77267,-100,4,1,0,100,0,1
77540,-90.909090909091,4,1,0,100,0,0
77813,-100,4,1,0,90,0,0
95540,-125,4,1,0,85,0,0
99358,-111.111111111111,4,1,0,90,0,0
104267,-100,4,1,0,90,0,0
104676,-90.909090909091,4,1,0,90,0,0
104813,-111.111111111111,4,1,0,90,0,0
112449,-105.263157894737,4,1,0,95,0,0
118995,-100,4,1,0,95,0,0
119267,-105.263157894737,4,1,0,95,0,0
119540,-95.238095238095,4,1,0,95,0,0
119813,-105.263157894737,4,1,0,95,0,0
119949,-90.909090909091,4,1,0,95,0,0
120085,-92.304220266306,4,1,0,95,0,0
120222,-93.753581661891,4,1,0,95,0,0
120358,-95.238095238095,4,1,0,95,0,0
120495,-96.781826786559,4,1,0,95,0,0
120563,-97.56679389313,4,1,0,95,0,0
120631,-98.364598364598,4,1,0,95,0,0
120767,-100,4,1,0,95,0,0
120904,-101.703344523188,4,1,0,95,0,0
121040,-103.452636904009,4,1,0,95,0,0
121176,-105.263157894737,4,1,0,95,0,0
127722,-95.238095238095,4,1,0,95,0,0
127995,-111.111111111111,4,1,0,95,0,0
128131,-109.095758869032,4,1,0,95,0,0
128199,-108.115252445149,4,1,0,95,0,0
128267,-107.152213780456,4,1,0,95,0,0
128404,-105.263157894737,4,1,0,95,0,0
128540,-103.452636904009,4,1,0,95,0,0
128676,-101.703344523188,4,1,0,95,0,0
128813,-90.909090909091,4,1,0,95,0,0
129358,-111.111111111111,4,1,0,95,0,0
129904,-90.909090909091,4,1,0,95,0,0
138086,-100,4,1,0,95,0,0
156085,-96.151134921754,4,1,0,95,0,0
156494,-90.909090909091,4,1,0,95,0,0
156903,-86.209075970168,4,1,0,95,0,0
157176,-83.333333333333,4,1,0,95,0,0
158267,-125,4,1,0,85,0,0
166995,-117.647058823529,4,1,0,90,0,0
175722,-100,4,1,0,95,0,0
178449,-90.909090909091,4,1,0,95,0,0
178858,-90.909090909091,4,1,0,100,0,1
178995,-100,4,1,0,100,0,1
197397,-95.238095238095,4,1,0,100,0,1
197538,-90.909090909091,4,1,0,100,0,1
197811,-100,4,1,0,100,0,1
197947,-95.238095238095,4,1,0,100,0,1
198083,-90.909090909091,4,1,0,100,0,1
198356,-100,4,1,0,100,0,1
198493,-95.238095238095,4,1,0,100,0,1
198629,-90.909090909091,4,1,0,100,0,1
198902,-100,4,1,0,100,0,1
199038,-95.238095238095,4,1,0,100,0,1
199174,-90.909090909091,4,1,0,100,0,1
199310,-92.983651226158,4,1,0,100,0,1
199447,-95.204882301656,4,1,0,100,0,1
199583,-97.517413823897,4,1,0,100,0,1
199722,-99.945085118067,4,1,0,100,0,0
216358,-100,4,1,0,100,0,0
216495,-101.703344523188,4,1,0,100,0,0
216631,-103.452636904009,4,1,0,100,0,0
216699,-104.350044648552,4,1,0,100,0,0
216767,-105.263157894737,4,1,0,100,0,0
216904,-107.152213780456,4,1,0,100,0,0
217040,-109.095758869032,4,1,0,100,0,0
217176,-111.111111111111,4,1,0,90,0,0
220449,-111.111111111111,4,1,0,90,0,0
220517,-110.34692019824,4,1,0,90,0,0
220586,-109.582161510647,4,1,0,90,0,0
220654,-108.838786911413,4,1,0,90,0,0
220722,-108.105430043599,4,1,0,90,0,0
220858,-106.667970277669,4,1,0,90,0,0
220926,-105.963480963481,4,1,0,90,0,0
220995,-105.258080077183,4,1,0,90,0,0
221063,-104.572031055305,4,1,0,90,0,0
221131,-103.894867155509,4,1,0,90,0,0
221199,-103.226416879553,4,1,0,90,0,0
221267,-102.5665131146,4,1,0,90,0,0
221336,-101.905473566225,4,1,0,90,0,0
221404,-101.262298125116,4,1,0,90,0,0
221472,-100.627190555248,4,1,0,90,0,0
221540,-100,4,1,0,90,0,0
222631,-95.238095238095,4,1,0,95,0,0
223722,-90.909090909091,4,1,0,95,0,0

[HitObjects]
256,192,358,5,0,0:0:0:0:
256,192,426,1,0,0:0:0:0:
256,192,495,1,0,0:0:0:0:
256,192,631,1,8,0:0:0:0:
256,192,767,1,8,0:0:0:0:
256,192,904,1,0,0:0:0:0:
256,192,1176,1,12,0:0:0:0:
256,192,1358,1,4,0:0:0:0:
256,192,1540,1,4,0:0:0:0:
256,192,1722,1,4,0:0:0:0:
256,192,1904,1,4,0:0:0:0:
256,192,2086,1,4,0:0:0:0:
256,192,2267,1,12,0:0:0:0:
256,192,2813,1,0,0:0:0:0:
256,192,3358,1,12,0:0:0:0:
256,192,3631,1,8,0:0:0:0:
256,192,3904,1,0,0:0:0:0:
256,192,4040,1,0,0:0:0:0:
256,192,4108,1,0,0:0:0:0:
256,192,4176,1,8,0:0:0:0:
256,192,4313,1,0,0:0:0:0:
256,192,4586,1,0,0:0:0:0:
256,192,4722,1,8,0:0:0:0:
256,192,4995,1,0,0:0:0:0:
256,192,5267,1,8,0:0:0:0:
256,192,5404,1,8,0:0:0:0:
256,192,5472,1,0,0:0:0:0:
256,192,5540,1,8,0:0:0:0:
256,192,5676,1,0,0:0:0:0:
256,192,5813,1,8,0:0:0:0:
256,192,5949,1,0,0:0:0:0:
256,192,6017,1,0,0:0:0:0:
256,192,6086,1,8,0:0:0:0:
256,192,6222,1,0,0:0:0:0:
256,192,6358,1,8,0:0:0:0:
256,192,6495,1,0,0:0:0:0:
256,192,6767,1,0,0:0:0:0:
256,192,6904,1,8,0:0:0:0:
256,192,6972,1,8,0:0:0:0:
256,192,7040,1,0,0:0:0:0:
256,192,7176,1,8,0:0:0:0:
256,192,7245,1,8,0:0:0:0:
256,192,7313,1,0,0:0:0:0:
256,192,7381,1,0,0:0:0:0:
256,192,7449,1,8,0:0:0:0:
256,192,7586,1,8,0:0:0:0:
256,192,7722,1,0,0:0:0:0:
256,192,7995,1,8,0:0:0:0:
256,192,8267,1,0,0:0:0:0:
256,192,8404,1,0,0:0:0:0:
256,192,8472,1,0,0:0:0:0:
256,192,8540,1,8,0:0:0:0:
256,192,8676,1,0,0:0:0:0:
256,192,8949,1,0,0:0:0:0:
256,192,9086,1,8,0:0:0:0:
256,192,9358,1,0,0:0:0:0:
256,192,9631,1,8,0:0:0:0:
256,192,9767,1,8,0:0:0:0:
256,192,9836,1,0,0:0:0:0:
256,192,9904,1,8,0:0:0:0:
256,192,10040,1,0,0:0:0:0:
256,192,10176,1,8,0:0:0:0:
256,192,10313,1,8,0:0:0:0:
256,192,10381,1,0,0:0:0:0:
256,192,10449,1,0,0:0:0:0:
256,192,10586,1,8,0:0:0:0:
256,192,10722,1,0,0:0:0:0:
256,192,10858,1,8,0:0:0:0:
256,192,11131,1,8,0:0:0:0:
256,192,11267,1,8,0:0:0:0:
256,192,11404,1,0,0:0:0:0:
256,192,11540,1,0,0:0:0:0:
256,192,11608,1,8,0:0:0:0:
256,192,11676,1,0,0:0:0:0:
256,192,11745,1,0,0:0:0:0:
256,192,11813,1,8,0:0:0:0:
256,192,11949,1,8,0:0:0:0:
256,192,12086,1,0,0:0:0:0:
256,192,12358,1,8,0:0:0:0:
256,192,12631,1,0,0:0:0:0:
256,192,12767,1,0,0:0:0:0:
256,192,12836,1,0,0:0:0:0:
256,192,12904,1,8,0:0:0:0:
256,192,13040,1,0,0:0:0:0:
256,192,13313,1,0,0:0:0:0:
256,192,13449,1,8,0:0:0:0:
256,192,13722,1,0,0:0:0:0:
256,192,13995,1,8,0:0:0:0:
256,192,14131,1,8,0:0:0:0:
256,192,14199,1,0,0:0:0:0:
256,192,14267,1,8,0:0:0:0:
256,192,14404,1,0,0:0:0:0:
256,192,14540,1,8,0:0:0:0:
256,192,14676,1,0,0:0:0:0:
256,192,14745,1,0,0:0:0:0:
256,192,14813,1,8,0:0:0:0:
256,192,14949,1,0,0:0:0:0:
256,192,15086,1,8,0:0:0:0:
256,192,15222,1,0,0:0:0:0:
256,192,15495,1,0,0:0:0:0:
256,192,15631,1,8,0:0:0:0:
256,192,15699,1,8,0:0:0:0:
256,192,15767,1,0,0:0:0:0:
256,192,15904,1,8,0:0:0:0:
256,192,15972,1,8,0:0:0:0:
256,192,16040,1,0,0:0:0:0:
256,192,16108,1,0,0:0:0:0:
256,192,16176,1,8,0:0:0:0:
256,192,16313,1,8,0:0:0:0:
256,192,16449,1,0,0:0:0:0:
256,192,16722,1,8,0:0:0:0:
256,192,16995,1,0,0:0:0:0:
256,192,17131,1,0,0:0:0:0:
256,192,17199,1,0,0:0:0:0:
256,192,17267,1,8,0:0:0:0:
256,192,17404,1,0,0:0:0:0:
256,192,17676,1,0,0:0:0:0:
256,192,17813,1,8,0:0:0:0:
256,192,18086,1,0,0:0:0:0:
256,192,18358,1,8,0:0:0:0:
256,192,18495,1,8,0:0:0:0:
256,192,18563,1,0,0:0:0:0:
256,192,18631,1,8,0:0:0:0:
256,192,18767,1,0,0:0:0:0:
256,192,18904,1,8,0:0:0:0:
256,192,19040,1,8,0:0:0:0:
256,192,19108,1,8,0:0:0:0:
256,192,19176,1,0,0:0:0:0:
256,192,19313,1,0,0:0:0:0:
256,192,19449,1,8,0:0:0:0:
256,192,19586,1,4,0:0:0:0:
256,192,19858,1,8,0:0:0:0:
256,192,19995,1,8,0:0:0:0:
256,192,20131,1,0,0:0:0:0:
256,192,20267,1,8,0:0:0:0:
256,192,20336,1,8,0:0:0:0:
256,192,20404,1,0,0:0:0:0:
256,192,20472,1,0,0:0:0:0:
256,192,20540,1,8,0:0:0:0:
256,192,20676,1,0,0:0:0:0:
256,192,20813,1,12,0:0:0:0:
256,192,21086,1,8,0:0:0:0:
256,192,21358,1,0,0:0:0:0:
256,192,21495,1,0,0:0:0:0:
256,192,21631,1,8,0:0:0:0:
256,192,21767,1,0,0:0:0:0:
256,192,22040,1,0,0:0:0:0:
256,192,22176,1,8,0:0:0:0:
256,192,22449,1,0,0:0:0:0:
256,192,22722,1,8,0:0:0:0:
256,192,22858,1,8,0:0:0:0:
256,192,22995,1,0,0:0:0:0:
256,192,23267,1,8,0:0:0:0:
256,192,23540,1,8,0:0:0:0:
256,192,23676,1,8,0:0:0:0:
256,192,23813,1,0,0:0:0:0:
256,192,23949,1,8,0:0:0:0:
256,192,24222,1,0,0:0:0:0:
256,192,24358,1,8,0:0:0:0:
256,192,24495,1,8,0:0:0:0:
256,192,24631,1,0,0:0:0:0:
256,192,24767,1,0,0:0:0:0:
256,192,24904,1,8,0:0:0:0:
256,192,25176,1,0,0:0:0:0:
256,192,25449,1,8,0:0:0:0:
256,192,25722,1,8,0:0:0:0:
256,192,25858,1,0,0:0:0:0:
256,192,25995,1,8,0:0:0:0:
256,192,26131,1,0,0:0:0:0:
256,192,26404,1,0,0:0:0:0:
256,192,26540,1,8,0:0:0:0:
256,192,26676,1,8,0:0:0:0:
256,192,26745,1,8,0:0:0:0:
256,192,26813,1,0,0:0:0:0:
256,192,26949,1,0,0:0:0:0:
256,192,27086,1,8,0:0:0:0:
256,192,27358,1,0,0:0:0:0:
256,192,27631,1,8,0:0:0:0:
256,192,27767,1,0,0:0:0:0:
256,192,27904,1,0,0:0:0:0:
256,192,28040,1,8,0:0:0:0:
256,192,28313,1,8,0:0:0:0:
256,192,28586,1,0,0:0:0:0:
256,192,28722,1,8,0:0:0:0:
256,192,28858,1,0,0:0:0:0:
256,192,28995,1,8,0:0:0:0:
256,192,29063,1,8,0:0:0:0:
256,192,29131,1,0,0:0:0:0:
256,192,29199,1,0,0:0:0:0:
256,192,29267,1,8,0:0:0:0:
256,192,29404,1,8,0:0:0:0:
256,192,29540,1,0,0:0:0:0:
256,192,29813,1,8,0:0:0:0:
256,192,30086,1,0,0:0:0:0:
256,192,30222,1,0,0:0:0:0:
256,192,30358,1,8,0:0:0:0:
256,192,30495,1,0,0:0:0:0:
256,192,30767,1,0,0:0:0:0:
256,192,30904,1,8,0:0:0:0:
256,192,31176,1,0,0:0:0:0:
256,192,31449,1,8,0:0:0:0:
256,192,31586,1,8,0:0:0:0:
256,192,31722,1,0,0:0:0:0:
256,192,31995,1,8,0:0:0:0:
256,192,32267,1,0,0:0:0:0:
256,192,32404,1,8,0:0:0:0:
256,192,32540,1,8,0:0:0:0:
256,192,32676,1,0,0:0:0:0:
256,192,32949,1,0,0:0:0:0:
256,192,33086,1,8,0:0:0:0:
256,192,33222,1,8,0:0:0:0:
256,192,33358,1,0,0:0:0:0:
256,192,33495,1,0,0:0:0:0:
256,192,33631,1,8,0:0:0:0:
256,192,33904,1,0,0:0:0:0:
256,192,34176,1,8,0:0:0:0:
256,192,34449,1,8,0:0:0:0:
256,192,34586,1,0,0:0:0:0:
256,192,34722,1,8,0:0:0:0:
256,192,34858,1,0,0:0:0:0:
256,192,35131,1,0,0:0:0:0:
256,192,35267,1,8,0:0:0:0:
256,192,35404,1,8,0:0:0:0:
256,192,35472,1,8,0:0:0:0:
256,192,35540,1,0,0:0:0:0:
256,192,35676,1,0,0:0:0:0:
256,192,35813,1,8,0:0:0:0:
256,192,36086,1,0,0:0:0:0:
256,192,36358,1,8,0:0:0:0:
256,192,36495,1,0,0:0:0:0:
256,192,36631,1,8,0:0:0:0:
256,192,36699,1,0,0:0:0:0:
256,192,36767,1,8,0:0:0:0:
256,192,36904,1,0,0:0:0:0:
256,192,37040,1,12,0:0:0:0:
256,192,37313,1,0,0:0:0:0:
256,192,37381,1,0,0:0:0:0:
256,192,37449,1,8,0:0:0:0:
256,192,37586,1,0,0:0:0:0:
256,192,37722,1,8,0:0:0:0:
256,192,37790,1,0,0:0:0:0:
256,192,37858,1,8,0:0:0:0:
256,192,37926,1,8,0:0:0:0:
256,192,37995,1,0,0:0:0:0:
256,192,38131,1,0,0:0:0:0:
256,192,38267,1,12,0:0:0:0:
256,192,38540,1,8,0:0:0:0:
256,192,38813,1,0,0:0:0:0:
256,192,38949,1,0,0:0:0:0:
256,192,39086,1,8,0:0:0:0:
256,192,39222,1,0,0:0:0:0:
256,192,39495,1,0,0:0:0:0:
256,192,39631,1,8,0:0:0:0:
256,192,39904,1,0,0:0:0:0:
256,192,40040,1,0,0:0:0:0:
256,192,40108,1,0,0:0:0:0:
256,192,40176,1,8,0:0:0:0:
256,192,40313,1,8,0:0:0:0:
256,192,40449,1,0,0:0:0:0:
256,192,40722,1,8,0:0:0:0:
256,192,40858,1,8,0:0:0:0:
256,192,40926,1,8,0:0:0:0:
256,192,40995,1,0,0:0:0:0:
256,192,41131,1,8,0:0:0:0:
256,192,41267,1,8,0:0:0:0:
256,192,41404,1,0,0:0:0:0:
256,192,41676,1,0,0:0:0:0:
256,192,41813,1,8,0:0:0:0:
256,192,41949,1,0,0:0:0:0:
256,192,42017,1,0,0:0:0:0:
256,192,42086,1,8,0:0:0:0:
256,192,42222,1,0,0:0:0:0:
256,192,42358,1,8,0:0:0:0:
256,192,42495,1,8,0:0:0:0:
256,192,42631,1,0,0:0:0:0:
256,192,42904,1,8,0:0:0:0:
256,192,43040,1,8,0:0:0:0:
256,192,43108,1,8,0:0:0:0:
256,192,43176,1,0,0:0:0:0:
256,192,43313,1,0,0:0:0:0:
256,192,43449,1,8,0:0:0:0:
256,192,43586,1,0,0:0:0:0:
256,192,43858,1,8,0:0:0:0:
256,192,43995,1,8,0:0:0:0:
256,192,44131,1,0,0:0:0:0:
256,192,44267,1,8,0:0:0:0:
256,192,44336,1,8,0:0:0:0:
256,192,44404,1,0,0:0:0:0:
256,192,44472,1,0,0:0:0:0:
256,192,44540,1,8,0:0:0:0:
256,192,44676,1,8,0:0:0:0:
256,192,44813,1,4,0:0:0:0:
256,192,45086,1,8,0:0:0:0:
256,192,45358,1,4,0:0:0:0:
256,192,45631,1,0,0:0:0:0:
256,192,45767,1,12,0:0:0:0:
256,192,46040,1,0,0:0:0:0:
256,192,46176,1,8,0:0:0:0:
256,192,46313,1,0,0:0:0:0:
256,192,46381,1,0,0:0:0:0:
256,192,46449,1,0,0:0:0:0:
256,192,46517,1,0,0:0:0:0:
256,192,46586,1,8,0:0:0:0:
256,192,46722,1,8,0:0:0:0:
256,192,46858,1,8,0:0:0:0:
256,192,46995,1,4,0:0:0:0:
256,192,47267,1,8,0:0:0:0:
256,192,47540,1,0,0:0:0:0:
256,192,47676,1,0,0:0:0:0:
256,192,47813,1,8,0:0:0:0:
256,192,47949,1,0,0:0:0:0:
256,192,48222,1,0,0:0:0:0:
256,192,48358,1,8,0:0:0:0:
256,192,48495,1,8,0:0:0:0:
256,192,48563,1,8,0:0:0:0:
256,192,48631,1,0,0:0:0:0:
256,192,48767,1,0,0:0:0:0:
256,192,48904,1,8,0:0:0:0:
256,192,49040,1,0,0:0:0:0:
256,192,49176,1,8,0:0:0:0:
256,192,49449,1,8,0:0:0:0:
256,192,49722,1,0,0:0:0:0:
256,192,49858,1,8,0:0:0:0:
256,192,49995,1,8,0:0:0:0:
256,192,50131,1,0,0:0:0:0:
256,192,50404,1,0,0:0:0:0:
256,192,50540,1,8,0:0:0:0:
256,192,50676,1,0,0:0:0:0:
256,192,50745,1,0,0:0:0:0:
256,192,50813,1,8,0:0:0:0:
256,192,50949,1,0,0:0:0:0:
256,192,51086,1,8,0:0:0:0:
256,192,51222,1,8,0:0:0:0:
256,192,51358,1,0,0:0:0:0:
256,192,51631,1,0,0:0:0:0:
256,192,51767,1,8,0:0:0:0:
256,192,51904,1,8,0:0:0:0:
256,192,52040,1,0,0:0:0:0:
256,192,52108,1,0,0:0:0:0:
256,192,52176,1,8,0:0:0:0:
256,192,52313,1,0,0:0:0:0:
256,192,52586,1,0,0:0:0:0:
256,192,52722,1,8,0:0:0:0:
256,192,52858,1,8,0:0:0:0:
256,192,52926,1,8,0:0:0:0:
256,192,52995,1,0,0:0:0:0:
256,192,53131,1,0,0:0:0:0:
256,192,53267,1,8,0:0:0:0:
256,192,53540,1,4,0:0:0:0:
256,192,54086,1,4,0:0:0:0:
256,192,54631,1,12,0:0:0:0:
256,192,54813,1,4,0:0:0:0:
256,192,54995,1,4,0:0:0:0:
256,192,55176,1,12,0:0:0:0:
256,192,55722,1,4,0:0:0:0:
256,192,55995,1,8,0:0:0:0:
256,192,56131,1,0,0:0:0:0:
256,192,56267,1,8,0:0:0:0:
256,192,56336,1,8,0:0:0:0:
256,192,56404,1,0,0:0:0:0:
256,192,56472,1,0,0:0:0:0:
256,192,56540,1,8,0:0:0:0:
256,192,56676,1,0,0:0:0:0:
256,192,56745,1,0,0:0:0:0:
256,192,56813,1,8,0:0:0:0:
256,192,56949,1,0,0:0:0:0:
256,192,57086,1,8,0:0:0:0:
256,192,57154,1,8,0:0:0:0:
256,192,57222,1,0,0:0:0:0:
256,192,57358,1,0,0:0:0:0:
256,192,57426,1,8,0:0:0:0:
256,192,57495,1,0,0:0:0:0:
256,192,57563,1,0,0:0:0:0:
256,192,57631,1,8,0:0:0:0:
256,192,57767,1,0,0:0:0:0:
256,192,57904,1,8,0:0:0:0:
256,192,57972,1,0,0:0:0:0:
256,192,58040,1,0,0:0:0:0:
256,192,58176,1,8,0:0:0:0:
256,192,58245,1,0,0:0:0:0:
256,192,58313,1,8,0:0:0:0:
256,192,58381,1,8,0:0:0:0:
256,192,58449,1,0,0:0:0:0:
256,192,58586,1,0,0:0:0:0:
256,192,58654,1,0,0:0:0:0:
256,192,58722,1,8,0:0:0:0:
256,192,58858,1,0,0:0:0:0:
256,192,58926,1,0,0:0:0:0:
256,192,58995,1,8,0:0:0:0:
256,192,59063,1,8,0:0:0:0:
256,192,59131,1,0,0:0:0:0:
256,192,59267,1,8,0:0:0:0:
256,192,59404,1,0,0:0:0:0:
256,192,59472,1,0,0:0:0:0:
256,192,59540,1,8,0:0:0:0:
256,192,59676,1,0,0:0:0:0:
256,192,59813,1,8,0:0:0:0:
256,192,59881,1,0,0:0:0:0:
256,192,59949,1,8,0:0:0:0:
256,192,60086,1,0,0:0:0:0:
256,192,60358,1,8,0:0:0:0:
256,192,60495,1,0,0:0:0:0:
256,192,60631,1,8,0:0:0:0:
256,192,60699,1,8,0:0:0:0:
256,192,60767,1,0,0:0:0:0:
256,192,60836,1,0,0:0:0:0:
256,192,60904,1,8,0:0:0:0:
256,192,61040,1,0,0:0:0:0:
256,192,61108,1,0,0:0:0:0:
256,192,61176,1,8,0:0:0:0:
256,192,61313,1,0,0:0:0:0:
256,192,61449,1,8,0:0:0:0:
256,192,61517,1,8,0:0:0:0:
256,192,61586,1,0,0:0:0:0:
256,192,61722,1,0,0:0:0:0:
256,192,61790,1,0,0:0:0:0:
256,192,61858,1,8,0:0:0:0:
256,192,61926,1,0,0:0:0:0:
256,192,61995,1,8,0:0:0:0:
256,192,62131,1,0,0:0:0:0:
256,192,62267,1,8,0:0:0:0:
256,192,62336,1,0,0:0:0:0:
256,192,62404,1,0,0:0:0:0:
256,192,62540,1,8,0:0:0:0:
256,192,62608,1,0,0:0:0:0:
256,192,62676,1,8,0:0:0:0:
256,192,62745,1,8,0:0:0:0:
256,192,62813,1,0,0:0:0:0:
256,192,62949,1,0,0:0:0:0:
256,192,63017,1,0,0:0:0:0:
256,192,63086,1,8,0:0:0:0:
256,192,63222,1,4,0:0:0:0:
256,192,63495,1,0,0:0:0:0:
256,192,63631,1,8,0:0:0:0:
256,192,63699,1,8,0:0:0:0:
256,192,63767,1,0,0:0:0:0:
256,192,63836,1,0,0:0:0:0:
256,192,63904,1,8,0:0:0:0:
256,192,63972,1,0,0:0:0:0:
256,192,64040,1,8,0:0:0:0:
256,192,64176,1,0,0:0:0:0:
256,192,64449,1,4,0:0:0:0:
256,192,64722,1,8,0:0:0:0:
256,192,64858,1,0,0:0:0:0:
256,192,64995,1,8,0:0:0:0:
256,192,65063,1,8,0:0:0:0:
256,192,65131,1,0,0:0:0:0:
256,192,65199,1,0,0:0:0:0:
256,192,65267,1,8,0:0:0:0:
256,192,65404,1,0,0:0:0:0:
256,192,65472,1,0,0:0:0:0:
256,192,65540,1,8,0:0:0:0:
256,192,65676,1,0,0:0:0:0:
256,192,65813,1,8,0:0:0:0:
256,192,65881,1,8,0:0:0:0:
256,192,65949,1,0,0:0:0:0:
256,192,66086,1,8,0:0:0:0:
256,192,66154,1,0,0:0:0:0:
256,192,66222,1,0,0:0:0:0:
256,192,66290,1,0,0:0:0:0:
256,192,66358,1,8,0:0:0:0:
256,192,66495,1,0,0:0:0:0:
256,192,66631,1,8,0:0:0:0:
256,192,66699,1,0,0:0:0:0:
256,192,66767,1,0,0:0:0:0:
256,192,66904,1,8,0:0:0:0:
256,192,66972,1,0,0:0:0:0:
256,192,67040,1,8,0:0:0:0:
256,192,67108,1,8,0:0:0:0:
256,192,67176,1,0,0:0:0:0:
256,192,67313,1,0,0:0:0:0:
256,192,67381,1,0,0:0:0:0:
256,192,67449,1,8,0:0:0:0:
256,192,67586,1,8,0:0:0:0:
256,192,67654,1,8,0:0:0:0:
256,192,67722,1,0,0:0:0:0:
256,192,67790,1,0,0:0:0:0:
256,192,67858,1,0,0:0:0:0:
256,192,67995,1,8,0:0:0:0:
256,192,68131,1,0,0:0:0:0:
256,192,68199,1,0,0:0:0:0:
256,192,68267,1,8,0:0:0:0:
256,192,68404,1,0,0:0:0:0:
256,192,68540,1,8,0:0:0:0:
256,192,68608,1,0,0:0:0:0:
256,192,68676,1,8,0:0:0:0:
256,192,68813,1,0,0:0:0:0:
256,192,69086,1,8,0:0:0:0:
256,192,69154,1,8,0:0:0:0:
256,192,69222,1,0,0:0:0:0:
256,192,69290,1,0,0:0:0:0:
256,192,69358,1,0,0:0:0:0:
256,192,69495,1,8,0:0:0:0:
256,192,69563,1,0,0:0:0:0:
256,192,69631,1,8,0:0:0:0:
256,192,69767,1,0,0:0:0:0:
256,192,69836,1,0,0:0:0:0:
256,192,69904,1,8,0:0:0:0:
256,192,69972,1,8,0:0:0:0:
256,192,70040,1,0,0:0:0:0:
256,192,70176,1,8,0:0:0:0:
256,192,70313,1,0,0:0:0:0:
256,192,70381,1,0,0:0:0:0:
256,192,70449,1,8,0:0:0:0:
256,192,70586,1,0,0:0:0:0:
256,192,70722,1,8,0:0:0:0:
256,192,70790,1,8,0:0:0:0:
256,192,70858,1,0,0:0:0:0:
256,192,70995,1,8,0:0:0:0:
256,192,71063,1,8,0:0:0:0:
256,192,71131,1,0,0:0:0:0:
256,192,71199,1,0,0:0:0:0:
256,192,71267,1,8,0:0:0:0:
256,192,71404,1,0,0:0:0:0:
256,192,71540,1,0,0:0:0:0:
256,192,71608,1,8,0:0:0:0:
256,192,71676,1,0,0:0:0:0:
256,192,71745,1,0,0:0:0:0:
256,192,71813,1,8,0:0:0:0:
256,192,71949,1,0,0:0:0:0:
256,192,72086,1,8,0:0:0:0:
256,192,72154,1,8,0:0:0:0:
256,192,72222,1,0,0:0:0:0:
256,192,72290,1,0,0:0:0:0:
256,192,72358,1,8,0:0:0:0:
256,192,72495,1,0,0:0:0:0:
256,192,72631,1,8,0:0:0:0:
256,192,72699,1,8,0:0:0:0:
256,192,72767,1,0,0:0:0:0:
256,192,72904,1,8,0:0:0:0:
256,192,73040,1,8,0:0:0:0:
256,192,73176,1,4,0:0:0:0:
256,192,73449,1,8,0:0:0:0:
256,192,73517,1,0,0:0:0:0:
256,192,73586,1,8,0:0:0:0:
256,192,73654,1,8,0:0:0:0:
256,192,73722,1,0,0:0:0:0:
256,192,73858,1,0,0:0:0:0:
256,192,73926,1,0,0:0:0:0:
256,192,73995,1,8,0:0:0:0:
256,192,74131,1,8,0:0:0:0:
256,192,74199,1,0,0:0:0:0:
256,192,74267,1,0,0:0:0:0:
256,192,74404,1,0,0:0:0:0:
256,192,74540,1,8,0:0:0:0:
256,192,74608,1,8,0:0:0:0:
256,192,74676,1,0,0:0:0:0:
256,192,74813,1,8,0:0:0:0:
256,192,74881,1,8,0:0:0:0:
256,192,74949,1,0,0:0:0:0:
256,192,75017,1,0,0:0:0:0:
256,192,75086,1,8,0:0:0:0:
256,192,75222,1,8,0:0:0:0:
256,192,75358,1,4,0:0:0:0:
256,192,75631,1,8,0:0:0:0:
256,192,75767,1,0,0:0:0:0:
256,192,75904,1,12,0:0:0:0:
256,192,76176,1,8,0:0:0:0:
256,192,76313,1,8,0:0:0:0:
256,192,76449,1,4,0:0:0:0:
256,192,76722,1,8,0:0:0:0:
256,192,76858,1,8,0:0:0:0:
256,192,76995,1,4,0:0:0:0:
256,192,77267,1,8,0:0:0:0:
256,192,77540,1,4,0:0:0:0:
256,192,77813,1,8,0:0:0:0:
256,192,78086,1,0,0:0:0:0:
256,192,78222,1,0,0:0:0:0:
256,192,78290,1,0,0:0:0:0:
256,192,78358,1,8,0:0:0:0:
256,192,78495,1,0,0:0:0:0:
256,192,78767,1,0,0:0:0:0:
256,192,78904,1,8,0:0:0:0:
256,192,79176,1,0,0:0:0:0:
256,192,79449,1,8,0:0:0:0:
256,192,79586,1,8,0:0:0:0:
256,192,79654,1,0,0:0:0:0:
256,192,79722,1,8,0:0:0:0:
256,192,79858,1,0,0:0:0:0:
256,192,79995,1,8,0:0:0:0:
256,192,80131,1,0,0:0:0:0:
256,192,80199,1,0,0:0:0:0:
256,192,80267,1,8,0:0:0:0:
256,192,80404,1,0,0:0:0:0:
256,192,80540,1,8,0:0:0:0:
256,192,80676,1,0,0:0:0:0:
256,192,80949,1,0,0:0:0:0:
256,192,81086,1,8,0:0:0:0:
256,192,81154,1,8,0:0:0:0:
256,192,81222,1,0,0:0:0:0:
256,192,81358,1,8,0:0:0:0:
256,192,81426,1,8,0:0:0:0:
256,192,81495,1,0,0:0:0:0:
256,192,81563,1,0,0:0:0:0:
256,192,81631,1,8,0:0:0:0:
256,192,81767,1,8,0:0:0:0:
256,192,81904,1,0,0:0:0:0:
256,192,82176,1,8,0:0:0:0:
256,192,82449,1,0,0:0:0:0:
256,192,82586,1,0,0:0:0:0:
256,192,82654,1,0,0:0:0:0:
256,192,82722,1,8,0:0:0:0:
256,192,82858,1,0,0:0:0:0:
256,192,83131,1,0,0:0:0:0:
256,192,83267,1,8,0:0:0:0:
256,192,83540,1,0,0:0:0:0:
256,192,83813,1,8,0:0:0:0:
256,192,83949,1,8,0:0:0:0:
256,192,84017,1,0,0:0:0:0:
256,192,84086,1,8,0:0:0:0:
256,192,84222,1,0,0:0:0:0:
256,192,84358,1,8,0:0:0:0:
256,192,84495,1,8,0:0:0:0:
256,192,84563,1,0,0:0:0:0:
256,192,84631,1,0,0:0:0:0:
256,192,84767,1,8,0:0:0:0:
256,192,84904,1,0,0:0:0:0:
256,192,85040,1,8,0:0:0:0:
256,192,85313,1,8,0:0:0:0:
256,192,85449,1,8,0:0:0:0:
256,192,85586,1,0,0:0:0:0:
256,192,85722,1,0,0:0:0:0:
256,192,85790,1,8,0:0:0:0:
256,192,85858,1,0,0:0:0:0:
256,192,85926,1,0,0:0:0:0:
256,192,85995,1,8,0:0:0:0:
256,192,86131,1,8,0:0:0:0:
256,192,86267,1,0,0:0:0:0:
256,192,86540,1,8,0:0:0:0:
256,192,86813,1,0,0:0:0:0:
256,192,86949,1,0,0:0:0:0:
256,192,87017,1,0,0:0:0:0:
256,192,87086,1,8,0:0:0:0:
256,192,87222,1,0,0:0:0:0:
256,192,87495,1,0,0:0:0:0:
256,192,87631,1,8,0:0:0:0:
256,192,87904,1,0,0:0:0:0:
256,192,88176,1,8,0:0:0:0:
256,192,88313,1,8,0:0:0:0:
256,192,88381,1,0,0:0:0:0:
256,192,88449,1,8,0:0:0:0:
256,192,88586,1,0,0:0:0:0:
256,192,88722,1,8,0:0:0:0:
256,192,88858,1,0,0:0:0:0:
256,192,88926,1,0,0:0:0:0:
256,192,88995,1,8,0:0:0:0:
256,192,89131,1,0,0:0:0:0:
256,192,89267,1,8,0:0:0:0:
256,192,89404,1,0,0:0:0:0:
256,192,89676,1,0,0:0:0:0:
256,192,89813,1,8,0:0:0:0:
256,192,89881,1,8,0:0:0:0:
256,192,89949,1,0,0:0:0:0:
256,192,90086,1,8,0:0:0:0:
256,192,90154,1,8,0:0:0:0:
256,192,90222,1,0,0:0:0:0:
256,192,90290,1,0,0:0:0:0:
256,192,90358,1,8,0:0:0:0:
256,192,90495,1,8,0:0:0:0:
256,192,90631,1,0,0:0:0:0:
256,192,90904,1,8,0:0:0:0:
256,192,91176,1,0,0:0:0:0:
256,192,91313,1,0,0:0:0:0:
256,192,91381,1,0,0:0:0:0:
256,192,91449,1,8,0:0:0:0:
256,192,91586,1,0,0:0:0:0:
256,192,91858,1,0,0:0:0:0:
256,192,91995,1,8,0:0:0:0:
256,192,92267,1,0,0:0:0:0:
256,192,92540,1,8,0:0:0:0:
256,192,92676,1,8,0:0:0:0:
256,192,92745,1,0,0:0:0:0:
256,192,92813,1,8,0:0:0:0:
256,192,92949,1,0,0:0:0:0:
256,192,93086,1,8,0:0:0:0:
256,192,93222,1,8,0:0:0:0:
256,192,93290,1,8,0:0:0:0:
256,192,93358,1,0,0:0:0:0:
256,192,93495,1,0,0:0:0:0:
256,192,93631,1,8,0:0:0:0:
256,192,93767,1,4,0:0:0:0:
256,192,94040,1,8,0:0:0:0:
256,192,94176,1,8,0:0:0:0:
256,192,94313,1,0,0:0:0:0:
256,192,94449,1,8,0:0:0:0:
256,192,94517,1,0,0:0:0:0:
256,192,94586,1,8,0:0:0:0:
256,192,94654,1,0,0:0:0:0:
256,192,94722,1,8,0:0:0:0:
256,192,94858,1,8,0:0:0:0:
256,192,94995,1,4,0:0:0:0:
256,192,95540,1,0,0:0:0:0:
256,192,95676,1,8,0:0:0:0:
256,192,95949,1,8,0:0:0:0:
256,192,96358,1,0,0:0:0:0:
256,192,96631,1,8,0:0:0:0:
256,192,96904,1,8,0:0:0:0:
256,192,97040,1,8,0:0:0:0:
256,192,97176,1,0,0:0:0:0:
256,192,97722,1,0,0:0:0:0:
256,192,97858,1,0,0:0:0:0:
256,192,98131,1,8,0:0:0:0:
256,192,98540,1,0,0:0:0:0:
256,192,98813,1,8,0:0:0:0:
256,192,98949,1,8,0:0:0:0:
256,192,99086,1,0,0:0:0:0:
256,192,99358,1,4,0:0:0:0:
256,192,99631,1,8,0:0:0:0:
256,192,99904,1,8,0:0:0:0:
256,192,100040,1,0,0:0:0:0:
256,192,100176,1,8,0:0:0:0:
256,192,100313,1,0,0:0:0:0:
256,192,100586,1,0,0:0:0:0:
256,192,100722,1,8,0:0:0:0:
256,192,100858,1,8,0:0:0:0:
256,192,100926,1,8,0:0:0:0:
256,192,100995,1,0,0:0:0:0:
256,192,101131,1,0,0:0:0:0:
256,192,101267,1,8,0:0:0:0:
256,192,101404,1,8,0:0:0:0:
256,192,101540,1,0,0:0:0:0:
256,192,101813,1,8,0:0:0:0:
256,192,101949,1,0,0:0:0:0:
256,192,102017,1,0,0:0:0:0:
256,192,102086,1,8,0:0:0:0:
256,192,102222,1,8,0:0:0:0:
256,192,102358,1,0,0:0:0:0:
256,192,102495,1,8,0:0:0:0:
256,192,102767,1,0,0:0:0:0:
256,192,102904,1,8,0:0:0:0:
256,192,103040,1,8,0:0:0:0:
256,192,103176,1,0,0:0:0:0:
256,192,103313,1,8,0:0:0:0:
256,192,103381,1,8,0:0:0:0:
256,192,103449,1,0,0:0:0:0:
256,192,103586,1,0,0:0:0:0:
256,192,103722,1,12,0:0:0:0:
256,192,104267,1,4,0:0:0:0:
256,192,104404,1,4,0:0:0:0:
256,192,104676,1,12,0:0:0:0:
256,192,104949,1,0,0:0:0:0:
256,192,105086,1,8,0:0:0:0:
256,192,105358,1,0,0:0:0:0:
256,192,105631,1,8,0:0:0:0:
256,192,105767,1,8,0:0:0:0:
256,192,105904,1,0,0:0:0:0:
256,192,106176,1,8,0:0:0:0:
256,192,106449,1,8,0:0:0:0:
256,192,106586,1,8,0:0:0:0:
256,192,106722,1,0,0:0:0:0:
256,192,106858,1,8,0:0:0:0:
256,192,107131,1,0,0:0:0:0:
256,192,107267,1,8,0:0:0:0:
256,192,107404,1,0,0:0:0:0:
256,192,107540,1,8,0:0:0:0:
256,192,107676,1,8,0:0:0:0:
256,192,107813,1,0,0:0:0:0:
256,192,108086,1,0,0:0:0:0:
256,192,108358,1,8,0:0:0:0:
256,192,108631,1,8,0:0:0:0:
256,192,108767,1,0,0:0:0:0:
256,192,108904,1,8,0:0:0:0:
256,192,109040,1,0,0:0:0:0:
256,192,109313,1,0,0:0:0:0:
256,192,109449,1,8,0:0:0:0:
256,192,109586,1,8,0:0:0:0:
256,192,109654,1,8,0:0:0:0:
256,192,109722,1,0,0:0:0:0:
256,192,109858,1,0,0:0:0:0:
256,192,109995,1,8,0:0:0:0:
256,192,110267,1,0,0:0:0:0:
256,192,110540,1,8,0:0:0:0:
256,192,110676,1,0,0:0:0:0:
256,192,110813,1,8,0:0:0:0:
256,192,110881,1,8,0:0:0:0:
256,192,110949,1,0,0:0:0:0:
256,192,111086,1,8,0:0:0:0:
256,192,111222,1,4,0:0:0:0:
256,192,111495,1,0,0:0:0:0:
256,192,111631,1,8,0:0:0:0:
256,192,111767,1,8,0:0:0:0:
256,192,111904,1,0,0:0:0:0:
256,192,111972,1,0,0:0:0:0:
256,192,112040,1,8,0:0:0:0:
256,192,112108,1,0,0:0:0:0:
256,192,112176,1,8,0:0:0:0:
256,192,112313,1,0,0:0:0:0:
256,192,112449,1,12,0:0:0:0:
256,192,112722,1,8,0:0:0:0:
256,192,112995,1,0,0:0:0:0:
256,192,113131,1,0,0:0:0:0:
256,192,113267,1,8,0:0:0:0:
256,192,113404,1,0,0:0:0:0:
256,192,113676,1,0,0:0:0:0:
256,192,113813,1,8,0:0:0:0:
256,192,114086,1,0,0:0:0:0:
256,192,114222,1,0,0:0:0:0:
256,192,114290,1,0,0:0:0:0:
256,192,114358,1,8,0:0:0:0:
256,192,114495,1,8,0:0:0:0:
256,192,114631,1,0,0:0:0:0:
256,192,114904,1,8,0:0:0:0:
256,192,115040,1,8,0:0:0:0:
256,192,115108,1,8,0:0:0:0:
256,192,115176,1,0,0:0:0:0:
256,192,115313,1,8,0:0:0:0:
256,192,115449,1,8,0:0:0:0:
256,192,115586,1,0,0:0:0:0:
256,192,115858,1,0,0:0:0:0:
256,192,115995,1,8,0:0:0:0:
256,192,116131,1,0,0:0:0:0:
256,192,116199,1,0,0:0:0:0:
256,192,116267,1,8,0:0:0:0:
256,192,116404,1,0,0:0:0:0:
256,192,116540,1,8,0:0:0:0:
256,192,116676,1,8,0:0:0:0:
256,192,116813,1,0,0:0:0:0:
256,192,117086,1,8,0:0:0:0:
256,192,117222,1,0,0:0:0:0:
256,192,117358,1,0,0:0:0:0:
256,192,117495,1,8,0:0:0:0:
256,192,117631,1,0,0:0:0:0:
256,192,117767,1,8,0:0:0:0:
256,192,118040,1,8,0:0:0:0:
256,192,118176,1,8,0:0:0:0:
256,192,118313,1,0,0:0:0:0:
256,192,118449,1,8,0:0:0:0:
256,192,118517,1,8,0:0:0:0:
256,192,118586,1,0,0:0:0:0:
256,192,118654,1,0,0:0:0:0:
256,192,118722,1,8,0:0:0:0:
256,192,118858,1,8,0:0:0:0:
256,192,118995,1,4,0:0:0:0:
256,192,119267,1,8,0:0:0:0:
256,192,119540,1,4,0:0:0:0:
256,192,119813,1,0,0:0:0:0:
256,192,119949,1,12,0:0:0:0:
256,192,120222,1,0,0:0:0:0:
256,192,120358,1,8,0:0:0:0:
256,192,120495,1,0,0:0:0:0:
256,192,120563,1,0,0:0:0:0:
256,192,120631,1,8,0:0:0:0:
256,192,120767,1,0,0:0:0:0:
256,192,120904,1,8,0:0:0:0:
256,192,121176,1,12,0:0:0:0:
256,192,121449,1,8,0:0:0:0:
256,192,121722,1,0,0:0:0:0:
256,192,121858,1,0,0:0:0:0:
256,192,121995,1,8,0:0:0:0:
256,192,122131,1,0,0:0:0:0:
256,192,122404,1,0,0:0:0:0:
256,192,122540,1,8,0:0:0:0:
256,192,122676,1,8,0:0:0:0:
256,192,122745,1,8,0:0:0:0:
256,192,122813,1,0,0:0:0:0:
256,192,122949,1,0,0:0:0:0:
256,192,123086,1,8,0:0:0:0:
256,192,123222,1,0,0:0:0:0:
256,192,123358,1,8,0:0:0:0:
256,192,123631,1,8,0:0:0:0:
256,192,123904,1,0,0:0:0:0:
256,192,124040,1,8,0:0:0:0:
256,192,124176,1,8,0:0:0:0:
256,192,124313,1,0,0:0:0:0:
256,192,124586,1,0,0:0:0:0:
256,192,124722,1,8,0:0:0:0:
256,192,124858,1,0,0:0:0:0:
256,192,124926,1,0,0:0:0:0:
256,192,124995,1,8,0:0:0:0:
256,192,125131,1,0,0:0:0:0:
256,192,125267,1,8,0:0:0:0:
256,192,125404,1,8,0:0:0:0:
256,192,125540,1,0,0:0:0:0:
256,192,125813,1,0,0:0:0:0:
256,192,125949,1,8,0:0:0:0:
256,192,126086,1,8,0:0:0:0:
256,192,126222,1,0,0:0:0:0:
256,192,126290,1,0,0:0:0:0:
256,192,126358,1,8,0:0:0:0:
256,192,126495,1,0,0:0:0:0:
256,192,126767,1,0,0:0:0:0:
256,192,126904,1,8,0:0:0:0:
256,192,127040,1,8,0:0:0:0:
256,192,127108,1,8,0:0:0:0:
256,192,127176,1,0,0:0:0:0:
256,192,127313,1,0,0:0:0:0:
256,192,127449,1,8,0:0:0:0:
256,192,127722,1,4,0:0:0:0:
256,192,127995,1,8,0:0:0:0:
256,192,128131,1,0,0:0:0:0:
256,192,128199,1,0,0:0:0:0:
256,192,128267,1,8,0:0:0:0:
256,192,128404,1,8,0:0:0:0:
256,192,128540,1,8,0:0:0:0:
256,192,128676,1,8,0:0:0:0:
256,192,128813,1,4,0:0:0:0:
256,192,129358,1,0,0:0:0:0:
256,192,129904,1,4,0:0:0:0:
256,192,130267,1,4,0:0:0:0:
256,192,130995,1,4,0:0:0:0:
256,192,131176,1,4,0:0:0:0:
256,192,131358,1,4,0:0:0:0:
256,192,131540,1,4,0:0:0:0:
256,192,132086,1,4,0:0:0:0:
256,192,132267,1,4,0:0:0:0:
256,192,132449,1,4,0:0:0:0:
256,192,132631,1,4,0:0:0:0:
256,192,132813,1,4,0:0:0:0:
256,192,132995,1,4,0:0:0:0:
256,192,133176,1,4,0:0:0:0:
256,192,133540,1,12,0:0:0:0:
256,192,133904,1,12,0:0:0:0:
256,192,134267,1,4,0:0:0:0:
256,192,134631,1,4,0:0:0:0:
256,192,135358,1,4,0:0:0:0:
256,192,135540,1,4,0:0:0:0:
256,192,135722,1,4,0:0:0:0:
256,192,135904,1,4,0:0:0:0:
256,192,136449,1,4,0:0:0:0:
256,192,136631,1,4,0:0:0:0:
256,192,136813,1,4,0:0:0:0:
256,192,136995,1,4,0:0:0:0:
256,192,137176,1,4,0:0:0:0:
256,192,137358,1,4,0:0:0:0:
256,192,137540,1,4,0:0:0:0:
256,192,138086,1,8,0:0:0:0:
256,192,138222,1,8,0:0:0:0:
256,192,138358,1,0,0:0:0:0:
256,192,138426,1,0,0:0:0:0:
256,192,138495,1,8,0:0:0:0:
256,192,138563,1,8,0:0:0:0:
256,192,138631,1,4,0:0:0:0:
256,192,138904,1,8,0:0:0:0:
256,192,139176,1,0,0:0:0:0:
256,192,139313,1,0,0:0:0:0:
256,192,139449,1,8,0:0:0:0:
256,192,139586,1,0,0:0:0:0:
256,192,139654,1,0,0:0:0:0:
256,192,139722,1,8,0:0:0:0:
256,192,139858,1,0,0:0:0:0:
256,192,139995,1,8,0:0:0:0:
256,192,140063,1,0,0:0:0:0:
256,192,140131,1,8,0:0:0:0:
256,192,140199,1,8,0:0:0:0:
256,192,140267,1,0,0:0:0:0:
256,192,140336,1,0,0:0:0:0:
256,192,140404,1,8,0:0:0:0:
256,192,140540,1,8,0:0:0:0:
256,192,140676,1,0,0:0:0:0:
256,192,140745,1,0,0:0:0:0:
256,192,140813,1,8,0:0:0:0:
256,192,140949,1,0,0:0:0:0:
256,192,141017,1,0,0:0:0:0:
256,192,141086,1,8,0:0:0:0:
256,192,141154,1,0,0:0:0:0:
256,192,141222,1,8,0:0:0:0:
256,192,141290,1,8,0:0:0:0:
256,192,141358,1,0,0:0:0:0:
256,192,141495,1,0,0:0:0:0:
256,192,141631,1,8,0:0:0:0:
256,192,141699,1,8,0:0:0:0:
256,192,141767,1,0,0:0:0:0:
256,192,141904,1,8,0:0:0:0:
256,192,142040,1,0,0:0:0:0:
256,192,142108,1,0,0:0:0:0:
256,192,142176,1,8,0:0:0:0:
256,192,142313,1,0,0:0:0:0:
256,192,142381,1,8,0:0:0:0:
256,192,142449,1,0,0:0:0:0:
256,192,142586,1,0,0:0:0:0:
256,192,142722,1,8,0:0:0:0:
256,192,142790,1,0,0:0:0:0:
256,192,142858,1,8,0:0:0:0:
256,192,142995,1,0,0:0:0:0:
256,192,143063,1,8,0:0:0:0:
256,192,143131,1,0,0:0:0:0:
256,192,143199,1,0,0:0:0:0:
256,192,143267,1,8,0:0:0:0:
256,192,143404,1,0,0:0:0:0:
256,192,143540,1,8,0:0:0:0:
256,192,143676,1,8,0:0:0:0:
256,192,143745,1,0,0:0:0:0:
256,192,143813,1,8,0:0:0:0:
256,192,143881,1,8,0:0:0:0:
256,192,143949,1,0,0:0:0:0:
256,192,144017,1,0,0:0:0:0:
256,192,144086,1,8,0:0:0:0:
256,192,144222,1,0,0:0:0:0:
256,192,144290,1,0,0:0:0:0:
256,192,144358,1,8,0:0:0:0:
256,192,144495,1,0,0:0:0:0:
256,192,144631,1,8,0:0:0:0:
256,192,144699,1,8,0:0:0:0:
256,192,144767,1,0,0:0:0:0:
256,192,144836,1,0,0:0:0:0:
256,192,144904,1,8,0:0:0:0:
256,192,145040,1,0,0:0:0:0:
256,192,145176,1,8,0:0:0:0:
256,192,145449,1,8,0:0:0:0:
256,192,145586,1,0,0:0:0:0:
256,192,145654,1,0,0:0:0:0:
256,192,145722,1,8,0:0:0:0:
256,192,145790,1,0,0:0:0:0:
256,192,145858,1,0,0:0:0:0:
256,192,145995,1,8,0:0:0:0:
256,192,146131,1,0,0:0:0:0:
256,192,146199,1,0,0:0:0:0:
256,192,146267,1,8,0:0:0:0:
256,192,146404,1,0,0:0:0:0:
256,192,146472,1,0,0:0:0:0:
256,192,146540,1,8,0:0:0:0:
256,192,146608,1,8,0:0:0:0:
256,192,146676,1,0,0:0:0:0:
256,192,146745,1,8,0:0:0:0:
256,192,146813,1,0,0:0:0:0:
256,192,146949,1,0,0:0:0:0:
256,192,147017,1,0,0:0:0:0:
256,192,147086,1,8,0:0:0:0:
256,192,147222,1,0,0:0:0:0:
256,192,147358,1,8,0:0:0:0:
256,192,147495,1,0,0:0:0:0:
256,192,147563,1,0,0:0:0:0:
256,192,147631,1,8,0:0:0:0:
256,192,147767,1,8,0:0:0:0:
256,192,147904,1,0,0:0:0:0:
256,192,147972,1,0,0:0:0:0:
256,192,148040,1,8,0:0:0:0:
256,192,148108,1,8,0:0:0:0:
256,192,148176,1,0,0:0:0:0:
256,192,148313,1,0,0:0:0:0:
256,192,148381,1,0,0:0:0:0:
256,192,148449,1,8,0:0:0:0:
256,192,148586,1,0,0:0:0:0:
256,192,148722,1,8,0:0:0:0:
256,192,148790,1,0,0:0:0:0:
256,192,148858,1,8,0:0:0:0:
256,192,148926,1,8,0:0:0:0:
256,192,148995,1,0,0:0:0:0:
256,192,149131,1,8,0:0:0:0:
256,192,149199,1,8,0:0:0:0:
256,192,149267,1,0,0:0:0:0:
256,192,149404,1,8,0:0:0:0:
256,192,149472,1,0,0:0:0:0:
256,192,149540,1,0,0:0:0:0:
256,192,149813,1,8,0:0:0:0:
256,192,149949,1,8,0:0:0:0:
256,192,150017,1,8,0:0:0:0:
256,192,150086,1,0,0:0:0:0:
256,192,150222,1,0,0:0:0:0:
256,192,150358,1,8,0:0:0:0:
256,192,150426,1,0,0:0:0:0:
256,192,150495,1,8,0:0:0:0:
256,192,150631,1,0,0:0:0:0:
256,192,150699,1,0,0:0:0:0:
256,192,150767,1,8,0:0:0:0:
256,192,150836,1,0,0:0:0:0:
256,192,150904,1,8,0:0:0:0:
256,192,150972,1,8,0:0:0:0:
256,192,151040,1,0,0:0:0:0:
256,192,151108,1,0,0:0:0:0:
256,192,151176,1,8,0:0:0:0:
256,192,151313,1,0,0:0:0:0:
256,192,151449,1,8,0:0:0:0:
256,192,151722,1,8,0:0:0:0:
256,192,151790,1,0,0:0:0:0:
256,192,151858,1,8,0:0:0:0:
256,192,151926,1,0,0:0:0:0:
256,192,151995,1,8,0:0:0:0:
256,192,152063,1,8,0:0:0:0:
256,192,152131,1,0,0:0:0:0:
256,192,152267,1,8,0:0:0:0:
256,192,152404,1,0,0:0:0:0:
256,192,152472,1,0,0:0:0:0:
256,192,152540,1,8,0:0:0:0:
256,192,152676,1,0,0:0:0:0:
256,192,152813,1,8,0:0:0:0:
256,192,152881,1,8,0:0:0:0:
256,192,152949,1,0,0:0:0:0:
256,192,153017,1,0,0:0:0:0:
256,192,153086,1,8,0:0:0:0:
256,192,153222,1,0,0:0:0:0:
256,192,153358,1,8,0:0:0:0:
256,192,153426,1,0,0:0:0:0:
256,192,153495,1,0,0:0:0:0:
256,192,153563,1,0,0:0:0:0:
256,192,153631,1,8,0:0:0:0:
256,192,153767,1,0,0:0:0:0:
256,192,153904,1,8,0:0:0:0:
256,192,154040,1,0,0:0:0:0:
256,192,154108,1,0,0:0:0:0:
256,192,154176,1,8,0:0:0:0:
256,192,154313,1,0,0:0:0:0:
256,192,154449,1,0,0:0:0:0:
256,192,154517,1,8,0:0:0:0:
256,192,154586,1,0,0:0:0:0:
256,192,154654,1,0,0:0:0:0:
256,192,154722,1,8,0:0:0:0:
256,192,154858,1,0,0:0:0:0:
256,192,154995,1,8,0:0:0:0:
256,192,155063,1,8,0:0:0:0:
256,192,155131,1,0,0:0:0:0:
256,192,155199,1,0,0:0:0:0:
256,192,155267,1,8,0:0:0:0:
256,192,155336,1,0,0:0:0:0:
256,192,155404,1,8,0:0:0:0:
256,192,155472,1,8,0:0:0:0:
256,192,155540,1,0,0:0:0:0:
256,192,155676,1,8,0:0:0:0:
256,192,155813,1,8,0:0:0:0:
256,192,155949,1,8,0:0:0:0:
256,192,156086,1,4,0:0:0:0:
256,192,156495,1,4,0:0:0:0:
256,192,156904,1,4,0:0:0:0:
256,192,157176,1,12,0:0:0:0:
256,192,158267,1,0,0:0:0:0:
256,192,158813,1,8,0:0:0:0:
256,192,159222,1,8,0:0:0:0:
256,192,159631,1,8,0:0:0:0:
256,192,159904,1,0,0:0:0:0:
256,192,160176,1,8,0:0:0:0:
256,192,160449,1,0,0:0:0:0:
256,192,160722,1,8,0:0:0:0:
256,192,160858,1,0,0:0:0:0:
256,192,161131,1,0,0:0:0:0:
256,192,161404,1,0,0:0:0:0:
256,192,161540,1,8,0:0:0:0:
256,192,161813,1,0,0:0:0:0:
256,192,162086,1,8,0:0:0:0:
256,192,162358,1,8,0:0:0:0:
256,192,162495,1,8,0:0:0:0:
256,192,162631,1,0,0:0:0:0:
256,192,163176,1,8,0:0:0:0:
256,192,163586,1,0,0:0:0:0:
256,192,163995,1,0,0:0:0:0:
256,192,164267,1,8,0:0:0:0:
256,192,164540,1,8,0:0:0:0:
256,192,164813,1,0,0:0:0:0:
256,192,165086,1,8,0:0:0:0:
256,192,165222,1,0,0:0:0:0:
256,192,165495,1,8,0:0:0:0:
256,192,165767,1,0,0:0:0:0:
256,192,165904,1,8,0:0:0:0:
256,192,166176,1,0,0:0:0:0:
256,192,166449,1,8,0:0:0:0:
256,192,166586,1,0,0:0:0:0:
256,192,166722,1,8,0:0:0:0:
256,192,166995,1,0,0:0:0:0:
256,192,167540,1,0,0:0:0:0:
256,192,167813,1,8,0:0:0:0:
256,192,167949,1,8,0:0:0:0:
256,192,168086,1,0,0:0:0:0:
256,192,168358,1,8,0:0:0:0:
256,192,168631,1,0,0:0:0:0:
256,192,168904,1,0,0:0:0:0:
256,192,169040,1,8,0:0:0:0:
256,192,169176,1,0,0:0:0:0:
256,192,169449,1,8,0:0:0:0:
256,192,169586,1,8,0:0:0:0:
256,192,169722,1,0,0:0:0:0:
256,192,169858,1,8,0:0:0:0:
256,192,169995,1,0,0:0:0:0:
256,192,170131,1,0,0:0:0:0:
256,192,170267,1,8,0:0:0:0:
256,192,170540,1,8,0:0:0:0:
256,192,170813,1,0,0:0:0:0:
256,192,171086,1,8,0:0:0:0:
256,192,171222,1,8,0:0:0:0:
256,192,171358,1,0,0:0:0:0:
256,192,171631,1,8,0:0:0:0:
256,192,171767,1,0,0:0:0:0:
256,192,171904,1,0,0:0:0:0:
256,192,172040,1,8,0:0:0:0:
256,192,172313,1,8,0:0:0:0:
256,192,172449,1,0,0:0:0:0:
256,192,172722,1,0,0:0:0:0:
256,192,172995,1,0,0:0:0:0:
256,192,173131,1,0,0:0:0:0:
256,192,173267,1,8,0:0:0:0:
256,192,173540,1,8,0:0:0:0:
256,192,174086,1,0,0:0:0:0:
256,192,174631,1,8,0:0:0:0:
256,192,175176,1,0,0:0:0:0:
256,192,175722,1,12,0:0:0:0:
256,192,176267,1,4,0:0:0:0:
256,192,176813,1,12,0:0:0:0:
256,192,176949,1,0,0:0:0:0:
256,192,177154,1,8,0:0:0:0:
256,192,177222,1,8,0:0:0:0:
256,192,177358,1,4,0:0:0:0:
256,192,177495,1,0,0:0:0:0:
256,192,177563,1,0,0:0:0:0:
256,192,177631,1,8,0:0:0:0:
256,192,177767,1,8,0:0:0:0:
256,192,177904,1,0,0:0:0:0:
256,192,178449,1,12,0:0:0:0:
256,192,178858,1,12,0:0:0:0:
256,192,179131,1,0,0:0:0:0:
256,192,179267,1,8,0:0:0:0:
256,192,179336,1,8,0:0:0:0:
256,192,179404,1,0,0:0:0:0:
256,192,179540,1,0,0:0:0:0:
256,192,179608,1,8,0:0:0:0:
256,192,179676,1,0,0:0:0:0:
256,192,179745,1,0,0:0:0:0:
256,192,179813,1,8,0:0:0:0:
256,192,179949,1,0,0:0:0:0:
256,192,180086,1,8,0:0:0:0:
256,192,180154,1,0,0:0:0:0:
256,192,180222,1,0,0:0:0:0:
256,192,180358,1,8,0:0:0:0:
256,192,180426,1,0,0:0:0:0:
256,192,180495,1,8,0:0:0:0:
256,192,180563,1,8,0:0:0:0:
256,192,180631,1,0,0:0:0:0:
256,192,180767,1,0,0:0:0:0:
256,192,180836,1,0,0:0:0:0:
256,192,180904,1,8,0:0:0:0:
256,192,181040,1,0,0:0:0:0:
256,192,181108,1,0,0:0:0:0:
256,192,181176,1,8,0:0:0:0:
256,192,181245,1,8,0:0:0:0:
256,192,181313,1,0,0:0:0:0:
256,192,181381,1,0,0:0:0:0:
256,192,181449,1,8,0:0:0:0:
256,192,181586,1,0,0:0:0:0:
256,192,181654,1,0,0:0:0:0:
256,192,181722,1,8,0:0:0:0:
256,192,181858,1,0,0:0:0:0:
256,192,181995,1,8,0:0:0:0:
256,192,182063,1,0,0:0:0:0:
256,192,182131,1,8,0:0:0:0:
256,192,182267,1,0,0:0:0:0:
256,192,182540,1,8,0:0:0:0:
256,192,182676,1,0,0:0:0:0:
256,192,182813,1,8,0:0:0:0:
256,192,182881,1,8,0:0:0:0:
256,192,182949,1,0,0:0:0:0:
256,192,183017,1,0,0:0:0:0:
256,192,183086,1,8,0:0:0:0:
256,192,183222,1,0,0:0:0:0:
256,192,183290,1,0,0:0:0:0:
256,192,183358,1,8,0:0:0:0:
256,192,183495,1,0,0:0:0:0:
256,192,183631,1,8,0:0:0:0:
256,192,183699,1,8,0:0:0:0:
256,192,183767,1,0,0:0:0:0:
256,192,183904,1,0,0:0:0:0:
256,192,183972,1,0,0:0:0:0:
256,192,184040,1,8,0:0:0:0:
256,192,184108,1,0,0:0:0:0:
256,192,184176,1,8,0:0:0:0:
256,192,184313,1,0,0:0:0:0:
256,192,184449,1,8,0:0:0:0:
256,192,184517,1,0,0:0:0:0:
256,192,184586,1,0,0:0:0:0:
256,192,184722,1,8,0:0:0:0:
256,192,184790,1,0,0:0:0:0:
256,192,184858,1,8,0:0:0:0:
256,192,184926,1,8,0:0:0:0:
256,192,184995,1,0,0:0:0:0:
256,192,185131,1,0,0:0:0:0:
256,192,185199,1,0,0:0:0:0:
256,192,185267,1,8,0:0:0:0:
256,192,185404,1,4,0:0:0:0:
256,192,185676,1,0,0:0:0:0:
256,192,185813,1,8,0:0:0:0:
256,192,185881,1,0,0:0:0:0:
256,192,185949,1,8,0:0:0:0:
256,192,186017,1,0,0:0:0:0:
256,192,186086,1,8,0:0:0:0:
256,192,186154,1,8,0:0:0:0:
256,192,186222,1,0,0:0:0:0:
256,192,186290,1,0,0:0:0:0:
256,192,186358,1,8,0:0:0:0:
256,192,186495,1,8,0:0:0:0:
256,192,186631,1,4,0:0:0:0:
256,192,186904,1,8,0:0:0:0:
256,192,187040,1,0,0:0:0:0:
256,192,187176,1,8,0:0:0:0:
256,192,187245,1,8,0:0:0:0:
256,192,187313,1,0,0:0:0:0:
256,192,187381,1,0,0:0:0:0:
256,192,187449,1,8,0:0:0:0:
256,192,187586,1,0,0:0:0:0:
256,192,187654,1,0,0:0:0:0:
256,192,187722,1,8,0:0:0:0:
256,192,187858,1,0,0:0:0:0:
256,192,187995,1,8,0:0:0:0:
256,192,188063,1,8,0:0:0:0:
256,192,188131,1,0,0:0:0:0:
256,192,188267,1,8,0:0:0:0:
256,192,188336,1,0,0:0:0:0:
256,192,188404,1,0,0:0:0:0:
256,192,188472,1,0,0:0:0:0:
256,192,188540,1,8,0:0:0:0:
256,192,188676,1,0,0:0:0:0:
256,192,188813,1,8,0:0:0:0:
256,192,188881,1,0,0:0:0:0:
256,192,188949,1,0,0:0:0:0:
256,192,189086,1,8,0:0:0:0:
256,192,189154,1,0,0:0:0:0:
256,192,189222,1,8,0:0:0:0:
256,192,189290,1,8,0:0:0:0:
256,192,189358,1,0,0:0:0:0:
256,192,189495,1,0,0:0:0:0:
256,192,189563,1,0,0:0:0:0:
256,192,189631,1,8,0:0:0:0:
256,192,189767,1,8,0:0:0:0:
256,192,189836,1,8,0:0:0:0:
256,192,189904,1,0,0:0:0:0:
256,192,189972,1,0,0:0:0:0:
256,192,190040,1,0,0:0:0:0:
256,192,190108,1,0,0:0:0:0:
256,192,190176,1,8,0:0:0:0:
256,192,190313,1,0,0:0:0:0:
256,192,190381,1,0,0:0:0:0:
256,192,190449,1,8,0:0:0:0:
256,192,190586,1,0,0:0:0:0:
256,192,190722,1,8,0:0:0:0:
256,192,190790,1,0,0:0:0:0:
256,192,190858,1,8,0:0:0:0:
256,192,190995,1,4,0:0:0:0:
256,192,191267,1,8,0:0:0:0:
256,192,191336,1,0,0:0:0:0:
256,192,191404,1,8,0:0:0:0:
256,192,191472,1,8,0:0:0:0:
256,192,191540,1,0,0:0:0:0:
256,192,191676,1,8,0:0:0:0:
256,192,191745,1,0,0:0:0:0:
256,192,191813,1,8,0:0:0:0:
256,192,191949,1,0,0:0:0:0:
256,192,192017,1,0,0:0:0:0:
256,192,192086,1,8,0:0:0:0:
256,192,192154,1,8,0:0:0:0:
256,192,192222,1,0,0:0:0:0:
256,192,192358,1,8,0:0:0:0:
256,192,192495,1,0,0:0:0:0:
256,192,192563,1,0,0:0:0:0:
256,192,192631,1,8,0:0:0:0:
256,192,192767,1,0,0:0:0:0:
256,192,192904,1,8,0:0:0:0:
256,192,192972,1,8,0:0:0:0:
256,192,193040,1,0,0:0:0:0:
256,192,193176,1,8,0:0:0:0:
256,192,193245,1,8,0:0:0:0:
256,192,193313,1,0,0:0:0:0:
256,192,193381,1,0,0:0:0:0:
256,192,193449,1,8,0:0:0:0:
256,192,193586,1,0,0:0:0:0:
256,192,193722,1,0,0:0:0:0:
256,192,193790,1,8,0:0:0:0:
256,192,193858,1,0,0:0:0:0:
256,192,193926,1,0,0:0:0:0:
256,192,193995,1,8,0:0:0:0:
256,192,194131,1,0,0:0:0:0:
256,192,194267,1,8,0:0:0:0:
256,192,194336,1,8,0:0:0:0:
256,192,194404,1,0,0:0:0:0:
256,192,194472,1,8,0:0:0:0:
256,192,194540,1,0,0:0:0:0:
256,192,194676,1,0,0:0:0:0:
256,192,194813,1,8,0:0:0:0:
256,192,194881,1,8,0:0:0:0:
256,192,194949,1,0,0:0:0:0:
256,192,195017,1,0,0:0:0:0:
256,192,195086,1,8,0:0:0:0:
256,192,195222,1,8,0:0:0:0:
256,192,195358,1,4,0:0:0:0:
256,192,195631,1,8,0:0:0:0:
256,192,195699,1,0,0:0:0:0:
256,192,195767,1,8,0:0:0:0:
256,192,195836,1,8,0:0:0:0:
256,192,195904,1,0,0:0:0:0:
256,192,196040,1,0,0:0:0:0:
256,192,196108,1,0,0:0:0:0:
256,192,196176,1,8,0:0:0:0:
256,192,196313,1,4,0:0:0:0:
256,192,196586,1,0,0:0:0:0:
256,192,196722,1,8,0:0:0:0:
256,192,196790,1,8,0:0:0:0:
256,192,196858,1,0,0:0:0:0:
256,192,196926,1,0,0:0:0:0:
256,192,196995,1,8,0:0:0:0:
256,192,197063,1,0,0:0:0:0:
256,192,197131,1,0,0:0:0:0:
256,192,197199,1,0,0:0:0:0:
256,192,197267,1,8,0:0:0:0:
256,192,197404,1,8,0:0:0:0:
256,192,197540,1,4,0:0:0:0:
256,192,197813,1,8,0:0:0:0:
256,192,197949,1,0,0:0:0:0:
256,192,198086,1,12,0:0:0:0:
256,192,198358,1,8,0:0:0:0:
256,192,198495,1,8,0:0:0:0:
256,192,198631,1,4,0:0:0:0:
256,192,198904,1,8,0:0:0:0:
256,192,199040,1,8,0:0:0:0:
256,192,199176,1,4,0:0:0:0:
256,192,199313,1,8,0:0:0:0:
256,192,199449,1,8,0:0:0:0:
256,192,199586,1,8,0:0:0:0:
256,192,199722,1,4,0:0:0:0:
256,192,199995,1,8,0:0:0:0:
256,192,200131,1,0,0:0:0:0:
256,192,200199,1,0,0:0:0:0:
256,192,200267,1,8,0:0:0:0:
256,192,200336,1,8,0:0:0:0:
256,192,200404,1,0,0:0:0:0:
256,192,200540,1,8,0:0:0:0:
256,192,200676,1,0,0:0:0:0:
256,192,200745,1,0,0:0:0:0:
256,192,200813,1,8,0:0:0:0:
256,192,200949,1,0,0:0:0:0:
256,192,201086,1,8,0:0:0:0:
256,192,201358,1,8,0:0:0:0:
256,192,201426,1,8,0:0:0:0:
256,192,201495,1,0,0:0:0:0:
256,192,201563,1,0,0:0:0:0:
256,192,201631,1,8,0:0:0:0:
256,192,201699,1,0,0:0:0:0:
256,192,201767,1,8,0:0:0:0:
256,192,201836,1,8,0:0:0:0:
256,192,201904,1,0,0:0:0:0:
256,192,202040,1,0,0:0:0:0:
256,192,202176,1,8,0:0:0:0:
256,192,202245,1,0,0:0:0:0:
256,192,202313,1,8,0:0:0:0:
256,192,202381,1,8,0:0:0:0:
256,192,202449,1,0,0:0:0:0:
256,192,202586,1,8,0:0:0:0:
256,192,202654,1,8,0:0:0:0:
256,192,202722,1,0,0:0:0:0:
256,192,202858,1,8,0:0:0:0:
256,192,203131,1,0,0:0:0:0:
256,192,203267,1,8,0:0:0:0:
256,192,203404,1,0,0:0:0:0:
256,192,203472,1,0,0:0:0:0:
256,192,203540,1,8,0:0:0:0:
256,192,203676,1,0,0:0:0:0:
256,192,203813,1,8,0:0:0:0:
256,192,203881,1,8,0:0:0:0:
256,192,203949,1,0,0:0:0:0:
256,192,204017,1,0,0:0:0:0:
256,192,204086,1,8,0:0:0:0:
256,192,204358,1,8,0:0:0:0:
256,192,204495,1,0,0:0:0:0:
256,192,204631,1,8,0:0:0:0:
256,192,204699,1,0,0:0:0:0:
256,192,204767,1,8,0:0:0:0:
256,192,204836,1,8,0:0:0:0:
256,192,204904,1,0,0:0:0:0:
256,192,205040,1,8,0:0:0:0:
256,192,205108,1,0,0:0:0:0:
256,192,205176,1,0,0:0:0:0:
256,192,205313,1,0,0:0:0:0:
256,192,205449,1,8,0:0:0:0:
256,192,205722,1,8,0:0:0:0:
256,192,205790,1,8,0:0:0:0:
256,192,205858,1,0,0:0:0:0:
248,192,205926,1,0,0:0:0:0:
256,192,205995,1,8,0:0:0:0:
256,192,206063,1,0,0:0:0:0:
256,192,206131,1,8,0:0:0:0:
256,192,206199,1,8,0:0:0:0:
256,192,206267,1,0,0:0:0:0:
256,192,206404,1,0,0:0:0:0:
256,192,206540,1,8,0:0:0:0:
256,192,206608,1,0,0:0:0:0:
256,192,206676,1,8,0:0:0:0:
256,192,206745,1,8,0:0:0:0:
256,192,206813,1,0,0:0:0:0:
256,192,206949,1,8,0:0:0:0:
256,192,207017,1,8,0:0:0:0:
256,192,207086,1,0,0:0:0:0:
256,192,207222,1,12,0:0:0:0:
256,192,207495,1,0,0:0:0:0:
256,192,207563,1,0,0:0:0:0:
256,192,207631,1,8,0:0:0:0:
256,192,207767,1,8,0:0:0:0:
256,192,207904,1,0,0:0:0:0:
256,192,207972,1,8,0:0:0:0:
256,192,208040,1,0,0:0:0:0:
256,192,208108,1,0,0:0:0:0:
256,192,208176,1,8,0:0:0:0:
256,192,208449,1,4,0:0:0:0:
256,192,208722,1,8,0:0:0:0:
256,192,208858,1,0,0:0:0:0:
256,192,208926,1,0,0:0:0:0:
256,192,208995,1,8,0:0:0:0:
256,192,209063,1,8,0:0:0:0:
256,192,209131,1,0,0:0:0:0:
256,192,209267,1,8,0:0:0:0:
256,192,209404,1,0,0:0:0:0:
256,192,209472,1,0,0:0:0:0:
256,192,209540,1,8,0:0:0:0:
256,192,209676,1,0,0:0:0:0:
256,192,209813,1,8,0:0:0:0:
256,192,210086,1,8,0:0:0:0:
256,192,210154,1,8,0:0:0:0:
256,192,210222,1,0,0:0:0:0:
256,192,210290,1,0,0:0:0:0:
256,192,210358,1,8,0:0:0:0:
256,192,210426,1,0,0:0:0:0:
256,192,210495,1,8,0:0:0:0:
256,192,210563,1,8,0:0:0:0:
256,192,210631,1,0,0:0:0:0:
256,192,210767,1,0,0:0:0:0:
256,192,210904,1,8,0:0:0:0:
256,192,210972,1,8,0:0:0:0:
256,192,211040,1,0,0:0:0:0:
256,192,211108,1,0,0:0:0:0:
256,192,211176,1,0,0:0:0:0:
256,192,211313,1,8,0:0:0:0:
256,192,211381,1,8,0:0:0:0:
256,192,211449,1,0,0:0:0:0:
256,192,211586,1,8,0:0:0:0:
256,192,211858,1,0,0:0:0:0:
256,192,211995,1,8,0:0:0:0:
256,192,212131,1,0,0:0:0:0:
256,192,212199,1,0,0:0:0:0:
256,192,212267,1,8,0:0:0:0:
256,192,212404,1,0,0:0:0:0:
256,192,212540,1,8,0:0:0:0:
256,192,212608,1,8,0:0:0:0:
256,192,212676,1,0,0:0:0:0:
256,192,212745,1,0,0:0:0:0:
256,192,212813,1,8,0:0:0:0:
256,192,213086,1,8,0:0:0:0:
256,192,213222,1,0,0:0:0:0:
256,192,213290,1,0,0:0:0:0:
256,192,213358,1,8,0:0:0:0:
256,192,213495,1,0,0:0:0:0:
256,192,213631,1,8,0:0:0:0:
256,192,213767,1,8,0:0:0:0:
256,192,213836,1,8,0:0:0:0:
256,192,213904,1,0,0:0:0:0:
256,192,214040,1,8,0:0:0:0:
256,192,214108,1,0,0:0:0:0:
256,192,214176,1,8,0:0:0:0:
256,192,214313,1,0,0:0:0:0:
256,192,214381,1,0,0:0:0:0:
256,192,214449,1,8,0:0:0:0:
256,192,214517,1,0,0:0:0:0:
256,192,214586,1,8,0:0:0:0:
248,192,214654,1,8,0:0:0:0:
256,192,214722,1,0,0:0:0:0:
256,192,214858,1,0,0:0:0:0:
256,192,214995,1,8,0:0:0:0:
256,192,215063,1,8,0:0:0:0:
256,192,215131,1,0,0:0:0:0:
256,192,215199,1,0,0:0:0:0:
256,192,215267,1,8,0:0:0:0:
256,192,215404,1,8,0:0:0:0:
256,192,215540,1,0,0:0:0:0:
256,192,215608,1,0,0:0:0:0:
256,192,215676,1,8,0:0:0:0:
256,192,215745,1,0,0:0:0:0:
256,192,215813,1,8,0:0:0:0:
256,192,215949,1,0,0:0:0:0:
256,192,216086,1,8,0:0:0:0:
256,192,216154,1,8,0:0:0:0:
256,192,216222,1,0,0:0:0:0:
256,192,216358,1,12,0:0:0:0:
256,192,216495,1,0,0:0:0:0:
256,192,216631,1,0,0:0:0:0:
256,192,216699,1,0,0:0:0:0:
256,192,216767,1,8,0:0:0:0:
256,192,216904,1,0,0:0:0:0:
256,192,217040,1,0,0:0:0:0:
256,192,217176,1,12,0:0:0:0:
256,192,217449,1,8,0:0:0:0:
256,192,217722,1,0,0:0:0:0:
256,192,217858,1,8,0:0:0:0:
256,192,217995,1,8,0:0:0:0:
256,192,218063,1,8,0:0:0:0:
256,192,218131,1,0,0:0:0:0:
256,192,218199,1,8,0:0:0:0:
256,192,218267,1,0,0:0:0:0:
256,192,218404,1,0,0:0:0:0:
256,192,218472,1,0,0:0:0:0:
256,192,218540,1,8,0:0:0:0:
256,192,218676,1,8,0:0:0:0:
256,192,218813,1,0,0:0:0:0:
256,192,218949,1,8,0:0:0:0:
256,192,219017,1,0,0:0:0:0:
256,192,219086,1,8,0:0:0:0:
256,192,219222,1,0,0:0:0:0:
256,192,219358,1,8,0:0:0:0:
256,192,219426,1,8,0:0:0:0:
256,192,219495,1,0,0:0:0:0:
256,192,219563,1,0,0:0:0:0:
256,192,219631,1,8,0:0:0:0:
256,192,219767,1,0,0:0:0:0:
256,192,219904,1,0,0:0:0:0:
256,192,219972,1,8,0:0:0:0:
256,192,220040,1,0,0:0:0:0:
256,192,220108,1,0,0:0:0:0:
256,192,220176,1,8,0:0:0:0:
256,192,220313,1,0,0:0:0:0:
256,192,220449,1,0,0:0:0:0:
256,192,220517,1,0,0:0:0:0:
256,192,220586,1,8,0:0:0:0:
256,192,220654,1,0,0:0:0:0:
256,192,220722,1,8,0:0:0:0:
256,192,220858,1,0,0:0:0:0:
256,192,220926,1,0,0:0:0:0:
256,192,220995,1,8,0:0:0:0:
256,192,221063,1,8,0:0:0:0:
256,192,221131,1,0,0:0:0:0:
256,192,221199,1,0,0:0:0:0:
256,192,221267,1,8,0:0:0:0:
256,192,221336,1,0,0:0:0:0:
256,192,221404,1,8,0:0:0:0:
256,192,221540,1,12,0:0:0:0:
256,192,221904,1,12,0:0:0:0:
256,192,222631,1,12,0:0:0:0:
256,192,222813,1,4,0:0:0:0:
256,192,222995,1,4,0:0:0:0:
256,192,223176,1,12,0:0:0:0:
256,192,223722,1,12,0:0:0:0:
256,192,223904,1,4,0:0:0:0:
256,192,224086,1,4,0:0:0:0:
256,192,224267,1,4,0:0:0:0:
256,192,224449,1,4,0:0:0:0:
256,192,224631,1,4,0:0:0:0:
256,192,224813,1,12,0:0:0:0:
