osu file format v14

[General]
AudioFilename: audio.mp3
AudioLeadIn: 0
PreviewTime: 162460
Countdown: 0
SampleSet: Soft
StackLeniency: 0.2
Mode: 0
LetterboxInBreaks: 0
WidescreenStoryboard: 0

[Editor]
Bookmarks: 439,9850,19262,38086,56909,75733,82644,85144,94556,103968,120733,125144,134850,143968,158086,162791,172203,179262,181615,200439,212203
DistanceSpacing: 0.5
BeatDivisor: 4
GridSize: 32
TimelineZoom: 3.599998

[Metadata]
Title:The Noise of Rain
TitleUnicode:雨音ノイズ
Artist:40mP
ArtistUnicode:40mP
Creator:Shortthu
Version:Another
Source:
Tags:noz1995 nazzinoz Kirylln Hokichi Hoki LMT Hikan イナメトオル Iname Tooru ショートストーリー Short Story Amaoto Noise Noizu Hatsune Miku Vocaloid 40meterP 40㍍P 初音ミク
BeatmapID:1255689
BeatmapSetID:593551

[Difficulty]
HPDrainRate:6
CircleSize:4
OverallDifficulty:7.7
ApproachRate:9.2
SliderMultiplier:1.5
SliderTickRate:1

[Events]
//Background and Video events
0,0,"bg.jpg",0,0
Video,-800,"bgvid.avi"
//Break Periods
2,163027,170037
//Storyboard Layer 0 (Background)
//Storyboard Layer 1 (Fail)
//Storyboard Layer 2 (Pass)
//Storyboard Layer 3 (Foreground)
//Storyboard Layer 4 (Overlay)
//Storyboard Sound Samples

[TimingPoints]
475,294.117647058824,4,2,1,60,1,0
475,-133.333333333333,4,2,1,60,0,0
8563,-111.111111111111,4,2,2,70,0,0
9151,-111.111111111111,4,2,2,80,0,0
9886,-100,4,2,2,80,0,0
17975,-76.9230769230769,4,2,2,80,0,0
18563,-133.333333333333,4,2,2,80,0,0
19298,-100,4,2,2,80,0,0
36063,-86.9565217391304,4,2,2,80,0,0
36798,-83.3333333333333,4,2,2,80,0,0
37092,-90.9090909090909,4,2,2,80,0,0
37386,-133.333333333333,4,2,2,80,0,0
37831,-200,4,2,2,80,0,0
38122,-100,4,2,2,80,0,0
54886,-86.9565217391304,4,2,2,80,0,0
55622,-76.9230769230769,4,2,2,80,0,0
56210,-133.333333333333,4,2,2,80,0,0
56651,-200,4,2,2,80,0,0
56945,-83.3333333333333,4,2,2,80,0,1
64004,-71.4285714285714,4,2,2,80,0,1
65033,-83.3333333333333,4,2,2,80,0,1
65622,-100,4,2,2,80,0,1
66357,-133.333333333333,4,2,2,70,0,0
66651,-71.4285714285714,4,2,2,80,0,1
66945,-83.3333333333333,4,2,2,80,0,1
73269,-100,4,2,3,80,0,0
73710,-71.4285714285714,4,2,3,80,0,0
74445,-76.9230769230769,4,2,3,80,0,0
75180,-133.333333333333,4,2,3,80,0,0
75769,-100,4,2,3,80,0,0
79372,-100,4,2,3,5,0,0
79445,-100,4,2,3,80,0,0
79666,-100,4,2,3,5,0,0
79739,-100,4,2,3,80,0,0
79960,-100,4,2,3,5,0,0
80033,-100,4,2,3,80,0,0
82092,-83.3333333333333,4,2,3,80,0,0
82680,-133.333333333333,4,2,3,80,0,0
84445,-133.333333333333,4,2,1,60,0,0
85180,-133.333333333333,4,2,4,80,0,0
92827,-133.333333333333,4,2,2,80,0,0
93269,-100,4,2,2,80,0,0
93857,-125,4,2,2,80,0,0
94151,-100,4,2,2,80,0,0
101504,-76.9230769230769,4,2,2,80,0,0
101945,-76.9230769230769,4,2,2,80,0,0
102680,-76.9230769230769,4,2,2,80,0,0
103269,-133.333333333333,4,2,2,80,0,0
103710,-200,4,2,2,80,0,0
104004,-83.3333333333333,4,2,2,80,0,1
111063,-71.4285714285714,4,2,2,80,0,1
112092,-83.3333333333333,4,2,2,80,0,1
112680,-100,4,2,2,80,0,1
113416,-133.333333333333,4,2,2,70,0,0
113710,-71.4285714285714,4,2,2,80,0,1
114004,-83.3333333333333,4,2,2,80,0,1
120327,-133.333333333333,4,2,2,80,0,0
120769,-71.4285714285714,4,2,2,80,0,0
121504,-90.9090909090909,4,2,2,80,0,0
121945,-100,4,2,2,80,0,0
123122,-90.9090909090909,4,2,2,80,0,0
123563,-100,4,2,2,80,0,0
124739,-133.333333333333,4,2,2,80,0,0
125180,-100,4,2,2,80,0,0
133269,-166.666666666667,4,2,2,80,0,0
133563,-100,4,2,2,80,0,0
133857,-125,4,2,2,80,0,0
134151,-90.9090909090909,4,2,2,80,0,0
134445,-133.333333333333,4,2,2,80,0,0
134886,-86.9565217391304,4,2,2,80,0,0
135180,-100,4,2,2,80,0,0
141651,-111.111111111111,4,2,2,80,0,0
142239,-83.3333333333333,4,2,2,80,0,0
142975,-83.3333333333333,4,2,2,70,0,0
143269,-83.3333333333333,4,2,2,60,0,0
143563,-83.3333333333333,4,2,2,50,0,0
143857,-83.3333333333333,4,2,2,40,0,0
144004,-125,4,2,3,70,0,0
152827,-166.666666666667,4,2,3,60,0,0
153122,-200,4,2,3,60,0,0
153416,-166.666666666667,4,2,3,70,0,0
158122,-99.9999999999999,4,2,3,70,0,0
161504,-76.9230769230769,4,2,3,70,0,0
162092,-133.333333333333,4,2,3,70,0,0
171357,-200,4,2,1,70,0,0
172239,-200,4,2,2,70,0,0
178710,-200,4,2,2,70,0,0
179298,-90.9090909090909,4,2,2,70,0,0
180475,-181.818181818182,4,2,2,70,0,0
181063,-133.333333333333,4,2,2,70,0,0
181651,-83.3333333333333,4,2,2,80,0,1
188710,-71.4285714285714,4,2,2,80,0,1
189739,-83.3333333333333,4,2,2,80,0,1
191063,-133.333333333333,4,2,2,70,0,0
191357,-83.3333333333333,4,2,2,80,0,1
197975,-100,4,2,2,80,0,0
200475,-100,4,2,0,80,0,1
200548,-100,4,2,2,80,0,0
207386,-133.333333333333,4,2,2,80,0,0
208857,-100,4,2,2,80,0,0
212239,-83.3333333333333,4,2,0,80,0,1
212680,-100,4,2,0,80,0,0

[Colours]
Combo1 : 250,207,150
Combo2 : 116,205,239
Combo3 : 134,57,204
Combo4 : 66,102,168

[HitObjects]
326,308,475,6,0,P|273:291|244:245,1,112.500004291535,2|8,0:0|0:0,0:0:0:0:
244,245,1063,2,0,L|246:172,2,56.2500021457673,2|0|8,0:0|0:0|0:0,0:0:0:0:
176,140,1504,2,0,P|211:111|294:119,1,112.500004291535,2|2,0:0|0:0,0:0:0:0:
275,109,1945,1,0,0:0:0:0:
245,188,2092,2,0,P|200:220|145:218,1,112.500004291535,2|2,0:0|0:0,0:0:0:0:
144,217,2533,1,8,0:0:0:0:
144,217,2827,6,0,P|154:271|129:320,1,112.500004291535,2|8,0:0|0:0,0:0:0:0:
12,258,3416,2,0,P|40:253|68:258,2,56.2500021457673,2|0|8,0:0|0:0|0:0,0:0:0:0:
128,320,3857,2,0,L|249:332,1,112.500004291535,2|2,0:0|0:0,0:0:0:0:
240,331,4298,1,0,0:0:0:0:
263,250,4445,2,0,L|152:239,1,112.500004291535,2|2,0:0|0:0,0:0:0:0:
152,239,4886,1,8,0:0:0:0:
152,239,5180,6,0,P|136:182|163:122,1,112.500004291535,2|8,0:0|0:0,0:0:0:0:
282,182,5769,2,0,L|226:187,2,56.2500021457673,2|0|8,0:0|0:0|0:0,0:0:0:0:
268,269,6210,2,0,P|301:322|355:337,1,112.500004291535,2|2,0:0|0:0,0:0:0:0:
346,337,6651,1,0,0:0:0:0:
417,276,6798,2,0,P|449:242|518:237,1,112.500004291535,2|2,0:0|0:0,0:0:0:0:
511,234,7239,1,8,0:0:0:0:
511,234,7533,6,0,L|494:109,1,112.500004291535,2|0,0:0|0:0,0:0:0:0:
389,107,7975,1,10,0:0:0:0:
390,118,8048,1,8,0:0:0:0:
392,130,8122,2,0,L|402:203,1,56.2500021457673,10|2,0:0|0:0,0:0:0:0:
376,17,8416,1,2,0:0:0:0:
238,178,8563,6,0,P|169:142|157:72,1,134.999995880127,0|8,0:0|0:3,0:0:0:0:
157,77,9004,1,4,0:3:0:0:
313,136,9151,2,0,P|320:212|275:260,1,134.999995880127,4|4,0:3|0:3,0:0:0:0:
88,181,9592,1,8,0:0:0:0:
88,181,9886,6,0,P|67:228|106:331,1,150,4|8,0:2|0:0,0:0:0:0:
335,278,10475,2,0,L|251:298,1,75,4|4,0:3|0:3,0:0:0:0:
178,266,10769,1,8,0:0:0:0:
348,194,10916,6,0,P|405:231|402:329,1,150,4|4,0:3|0:3,0:0:0:0:
335,278,11357,1,8,0:0:0:0:
335,108,11504,2,0,P|274:147|267:220,1,150,4|4,0:3|0:3,0:0:0:0:
412,141,11945,1,8,0:0:0:0:
147,124,12239,6,0,L|147:298,1,150,4|8,0:3|0:0,0:0:0:0:
18,262,12827,2,0,P|59:218|99:213,2,75,4|4|8,0:3|0:3|0:0,0:0:0:0:
309,354,13269,6,0,L|300:301,1,37.5,4|0,0:3|0:0,0:0:0:0:
203,354,13563,2,0,L|212:301,1,37.5,4|0,0:3|0:0,0:0:0:0:
256,128,13857,2,0,L|256:192,1,37.5,4|0,0:3|0:0,0:0:0:0:
165,215,14151,1,4,0:3:0:0:
348,117,14298,1,8,0:0:0:0:
100,153,14592,6,0,P|76:198|114:294,1,150,4|8,0:3|0:0,0:0:0:0:
315,185,15180,2,0,P|278:180|242:189,1,75,4|4,0:3|0:3,0:0:0:0:
165,215,15475,1,8,0:0:0:0:
318,335,15622,6,0,L|315:180,1,150,4|4,0:3|0:3,0:0:0:0:
231,271,16063,1,8,0:0:0:0:
401,295,16210,2,0,L|398:140,1,150,4|4,0:3|0:3,0:0:0:0:
231,271,16651,1,8,0:0:0:0:
237,68,16945,6,0,P|177:69|149:89,1,75,4|0,0:3|0:0,0:0:0:0:
147,242,17239,1,8,0:0:0:0:
207,148,17386,1,4,0:3:0:0:
209,166,17460,1,0,0:0:0:0:
213,184,17533,1,8,0:3:0:0:
79,183,17680,2,0,L|95:99,1,75,4|4,0:3|0:3,0:0:0:0:
345,326,17975,6,0,L|383:275,1,48.7499977684022,4|0,1:2|0:0,0:0:0:0:
167,326,18269,2,0,L|129:275,1,48.7499977684022,4|0,1:2|0:0,0:0:0:0:
293,139,18563,2,0,P|256:222|217:141,1,225.000008583069,4|0,1:2|0:0,0:0:0:0:
384,135,19298,6,0,P|386:209|331:284,1,150,6|10,0:2|0:0,0:0:0:0:
143,207,19886,2,0,P|105:186|78:150,1,75,6|4,0:3|0:3,0:0:0:0:
162,118,20180,1,10,0:0:0:0:
227,259,20327,6,0,P|163:305|86:292,1,150,4|4,0:3|0:3,0:0:0:0:
162,118,20769,1,10,0:0:0:0:
320,202,20916,2,0,P|332:272|281:347,1,150,4|4,0:3|0:3,0:0:0:0:
264,114,21357,1,10,0:0:0:0:
264,114,21651,6,0,L|435:138,1,150,6|10,0:3|0:0,0:0:0:0:
459,2,22092,2,0,P|425:18|403:47,1,75,0|4,0:0|0:3,0:0:0:0:
467,277,22386,2,0,P|448:244|419:221,1,75,4|10,0:3|0:0,0:0:0:0:
264,114,22680,6,0,B|238:142|222:180|222:180|238:217|265:241,1,150,4|4,0:3|0:3,0:0:0:0:
336,174,23122,1,10,0:0:0:0:
158,259,23269,2,0,P|187:308|298:337,1,150,4|4,0:3|0:3,0:0:0:0:
336,174,23710,2,0,L|349:266,1,75,10|0,0:0|0:0,0:0:0:0:
413,360,24004,6,0,B|460:329|460:329|460:232,1,150,6|10,0:3|0:0,0:0:0:0:
193,142,24592,2,0,P|223:121|260:116,1,75,6|4,0:3|0:3,0:0:0:0:
255,207,24886,1,10,0:0:0:0:
259,30,25033,6,0,P|324:54|338:156,1,150,4|4,0:3|0:3,0:0:0:0:
255,207,25475,1,10,0:0:0:0:
437,127,25622,2,0,P|424:171|331:213,1,150,4|4,0:3|0:3,0:0:0:0:
182,71,26063,1,10,0:0:0:0:
182,71,26357,6,0,P|252:13|330:25,1,150,6|10,0:3|0:0,0:0:0:0:
429,194,26798,2,0,L|432:286,1,75,0|6,0:0|0:3,0:0:0:0:
343,135,27092,2,0,P|307:110|261:107,1,75,4|10,0:3|0:0,0:0:0:0:
222,244,27386,6,0,P|255:226|275:194,1,75,4|0,0:3|0:0,0:0:0:0:
189,157,27680,1,4,0:3:0:0:
137,289,27827,1,10,0:0:0:0:
117,95,27975,2,0,P|96:126|91:162,1,75,4|2,0:3|0:0,0:0:0:0:
223,244,28269,1,4,0:3:0:0:
330,116,28416,2,0,P|361:157|364:208,1,75,10|2,0:0|0:0,0:0:0:0:
367,197,28636,1,0,0:0:0:0:
365,215,28710,6,0,B|313:236|313:236|293:349,1,150,6|10,0:2|0:0,0:0:0:0:
450,251,29298,2,0,P|458:207|445:168,1,75,6|4,0:3|0:3,0:0:0:0:
365,215,29592,1,10,0:0:0:0:
398,321,29739,6,0,P|476:333|536:266,1,150,4|4,0:3|0:3,0:0:0:0:
450,251,30180,1,10,0:0:0:0:
335,382,30327,2,0,P|311:315|366:237,1,150,4|4,0:3|0:3,0:0:0:0:
476,155,30769,1,10,0:0:0:0:
476,155,31063,6,0,P|400:163|338:114,1,150,6|10,0:3|0:0,0:0:0:0:
184,16,31504,2,0,P|212:71|209:105,1,75,0|6,0:0|0:3,0:0:0:0:
183,272,31798,2,0,P|205:241|212:205,1,75,4|10,0:3|0:0,0:0:0:0:
93,272,32092,6,0,P|117:335|215:356,1,150,4|4,0:3|0:3,0:0:0:0:
183,272,32533,1,10,0:0:0:0:
9,323,32680,2,0,P|4:232|58:179,1,150,4|4,0:3|0:3,0:0:0:0:
256,256,33122,2,0,L|183:272,1,75,10|0,0:0|0:0,0:0:0:0:
132,169,33416,6,0,B|147:106|147:106|245:86,1,150,6|10,0:3|0:0,0:0:0:0:
340,220,33857,2,0,P|348:267|334:304,1,75,0|6,0:0|0:3,0:0:0:0:
256,256,34151,1,4,0:3:0:0:
413,367,34298,2,0,P|439:321|434:274,1,75,10|0,0:0|0:0,0:0:0:0:
292,158,34592,6,0,B|327:131|371:148|371:148|418:166|458:135,1,150,6|10,0:3|0:0,0:0:0:0:
424,4,35033,2,0,P|403:46|406:89,1,75,4|2,0:3|0:0,0:0:0:0:
490,205,35327,2,0,P|511:163|508:120,1,75,4|10,0:3|0:0,0:0:0:0:
264,335,35622,2,0,L|301:341,1,37.5
250,328,35769,6,0,P|246:282|269:237,1,75
231,56,36063,2,0,P|252:114|227:182,1,129.375002467632,4|0,0:0|0:0,0:0:0:0:
256,160,36357,2,0,P|313:136|363:145,1,86.2500016450882,8|4,0:3|0:3,0:0:0:0:
256,256,36651,1,8,0:0:0:0:
124,88,36798,6,0,L|139:137,1,44.999998626709,4|0,0:3|0:0,0:0:0:0:
388,88,37092,2,0,L|373:137,1,41.2500012588501,4|0,0:3|0:0,0:0:0:0:
256,160,37386,2,0,L|256:32,1,112.500004291535,4|4,0:0|0:3,0:0:0:0:
256,256,37827,2,0,L|256:312,1,56.2500021457673,8|0,0:0|0:0,0:0:0:0:
493,164,38122,6,0,P|430:143|350:188,1,150,6|10,0:2|0:0,0:0:0:0:
256,312,38710,2,0,P|227:287|192:275,1,75,6|4,0:3|0:3,0:0:0:0:
100,275,39004,1,10,0:0:0:0:
311,384,39151,6,0,P|346:326|317:248,1,150,4|4,0:3|0:3,0:0:0:0:
256,312,39592,1,10,0:0:0:0:
294,157,39739,2,0,P|377:169|421:241,1,150,4|4,0:3|0:3,0:0:0:0:
256,312,40180,1,10,0:0:0:0:
256,312,40475,6,0,P|166:294|106:333,1,150,6|10,0:3|0:0,0:0:0:0:
83,123,40916,2,0,P|112:175|109:216,1,75,0|6,0:0|0:3,0:0:0:0:
131,38,41210,2,0,P|96:25|59:28,1,75,4|10,0:3|0:0,0:0:0:0:
174,240,41504,6,0,P|239:208|312:238,1,150,4|4,0:3|0:3,0:0:0:0:
390,364,41945,1,10,0:0:0:0:
475,232,42092,2,0,P|450:258|437:293,2,75,4|0|4,0:3|0:0|0:3,0:0:0:0:
307,233,42533,1,10,0:0:0:0:
306,364,42680,1,0,0:0:0:0:
265,152,42827,6,0,P|337:149|394:213,1,150,6|10,0:3|0:0,0:0:0:0:
190,257,43416,2,0,P|151:213|147:174,1,75,6|4,0:3|0:3,0:0:0:0:
180,98,43710,1,10,0:0:0:0:
286,255,43857,6,0,P|259:325|172:355,1,150,4|4,0:3|0:3,0:0:0:0:
190,257,44298,1,10,0:0:0:0:
370,204,44445,2,0,B|410:190|444:215|444:215|479:242|517:228,1,150,4|4,0:3|0:3,0:0:0:0:
484,40,44886,2,0,P|451:91|453:133,1,75,10|0,0:0|0:0,0:0:0:0:
434,234,45180,6,0,P|379:221|312:282,1,150,6|10,0:3|0:0,0:0:0:0:
354,368,45622,2,0,P|384:328|389:285,1,75,0|6,0:0|0:3,0:0:0:0:
153,277,45916,2,0,P|157:327|182:362,1,75,4|10,0:3|0:0,0:0:0:0:
219,169,46210,6,0,P|216:113|132:51,1,150,4|4,0:3|0:3,0:0:0:0:
124,148,46651,1,10,0:0:0:0:
303,201,46798,2,0,P|349:192|377:171,1,75,4|2,0:3|0:0,0:0:0:0:
313,119,47092,1,4,0:3:0:0:
288,285,47239,2,0,P|346:286|383:273,1,75,10|2,0:0|0:0,0:0:0:0:
384,271,47460,1,0,0:0:0:0:
405,260,47533,6,0,B|419:254|438:237|438:237|473:285|445:361,1,150,6|10,0:2|0:0,0:0:0:0:
143,175,48122,2,0,P|141:225|163:258,1,75,6|4,0:3|0:3,0:0:0:0:
224,313,48416,1,10,0:0:0:0:
361,194,48563,6,0,P|293:166|225:195,1,150,4|4,0:3|0:3,0:0:0:0:
294,262,49004,1,10,0:0:0:0:
459,220,49151,2,0,P|448:142|373:93,1,150,4|4,0:3|0:3,0:0:0:0:
228,98,49592,1,10,0:0:0:0:
228,98,49886,6,0,B|131:97|131:97|82:137,1,150,6|10,0:3|0:0,0:0:0:0:
248,328,50327,2,0,P|308:321|332:307,1,75,0|6,0:0|0:3,0:0:0:0:
213,209,50622,2,0,P|166:216|133:233,1,75,4|10,0:3|0:0,0:0:0:0:
442,139,50916,6,0,P|406:84|322:73,1,150,4|4,0:3|0:3,0:0:0:0:
196,116,51357,1,10,0:0:0:0:
293,164,51504,2,0,P|321:196|331:240,2,75,4|2|4,0:3|0:0|0:3,0:0:0:0:
108,166,51945,2,0,P|76:206|79:289,1,112.5,10|0,0:0|0:0,0:0:0:0:
96,336,52239,6,0,B|115:362|137:376|137:376|243:365,1,150,6|10,0:3|0:0,0:0:0:0:
330,226,52680,2,0,P|331:279|346:313,1,75,0|6,0:0|0:3,0:0:0:0:
411,364,52975,1,4,0:3:0:0:
393,151,53122,2,0,P|320:127|267:152,1,112.5,10|0,0:0|0:0,0:0:0:0:
219,171,53416,6,0,B|187:191|158:188|158:188|66:177,1,150,6|10,0:3|0:0,0:0:0:0:
26,45,53857,2,0,P|72:20|106:20,1,75,4|2,0:3|0:0,0:0:0:0:
230,75,54151,2,0,P|192:78|159:96,1,75,4|10,0:3|0:0,0:0:0:0:
173,275,54445,5,4,0:3:0:0:
289,147,54592,1,0,0:0:0:0:
277,250,54739,1,4,0:3:0:0:
230,75,54886,2,0,P|197:129|209:192,1,129.375002467632,12|0,0:0|0:0,0:0:0:0:
189,167,55180,2,0,P|147:140|89:142,1,86.2500016450882,8|4,0:3|0:3,0:0:0:0:
113,231,55475,1,4,0:3:0:0:
328,101,55622,6,0,L|382:90,1,48.7499977684022,4|0,1:2|0:0,0:0:0:0:
328,283,55916,2,0,L|382:294,1,48.7499977684022,4|0,1:2|0:0,0:0:0:0:
448,192,56210,1,4,1:2:0:0:
448,192,56357,2,0,L|352:192,1,84.3750032186509,0|0,0:0|0:0,0:0:0:0:
288,192,56651,5,8,0:3:0:0:
288,192,56945,6,0,P|242:196|196:233,1,89.9999972534181,4|0,0:2|0:0,0:0:0:0:
152,384,57239,1,8,1:2:0:0:
276,379,57386,2,0,L|272:283,1,89.9999972534181,0|4,0:0|0:3,0:0:0:0:
124,227,57680,1,4,0:3:0:0:
152,384,57827,1,8,1:2:0:0:
267,85,57975,6,0,L|149:81,1,89.9999972534181,4|0,0:3|0:0,0:0:0:0:
288,192,58269,2,0,L|407:180,1,89.9999972534181,4|8,0:3|1:2,0:0:0:0:
153,0,58563,2,0,P|97:51|128:151,1,179.999994506836,4|4,0:3|0:3,0:0:0:0:
208,263,59004,2,0,P|211:200|191:165,1,89.9999972534181,8|0,1:2|0:0,0:0:0:0:
49,315,59298,6,0,P|104:327|154:309,1,89.9999972534181,4|0,0:3|0:0,0:0:0:0:
300,143,59592,1,8,1:2:0:0:
208,90,59739,2,0,P|194:132|199:176,1,89.9999972534181,0|4,0:0|0:3,0:0:0:0:
283,48,60033,1,4,0:3:0:0:
252,235,60180,1,8,1:2:0:0:
377,109,60327,6,0,P|333:113|300:143,1,89.9999972534181,4|0,0:3|0:0,0:0:0:0:
473,152,60622,2,0,P|481:98|466:62,1,89.9999972534181,4|8,0:3|1:2,0:0:0:0:
252,235,60916,2,0,B|291:264|339:240|339:240|386:216|432:248,1,179.999994506836,4|4,0:3|0:3,0:0:0:0:
379,330,61357,1,8,1:2:0:0:
300,143,61504,1,0,0:0:0:0:
356,347,61651,6,0,L|266:351,1,89.9999972534181,4|0,0:3|0:0,0:0:0:0:
174,304,61945,1,8,1:2:0:0:
300,143,62092,2,0,P|344:176|358:216,1,89.9999972534181,0|4,0:0|0:3,0:0:0:0:
181,137,62386,2,0,P|195:82|225:53,1,89.9999972534181,4|8,0:3|1:2,0:0:0:0:
264,314,62680,6,0,L|153:302,1,89.9999972534181,4|0,0:3|0:0,0:0:0:0:
365,288,62975,2,0,P|363:348|345:381,1,89.9999972534181,4|8,0:3|1:2,0:0:0:0:
86,331,63269,2,0,L|78:220,1,89.9999972534181,4|0,0:3|0:0,0:0:0:0:
181,137,63563,1,4,0:3:0:0:
174,304,63710,1,8,1:2:0:0:
174,304,64004,6,0,B|216:288|255:323|255:323|295:359|340:341,1,157.499995193482,4|0,1:2|0:0,0:0:0:0:
404,323,64298,1,8,1:2:0:0:
404,323,64592,5,4,0:3:0:0:
319,262,64739,1,4,0:3:0:0:
192,384,64886,1,8,1:2:0:0:
473,258,65033,6,0,L|483:100,1,134.999995880127,4|0,1:2|0:0,0:0:0:0:
486,84,65327,1,4,0:3:0:0:
511,184,65475,1,8,1:2:0:0:
379,0,65622,6,0,L|387:138,1,112.5,4|0,0:3|0:0,0:0:0:0:
385,112,65916,1,4,0:3:0:0:
496,10,66063,1,8,1:2:0:0:
191,178,66357,6,0,P|158:166|106:187,1,84.3750032186509,4|0,0:0|0:0,0:0:0:0:
108,156,66651,6,0,B|151:133|192:154|192:154|236:179|288:153,1,157.499995193482,12|0,1:2|0:0,0:0:0:0:
339,132,66945,1,4,0:3:0:0:
238,73,67092,1,4,0:3:0:0:
280,254,67239,1,8,1:2:0:0:
425,131,67386,6,0,P|382:121|339:132,1,89.9999972534181,4|0,0:3|0:0,0:0:0:0:
467,298,67680,2,0,L|470:199,1,89.9999972534181,4|8,0:3|1:2,0:0:0:0:
259,163,67975,2,0,L|265:366,1,179.999994506836,4|4,0:3|0:3,0:0:0:0:
183,324,68416,2,0,L|180:234,1,89.9999972534181,8|0,1:2|0:0,0:0:0:0:
392,211,68710,6,0,P|374:259|320:290,1,89.9999972534181,4|0,0:3|0:0,0:0:0:0:
98,270,69004,1,8,1:2:0:0:
178,131,69151,2,0,P|213:104|271:98,1,89.9999972534181,0|4,0:0|0:3,0:0:0:0:
252,191,69445,1,4,0:3:0:0:
104,81,69592,1,8,1:2:0:0:
346,48,69739,6,0,L|341:166,1,89.9999972534181,4|0,0:3|0:0,0:0:0:0:
258,97,70033,2,0,L|262:8,1,89.9999972534181,4|8,0:3|1:2,0:0:0:0:
441,126,70327,2,0,P|403:217|294:220,1,179.999994506836,4|4,0:3|0:3,0:0:0:0:
178,92,70769,1,8,1:2:0:0:
173,233,70916,1,0,0:0:0:0:
342,137,71063,6,0,L|346:48,1,89.9999972534181,4|0,0:3|0:0,0:0:0:0:
262,8,71357,1,8,1:2:0:0:
87,145,71504,2,0,L|91:56,1,89.9999972534181,0|4,0:0|0:3,0:0:0:0:
247,107,71798,2,0,L|244:197,1,89.9999972534181,4|8,0:3|1:2,0:0:0:0:
205,310,72092,6,0,P|160:314|121:295,1,89.9999972534181,4|0,0:3|0:0,0:0:0:0:
319,236,72386,2,0,P|363:231|403:251,1,89.9999972534181,4|8,0:3|1:2,0:0:0:0:
341,384,72680,2,0,L|242:382,1,89.9999972534181,4|0,0:3|0:0,0:0:0:0:
175,228,72975,1,0,1:0:0:0:
175,228,73048,1,0,1:0:0:0:
175,228,73122,1,0,1:0:0:0:
252,142,73269,6,0,L|69:138,1,150,4|4,0:0|0:3,0:0:0:0:
98,317,73710,2,0,L|287:320,1,157.499995193482,4|0,1:2|0:0,0:0:0:0:
345,320,74004,1,4,0:3:0:0:
294,236,74151,1,4,0:3:0:0:
181,364,74298,1,4,0:3:0:0:
352,96,74445,6,0,L|348:148,1,48.7499977684022,4|0,1:3|0:0,0:0:0:0:
160,96,74739,2,0,L|163:144,1,48.7499977684022,4|0,1:3|0:0,0:0:0:0:
256,320,75033,1,4,1:3:0:0:
256,320,75180,2,0,L|256:207,1,112.500004291535,4|8,1:3|0:3,0:0:0:0:
255,207,75769,6,0,P|322:175|391:199,1,150,6|10,0:0|0:0,0:0:0:0:
343,338,76357,2,0,P|326:306|328:269,1,75,6|4,0:3|0:3,0:0:0:0:
391,199,76651,1,8,0:0:0:0:
157,349,76798,6,0,L|147:180,1,150,6|2,0:3|0:0,0:0:0:0:
143,93,77239,2,0,P|197:119|244:115,1,75,8|4,0:0|0:3,0:0:0:0:
295,11,77533,2,0,L|211:17,1,75,2|4,0:0|0:3,0:0:0:0:
74,147,77827,1,8,0:0:0:0:
112,19,77975,1,2,0:0:0:0:
269,180,78122,6,0,L|277:329,1,150,6|8,0:3|0:0,0:0:0:0:
159,237,78710,2,0,L|153:139,1,75,6|4,0:3|0:3,0:0:0:0:
151,48,79004,1,8,0:0:0:0:
305,256,79151,6,0,P|346:215|341:140,1,112.5,6|0,0:3|0:0,0:0:0:0:
291,116,79445,2,0,P|345:130|410:90,1,112.5,2|0,0:0|0:0,0:0:0:0:
446,53,79739,2,0,B|474:88|474:88|465:171,1,112.5,4|0,0:3|0:0,0:0:0:0:
462,230,80033,1,4,0:3:0:0:
339,43,80180,1,8,0:0:0:0:
339,43,80327,1,2,0:0:0:0:
222,180,80475,6,0,P|197:241|239:324,1,150,6|8,0:3|0:0,0:0:0:0:
377,315,81063,2,0,L|381:218,1,75,6|4,0:3|0:3,0:0:0:0:
382,136,81357,1,8,0:0:0:0:
214,315,81504,6,0,P|184:248|209:180,1,150,6|2,0:3|0:0,0:0:0:0:
293,106,81945,1,8,0:0:0:0:
94,251,82092,6,0,L|96:156,1,89.9999972534181,4|0,0:0|0:0,0:0:0:0:
174,68,82386,2,0,L|176:24,1,44.999998626709,0|0,1:0|0:0,0:0:0:0:
199,186,82533,1,0,1:0:0:0:
204,182,82607,1,0,1:0:0:0:
209,179,82680,6,0,P|273:174|295:269,1,168.750006437302,4|0,1:2|0:0,0:0:0:0:
332,260,84445,6,0,L|338:291,2,28.1250010728836,8|8|8,0:0|0:0|0:0,0:0:0:0:
312,166,84739,1,8,0:0:0:0:
193,314,84886,2,0,L|208:220,1,84.3750032186509,2|0,0:3|0:0,0:0:0:0:
210,211,85180,6,0,P|159:229|85:213,1,112.500004291535,4|8,0:0|0:0,0:0:0:0:
102,221,85769,2,0,L|90:145,1,56.2500021457673,4|4,0:3|0:3,0:0:0:0:
77,71,86063,1,8,0:0:0:0:
287,331,86210,6,0,L|307:201,1,112.500004291535,4|4,0:3|0:3,0:0:0:0:
320,125,86651,1,8,0:0:0:0:
201,241,86798,2,0,L|180:111,1,112.500004291535,4|4,0:3|0:3,0:0:0:0:
168,35,87239,1,8,0:0:0:0:
168,35,87533,6,0,P|219:8|290:21,1,112.500004291535,4|8,0:3|0:0,0:0:0:0:
360,49,87975,1,0,0:0:0:0:
360,49,88122,2,0,L|368:104,2,56.2500021457673,4|4|8,0:3|0:3|0:0,0:0:0:0:
240,218,88563,6,0,L|260:88,1,112.500004291535,4|4,0:3|0:3,0:0:0:0:
272,12,89004,1,8,0:0:0:0:
148,149,89151,2,0,L|127:19,1,112.500004291535,4|4,0:3|0:3,0:0:0:0:
52,113,89592,1,8,0:0:0:0:
127,20,89739,1,2,0:0:0:0:
163,248,89886,6,0,P|109:240|69:201,1,112.500004291535,6|8,0:3|0:0,0:0:0:0:
68,200,90475,2,4,L|58:268,1,56.2500021457673,4|4,0:3|0:3,0:3:0:0:
115,347,90769,1,8,0:0:0:0:
269,142,90916,6,0,L|251:253,1,112.500004291535,4|4,0:3|0:3,0:0:0:0:
236,347,91357,1,8,0:0:0:0:
411,246,91504,2,0,L|428:357,1,112.500004291535,4|4,0:3|0:3,0:0:0:0:
330,320,91945,1,8,0:0:0:0:
330,320,92239,6,0,P|302:273|251:252,1,112.500004291535,4|8,0:3|0:0,0:0:0:0:
160,289,92680,1,0,0:0:0:0:
160,289,92827,1,4,0:3:0:0:
236,347,92975,1,4,0:3:0:0:
256,156,93122,1,8,0:0:0:0:
141,382,93269,6,0,P|100:364|70:264,1,150,4|8,0:0|0:0,0:0:0:0:
68,270,93636,1,8,0:0:0:0:
68,270,93710,1,8,0:0:0:0:
351,327,93857,6,0,L|354:297,1,30,4|0,0:3|0:0,0:0:0:0:
229,272,94151,6,0,L|236:347,1,75,4|8,0:3|0:0,0:0:0:0:
322,139,94592,5,4,0:3:0:0:
302,232,94739,1,0,0:0:0:0:
308,131,94886,1,8,0:0:0:0:
351,327,95033,2,0,P|399:271|394:198,1,150,0|4,0:0|0:3,0:0:0:0:
219,291,95475,1,8,0:0:0:0:
214,178,95622,1,4,0:3:0:0:
58,270,95769,6,0,P|46:212|59:180,1,75,0|4,0:0|0:3,0:0:0:0:
123,79,96063,2,0,P|135:136|121:168,1,75,8|4,0:0|0:3,0:0:0:0:
21,108,96357,2,0,L|34:22,1,75,0|4,0:0|0:3,0:0:0:0:
214,178,96651,2,0,L|225:252,1,75,8|0,0:0|0:0,0:0:0:0:
223,368,96945,5,4,0:3:0:0:
345,322,97092,1,0,0:0:0:0:
237,347,97239,1,8,0:0:0:0:
427,375,97386,2,0,B|440:322|440:322|417:212,1,150,0|4,0:0|0:3,0:0:0:0:
305,242,97827,1,8,0:0:0:0:
409,216,97975,1,4,0:3:0:0:
214,178,98122,6,0,P|204:115|219:78,1,75,0|4,0:0|0:3,0:0:0:0:
320,45,98416,2,0,L|315:128,1,75,8|4,0:0|0:3,0:0:0:0:
102,138,98710,2,0,P|94:86|105:55,1,75,0|4,0:0|0:3,0:0:0:0:
305,242,99004,2,0,L|309:316,1,75,8|0,0:0|0:0,0:0:0:0:
147,229,99298,5,4,0:3:0:0:
133,342,99445,1,0,0:0:0:0:
123,220,99592,1,8,0:0:0:0:
217,357,99739,2,0,L|226:172,1,150,0|4,0:0|0:3,0:0:0:0:
52,281,100180,1,8,0:0:0:0:
60,160,100327,1,0,0:0:0:0:
306,158,100475,6,0,P|281:130|248:115,1,75,4|0,0:3|0:0,0:0:0:0:
98,42,100769,2,0,P|151:24|194:31,1,75,8|4,0:0|0:3,0:0:0:0:
285,39,101063,1,0,0:0:0:0:
160,268,101210,5,8,0:0:0:0:
152,119,101357,1,8,0:0:0:0:
232,359,101504,6,0,P|267:321|271:262,1,97.4999955368044,4|0,0:0|0:0,0:0:0:0:
225,207,101798,1,4,0:3:0:0:
54,300,101945,2,0,L|45:183,1,97.4999955368044,12|0,0:0|0:0,0:0:0:0:
152,119,102239,6,0,L|213:111,1,48.7499977684022,0|0,1:0|0:0,0:0:0:0:
357,186,102386,2,0,L|308:192,1,48.7499977684022,0|0,1:0|0:0,0:0:0:0:
140,220,102533,1,0,1:0:0:0:
316,64,102680,6,0,L|311:112,1,48.7499977684022,4|0,1:2|0:0,0:0:0:0:
196,64,102975,2,0,L|200:112,1,48.7499977684022,4|0,1:2|0:0,0:0:0:0:
256,329,103269,1,4,1:2:0:0:
256,329,103416,2,0,L|256:225,1,84.3750032186509,0|0,0:0|0:0,0:0:0:0:
256,168,103710,5,8,0:3:0:0:
256,168,104004,6,0,P|319:127|346:127,1,89.9999972534181,4|0,0:2|0:0,0:0:0:0:
256,329,104298,1,8,1:2:0:0:
164,241,104445,2,0,L|164:140,1,89.9999972534181,0|4,0:0|0:3,0:0:0:0:
215,82,104739,1,4,0:3:0:0:
331,210,104886,1,8,1:2:0:0:
154,342,105033,6,0,P|108:327|70:269,1,89.9999972534181,4|0,0:3|0:0,0:0:0:0:
331,210,105327,2,0,L|331:313,1,89.9999972534181,4|8,0:3|1:2,0:0:0:0:
61,216,105622,2,0,B|70:96|70:96|123:69,1,179.999994506836,4|4,0:3|0:3,0:0:0:0:
245,111,106063,2,0,B|164:151,1,89.9999972534181,8|0,1:2|0:0,0:0:0:0:
286,24,106357,6,0,P|327:56|343:100,1,89.9999972534181,4|0,0:3|0:0,0:0:0:0:
245,210,106651,1,8,1:2:0:0:
123,69,106798,2,0,B|203:28,1,89.9999972534181,0|4,0:0|0:3,0:0:0:0:
245,111,107092,1,4,0:3:0:0:
92,197,107239,1,8,1:2:0:0:
328,173,107386,6,0,P|337:226|317:271,1,89.9999972534181,4|0,0:3|0:0,0:0:0:0:
114,372,107680,2,0,P|105:319|125:274,1,89.9999972534181,4|8,0:3|1:2,0:0:0:0:
373,330,107975,2,0,B|332:355|285:330|285:330|235:302|183:333,1,179.999994506836,4|4,0:3|0:3,0:0:0:0:
114,372,108416,1,8,1:2:0:0:
252,238,108563,1,0,0:0:0:0:
462,367,108710,6,0,P|470:313|453:273,1,89.9999972534181,4|0,0:3|0:0,0:0:0:0:
336,255,109004,1,8,1:2:0:0:
497,199,109151,2,0,P|451:165|395:165,1,89.9999972534181,0|4,0:0|0:3,0:0:0:0:
286,322,109445,2,0,P|322:297|336:255,1,89.9999972534181,4|8,0:3|0:0,0:0:0:0:
360,78,109739,6,0,L|266:88,1,89.9999972534181,4|0,0:3|0:0,0:0:0:0:
96,160,110033,2,0,L|190:170,1,89.9999972534181,4|8,0:3|1:2,0:0:0:0:
336,255,110327,2,0,L|242:265,1,89.9999972534181,4|0,0:3|0:0,0:0:0:0:
134,242,110622,1,4,0:3:0:0:
270,87,110769,1,8,1:2:0:0:
270,87,111063,6,0,P|317:157|404:155,1,157.499995193482,4|0,1:2|0:0,0:0:0:0:
463,100,111357,1,8,1:2:0:0:
463,100,111651,1,4,0:3:0:0:
424,241,111798,1,0,0:0:0:0:
360,78,111945,1,8,1:2:0:0:
227,238,112092,6,0,P|222:177|146:168,1,134.999995880127,4|0,1:2|0:0,0:0:0:0:
158,160,112386,1,8,0:0:0:0:
158,160,112460,1,8,0:0:0:0:
158,160,112533,1,8,1:2:0:0:
79,336,112680,2,0,P|80:285|138:288,1,112.5,4|0,0:3|0:0,0:0:0:0:
159,358,112975,1,4,0:3:0:0:
80,195,113122,1,8,1:2:0:0:
339,139,113416,6,0,L|252:139,1,84.3750032186509,4|0,0:0|0:0,0:0:0:0:
249,123,113710,6,0,L|420:123,1,157.499995193482,12|0,1:2|0:0,0:0:0:0:
490,123,114004,1,4,0:3:0:0:
377,222,114151,1,4,0:3:0:0:
442,44,114298,1,8,1:2:0:0:
441,292,114445,6,0,P|392:314|346:310,1,89.9999972534181,4|0,0:3|0:0,0:0:0:0:
194,216,114739,2,0,P|238:216|278:236,1,89.9999972534181,4|8,0:3|1:2,0:0:0:0:
123,323,115033,2,0,B|107:196|107:196|138:139,1,179.999994506836,4|4,0:3|0:3,0:0:0:0:
185,64,115475,2,0,P|130:52|101:22,1,89.9999972534181,8|0,1:2|0:0,0:0:0:0:
348,8,115769,6,0,L|348:109,1,89.9999972534181,4|0,0:3|0:0,0:0:0:0:
348,280,116063,1,8,1:2:0:0:
305,200,116210,2,0,P|357:189|401:207,1,89.9999972534181,0|4,0:0|0:3,0:0:0:0:
261,282,116504,1,4,0:3:0:0:
262,118,116651,1,8,1:2:0:0:
396,359,116798,6,0,L|298:359,1,89.9999972534181,4|0,0:3|0:0,0:0:0:0:
122,201,117092,2,0,L|212:201,1,89.9999972534181,4|8,0:3|1:2,0:0:0:0:
181,282,117386,2,0,B|74:282|74:282|39:219,1,179.999994506836,4|4,0:3|0:3,0:0:0:0:
70,118,117827,1,8,1:2:0:0:
75,282,117975,1,0,0:0:0:0:
262,118,118122,6,0,P|301:161|306:204,1,89.9999972534181,4|0,0:3|0:0,0:0:0:0:
270,281,118416,1,8,1:2:0:0:
173,115,118563,2,0,P|197:57|227:37,1,89.9999972534181,0|4,0:0|0:3,0:0:0:0:
270,281,118857,2,0,L|180:281,1,89.9999972534181,4|8,0:3|0:0,0:0:0:0:
434,193,119151,6,0,P|382:220|365:272,1,89.9999972534181,4|0,0:3|0:0,0:0:0:0:
448,368,119445,2,0,L|448:274,1,89.9999972534181,4|8,0:3|1:2,0:0:0:0:
448,105,119739,2,0,L|348:105,1,89.9999972534181,4|0,0:3|0:0,0:0:0:0:
306,190,120033,1,0,1:0:0:0:
306,190,120107,1,0,1:0:0:0:
306,190,120180,1,0,1:0:0:0:
368,330,120327,6,0,L|368:237,1,84.3750032186509,4|0,0:0|0:0,0:0:0:0:
368,228,120622,1,4,0:3:0:0:
205,348,120769,6,0,B|224:300|224:300|205:249,1,104.999996795654,4|0,1:2|0:0,0:0:0:0:
170,175,121063,1,4,0:3:0:0:
118,239,121210,1,4,0:3:0:0:
285,239,121357,1,4,0:3:0:0:
92,76,121504,2,0,L|88:163,1,82.5000025177003,4|0,0:0|0:0,0:0:0:0:
88,158,121798,1,4,0:0:0:0:
214,102,121945,6,0,L|216:41,3,37.5,8|0|0|0,3:2|3:0|3:0|3:0,3:0:0:0:
307,92,122239,6,0,L|355:55,2,50,8|8|8,0:3|0:3|0:3,0:0:0:0:
364,162,122533,2,0,L|423:175,2,50,4|4|4,0:3|0:3|0:3,0:0:0:0:
320,243,122827,1,4,0:3:0:0:
232,197,123122,5,12,0:0:0:0:
232,197,123269,2,0,L|232:249,2,41.2500012588501
118,198,123563,1,4,0:3:0:0:
142,276,123738,1,8,0:3:0:0:
58,83,123857,6,0,B|26:117|26:117|32:185,1,112.5,4|0,1:3|0:0,0:0:0:0:
19,206,124151,2,0,P|61:242|62:307,1,112.5,4|0,1:3|0:0,0:0:0:0:
56,321,124445,1,4,1:3:0:0:
142,276,124739,6,0,L|140:333,2,56.2500021457673
197,214,125180,6,0,P|247:205|279:213,1,75,4|0,0:0|0:0,0:0:0:0:
397,118,125475,2,0,P|346:122|317:138,1,75,8|0,0:0|0:0,0:0:0:0:
282,293,125769,1,4,0:3:0:0:
166,114,125916,2,0,L|251:123,1,75,4|8,0:3|0:0,0:0:0:0:
335,367,126210,6,0,P|371:303|351:234,1,150,4|4,0:3|0:3,0:0:0:0:
181,300,126651,1,8,0:0:0:0:
340,223,126798,1,4,0:3:0:0:
257,378,126945,1,0,0:0:0:0:
263,200,127092,2,0,P|246:163|214:133,1,75,4|8,0:3|0:0,0:0:0:0:
23,187,127386,6,0,L|26:262,1,75,0|4,0:0|0:3,0:0:0:0:
127,70,127680,2,0,P|114:35|86:11,1,75,0|8,0:0|0:0,0:0:0:0:
0,0,127975,1,4,0:3:0:0:
100,159,128122,1,0,0:0:0:0:
209,20,128269,2,0,P|230:50|237:87,1,75,4|8,0:3|0:0,0:0:0:0:
163,214,128563,6,0,L|267:224,1,75,4|0,0:3|0:0,0:0:0:0:
393,129,128857,2,0,L|289:139,1,75,4|8,0:3|0:0,0:0:0:0:
255,317,129151,2,0,P|303:293|323:256,1,75,4|0,0:3|0:0,0:0:0:0:
297,46,129445,2,0,P|249:70|229:107,1,75,4|8,0:3|0:0,0:0:0:0:
237,221,129739,1,0,0:0:0:0:
237,221,129886,6,0,L|162:228,1,75,4|0,0:3|0:0,0:0:0:0:
22,51,130180,2,0,P|85:87|100:159,1,150,8|4,0:0|0:3,0:0:0:0:
5,315,130622,2,0,L|-1:229,1,75,4|8,0:3|0:0,0:0:0:0:
232,88,130916,6,0,P|204:155|237:221,1,150,4|4,0:3|0:3,0:0:0:0:
295,150,131357,1,8,0:0:0:0:
113,171,131504,1,4,0:3:0:0:
154,317,131651,2,0,L|157:242,1,75,0|4,0:0|0:3,0:0:0:0:
232,88,131945,1,8,0:0:0:0:
305,267,132092,2,0,L|302:342,1,75,0|4,0:0|0:3,0:0:0:0:
402,310,132386,6,0,P|418:263|448:240,1,75,0|8,0:0|0:0,0:0:0:0:
492,318,132680,1,0,0:0:0:0:
369,384,132827,1,4,0:3:0:0:
362,180,132975,1,4,0:3:0:0:
362,180,133122,1,8,0:0:0:0:
236,216,133269,6,0,L|153:220,1,67.4999979400635,4|0,0:3|0:0,0:0:0:0:
136,110,133563,1,4,0:3:0:0:
174,108,133636,1,8,0:0:0:0:
212,106,133710,2,0,L|250:103,1,37.5,8|0,0:0|0:0,0:0:0:0:
333,183,133857,2,0,L|372:180,1,30,4|0,0:3|0:0,0:0:0:0:
317,264,134151,6,0,L|427:255,1,82.5000025177003,4|8,0:3|0:0,0:0:0:0:
399,258,134445,5,4,0:3:0:0:
400,269,134519,1,4,0:3:0:0:
402,280,134592,1,4,0:3:0:0:
232,345,134739,1,0,0:0:0:0:
232,345,134813,1,0,0:0:0:0:
232,345,134886,6,0,P|175:342|143:324,1,86.2500016450882,4|0,0:0|0:0,0:0:0:0:
165,151,135180,1,4,0:3:0:0:
229,228,135327,1,4,0:3:0:0:
119,240,135475,1,8,0:0:0:0:
272,135,135622,6,0,P|312:170|312:284,1,150,4|4,0:3|0:3,0:0:0:0:
229,228,136063,1,8,0:0:0:0:
417,251,136210,2,0,P|401:315|308:354,1,150,4|4,0:3|0:3,0:0:0:0:
229,228,136651,1,8,0:0:0:0:
220,341,136798,1,0,0:0:0:0:
119,195,136945,6,0,L|113:269,1,75,4|0,0:3|0:0,0:0:0:0:
294,169,137239,1,8,0:0:0:0:
201,327,137386,1,0,0:0:0:0:
201,150,137533,2,0,L|206:75,1,75,4|4,0:3|0:3,0:0:0:0:
35,230,137827,1,8,0:0:0:0:
386,229,137975,6,0,P|389:266|377:302,1,75,4|0,0:3|0:0,0:0:0:0:
377,300,138269,1,4,0:3:0:0:
294,169,138416,1,8,0:0:0:0:
477,129,138563,2,0,L|481:222,1,75,4|0,0:3|0:0,0:0:0:0:
352,93,138857,2,0,L|355:18,1,75,4|8,0:3|0:0,0:0:0:0:
198,201,139151,5,0,0:0:0:0:
198,201,139225,1,0,0:0:0:0:
198,201,139298,2,0,P|214:260|207:289,1,75,4|0,0:3|0:0,0:0:0:0:
65,179,139592,1,8,0:0:0:0:
125,249,139739,1,0,0:0:0:0:
148,49,139886,2,0,L|148:138,1,75,4|4,0:3|0:3,0:0:0:0:
65,0,140180,1,8,0:0:0:0:
65,179,140327,1,0,0:0:0:0:
287,32,140475,6,0,P|291:73|270:122,1,75,0|4,0:0|0:3,0:0:0:0:
195,182,140769,1,8,0:0:0:0:
407,213,140916,2,0,L|407:128,1,75,4|0,0:3|0:0,0:0:0:0:
331,303,141210,1,4,0:3:0:0:
287,32,141357,1,8,0:0:0:0:
287,32,141504,1,8,0:0:0:0:
200,250,141651,6,0,L|196:183,1,67.4999979400635,4|0,0:0|0:0,0:0:0:0:
153,334,141945,1,8,0:3:0:0:
153,334,142092,1,4,0:3:0:0:
153,334,142239,6,0,P|102:338|62:314,1,89.9999972534181,12|0,0:0|0:0,0:0:0:0:
112,160,142533,1,8,0:3:0:0:
125,249,142680,1,4,0:3:0:0:
284,138,142975,5,4,0:3:0:0:
299,281,143122,1,8,0:3:0:0:
279,169,143269,1,4,0:3:0:0:
304,250,143416,1,8,0:3:0:0:
308,159,143563,1,4,0:3:0:0:
275,260,143710,1,8,0:3:0:0:
289,209,143857,1,4,0:3:0:0:
399,274,144004,6,0,L|406:155,1,120,4|4,0:0|0:3,0:0:0:0:
202,141,144592,1,14,0:0:0:0:
202,259,144886,1,4,0:3:0:0:
86,167,145033,1,10,0:0:0:0:
94,153,145327,5,8,0:0:0:0:
19,244,145475,1,4,0:3:0:0:
202,259,145769,1,10,0:0:0:0:
206,269,146063,5,4,0:3:0:0:
288,169,146210,1,8,0:0:0:0:
370,286,146357,6,0,L|363:166,1,120,4|4,0:3|0:3,0:0:0:0:
211,280,146945,1,10,0:0:0:0:
209,164,147239,1,4,0:3:0:0:
287,330,147386,1,10,0:0:0:0:
431,327,147680,5,8,0:0:0:0:
422,208,147827,1,4,0:3:0:0:
287,330,148122,1,10,0:0:0:0:
276,335,148416,5,4,0:3:0:0:
109,340,148563,1,8,0:0:0:0:
197,181,148710,6,0,L|190:314,1,120,4|4,0:3|0:3,0:0:0:0:
87,192,149298,1,10,0:0:0:0:
33,279,149592,1,4,0:3:0:0:
39,110,149739,1,10,0:0:0:0:
27,107,150033,5,8,0:0:0:0:
139,59,150180,1,4,0:3:0:0:
157,218,150475,1,10,0:0:0:0:
156,206,150769,5,4,0:3:0:0:
174,349,150916,1,8,0:0:0:0:
39,266,151063,6,0,L|32:146,1,120,4|4,0:3|0:3,0:0:0:0:
261,269,151651,2,0,P|287:231|280:154,1,120,14|4,0:0|0:3,0:0:0:0:
122,84,152239,5,8,0:0:0:0:
221,98,152386,1,8,0:0:0:0:
81,164,152533,2,0,P|120:179|142:202,1,60,8|8,0:3|0:3,0:0:0:0:
261,269,152827,5,10,0:0:0:0:
179,280,152974,1,8,0:0:0:0:
314,335,153122,2,0,P|287:351|275:369,1,37.5,4|4,0:3|0:3,0:0:0:0:
416,253,153416,6,0,P|432:205|418:154,1,89.9999972534181,4|4,0:0|0:3,0:0:0:0:
239,176,154004,1,14,0:0:0:0:
294,102,154298,1,4,0:3:0:0:
331,256,154445,1,10,0:0:0:0:
339,247,154739,5,8,0:0:0:0:
399,159,154886,1,4,0:3:0:0:
236,257,155180,1,10,0:0:0:0:
294,352,155475,5,4,0:3:0:0:
144,281,155622,1,8,0:0:0:0:
339,247,155769,6,0,P|380:271|401:322,1,89.9999972534181,4|4,0:3|0:3,0:0:0:0:
211,358,156357,1,10,0:0:0:0:
235,267,156651,1,4,0:3:0:0:
195,149,156798,1,10,0:0:0:0:
185,156,157092,1,8,0:0:0:0:
96,217,157239,1,4,0:3:0:0:
100,129,157533,5,10,0:0:0:0:
158,273,157680,1,8,0:0:0:0:
115,115,157827,1,8,0:0:0:0:
131,294,157975,1,8,0:0:0:0:
279,200,158122,6,0,P|288:151|271:97,1,75,4|0,0:3|0:0,0:0:0:0:
109,41,158416,2,0,P|106:78|115:115,1,75,8|0,0:0|0:0,0:0:0:0:
198,71,158710,1,4,0:3:0:0:
27,147,158857,2,0,P|58:191|82:203,1,75,4|8,0:3|0:0,0:0:0:0:
205,153,159151,6,0,L|196:258,1,75,4|0,0:3|0:0,0:0:0:0:
130,354,159445,2,0,L|123:279,1,75,4|8,0:3|0:0,0:0:0:0:
285,245,159739,2,0,L|291:319,1,75,4|0,0:3|0:0,0:0:0:0:
230,376,160033,1,4,0:3:0:0:
341,168,160180,1,8,0:0:0:0:
408,247,160327,1,8,0:0:0:0:
408,247,160401,1,8,0:0:0:0:
408,247,160475,6,0,P|436:208|440:173,1,75,4|0,0:3|0:0,0:0:0:0:
385,89,160769,1,10,0:0:0:0:
322,307,160916,2,0,P|290:267|285:229,1,75,4|0,0:0|0:0,0:0:0:0:
242,77,161210,2,0,L|234:165,1,75,8|4,0:3|0:3,0:0:0:0:
190,307,161504,6,0,L|180:246,1,48.7499977684022,4|0,1:3|0:0,0:0:0:0:
322,307,161798,2,0,L|332:246,1,48.7499977684022,4|0,1:3|0:0,0:0:0:0:
379,76,162092,1,4,1:3:0:0:
379,76,162239,2,0,L|393:198,1,112.500004291535,4|0,1:3|0:0,0:0:0:0:
405,269,162827,5,0,0:0:0:0:
185,279,171357,5,0,0:0:0:0:
262,227,171504,1,8,0:0:0:0:
262,227,171577,1,8,0:0:0:0:
262,227,171651,2,0,L|270:146,1,75,8|2,0:0|0:3,0:0:0:0:
101,247,172239,5,4,0:0:0:0:
112,137,172533,1,6,0:3:0:0:
112,137,172680,1,2,0:0:0:0:
185,279,173122,5,6,0:3:0:0:
195,169,173710,1,6,0:3:0:0:
195,169,173857,1,2,0:0:0:0:
262,228,174298,5,6,0:3:0:0:
273,118,174886,1,6,0:3:0:0:
273,118,175033,1,2,0:0:0:0:
327,289,175475,5,6,0:3:0:0:
338,179,176063,1,6,0:3:0:0:
338,179,176210,1,2,0:0:0:0:
411,321,176651,5,6,0:3:0:0:
421,211,177239,1,6,0:3:0:0:
421,211,177386,1,2,0:0:0:0:
488,270,177827,5,6,0:3:0:0:
499,160,178416,1,6,0:3:0:0:
421,211,178563,1,2,0:0:0:0:
421,211,178636,1,2,0:0:0:0:
421,211,178710,2,0,L|435:77,1,131.25,2|0,0:0|0:0,0:0:0:0:
270,303,179298,6,0,P|278:263|267:224,1,82.5000025177003
333,182,179494,2,0,P|305:152|265:143,1,82.5000025177003,0|0,1:0|0:0,0:0:0:0:
263,65,179690,2,0,P|223:74|195:103,1,82.5000025177003,0|0,1:0|0:0,0:0:0:0:
128,63,179886,6,0,P|115:101|125:141,1,82.5000025177003,0|0,1:0|0:0,0:0:0:0:
56,182,180082,2,0,P|84:210|124:219,1,82.5000025177003,0|0,1:0|0:0,0:0:0:0:
128,302,180278,2,0,P|167:292|195:263,1,82.5000025177003,0|0,1:0|0:0,0:0:0:0:
265,144,180475,6,0,P|194:180|125:140,1,165.000005035401,0|8,1:0|0:3,0:0:0:0:
325,252,181651,6,0,L|332:357,1,89.9999972534181,4|0,0:2|0:0,0:0:0:0:
394,182,181945,1,8,1:2:0:0:
444,370,182092,2,0,L|449:280,1,89.9999972534181,0|4,0:0|0:3,0:0:0:0:
459,111,182386,1,4,0:3:0:0:
325,252,182533,1,8,1:2:0:0:
446,102,182680,6,0,L|451:12,1,89.9999972534181,4|0,0:3|0:0,0:0:0:0:
312,71,182975,2,0,L|317:161,1,89.9999972534181,4|8,0:3|1:2,0:0:0:0:
330,341,183269,2,0,P|258:308|253:198,1,179.999994506836,4|4,0:3|0:3,0:0:0:0:
325,252,183710,2,0,P|281:291|226:298,1,89.9999972534181,8|0,1:2|0:0,0:0:0:0:
111,235,184004,6,0,L|116:325,1,89.9999972534181,4|0,0:3|0:0,0:0:0:0:
176,177,184298,1,8,1:2:0:0:
26,372,184445,2,0,L|31:282,1,89.9999972534181,0|4,0:0|0:3,0:0:0:0:
37,200,184739,1,4,0:3:0:0:
183,364,184886,1,8,1:2:0:0:
109,121,185033,6,0,P|158:91|209:96,1,89.9999972534181,4|0,0:3|0:0,0:0:0:0:
361,200,185327,2,0,P|321:179|276:182,1,89.9999972534181,4|8,0:3|1:2,0:0:0:0:
327,371,185622,2,0,B|357:320|357:320|361:200,1,179.999994506836,4|4,0:3|0:3,0:0:0:0:
270,93,186063,1,8,1:2:0:0:
229,251,186210,1,0,0:0:0:0:
393,122,186357,6,0,B|397:2,1,89.9999972534181,4|0,0:3|0:0,0:0:0:0:
190,162,186651,1,8,1:2:0:0:
401,126,186798,2,0,B|398:215,1,89.9999972534181,0|4,0:0|0:3,0:0:0:0:
308,284,187092,2,0,B|310:194,1,89.9999972534181,4|8,0:3|1:2,0:0:0:0:
352,363,187386,6,0,P|305:374|252:355,1,89.9999972534181,4|0,0:3|0:0,0:0:0:0:
110,292,187680,2,0,P|157:281|210:300,1,89.9999972534181,4|8,0:3|1:2,0:0:0:0:
27,367,187975,2,0,L|22:277,1,89.9999972534181,4|0,0:3|0:0,0:0:0:0:
17,190,188269,1,4,0:3:0:0:
151,371,188416,1,8,1:2:0:0:
151,371,188563,1,8,1:2:0:0:
245,150,188710,6,0,B|203:134|164:169|164:169|124:205|79:187,1,157.499995193482,4|0,1:2|0:0,0:0:0:0:
109,114,189004,1,8,1:2:0:0:
270,291,189298,1,4,0:3:0:0:
224,225,189445,1,4,0:3:0:0:
190,298,189592,1,8,1:2:0:0:
389,336,189739,6,0,B|354:322|323:351|323:351|290:380|254:366,1,134.999995880127,4|0,1:2|0:0,0:0:0:0:
270,291,190033,1,4,0:3:0:0:
468,344,190180,1,8,1:2:0:0:
278,282,190327,1,4,0:3:0:0:
104,357,190475,1,8,0:3:0:0:
104,357,190622,1,4,0:3:0:0:
104,357,190769,1,8,1:2:0:0:
89,121,190916,1,8,0:0:0:0:
91,138,190989,1,8,0:0:0:0:
93,151,191063,6,0,P|137:165|197:152,1,84.3750032186509,4|0,0:0|0:0,0:0:0:0:
187,156,191357,6,0,P|164:225|195:278,1,134.999995880127,12|0,1:2|0:0,0:0:0:0:
246,213,191651,1,4,0:3:0:0:
84,229,191798,1,4,0:3:0:0:
276,327,191945,1,8,1:2:0:0:
269,131,192092,6,0,P|236:82|196:69,1,89.9999972534181,4|0,0:3|0:0,0:0:0:0:
25,153,192386,2,0,P|74:120|87:79,1,89.9999972534181,4|8,0:3|1:2,0:0:0:0:
192,275,192680,2,0,B|141:284|141:284|89:340|89:340|29:348,1,179.999994506836,4|4,0:3|0:3,0:0:0:0:
11,272,193122,2,0,B|51:266|51:266|83:229,1,89.9999972534181,8|0,1:2|0:0,0:0:0:0:
209,70,193416,6,0,P|204:125|223:159,1,89.9999972534181,4|0,0:3|0:0,0:0:0:0:
372,61,193710,1,8,1:2:0:0:
365,148,193857,2,0,P|323:135|288:88,1,89.9999972534181,0|4,0:0|0:3,0:0:0:0:
453,31,194151,1,4,0:3:0:0:
284,206,194298,1,8,1:2:0:0:
449,119,194445,6,0,L|444:219,1,89.9999972534181,4|0,0:3|0:0,0:0:0:0:
360,237,194739,2,0,L|365:148,1,89.9999972534181,4|8,0:3|1:2,0:0:0:0:
435,291,195033,2,0,P|379:327|277:277,1,179.999994506836,4|4,0:3|0:3,0:0:0:0:
284,206,195475,1,8,1:2:0:0:
239,362,195622,1,0,0:0:0:0:
360,237,195769,6,0,L|365:148,1,89.9999972534181,4|0,0:3|0:0,0:0:0:0:
370,53,196063,1,8,1:2:0:0:
444,208,196210,2,0,L|449:119,1,89.9999972534181,0|4,0:0|0:3,0:0:0:0:
289,116,196504,2,0,L|284:205,1,89.9999972534181,4|8,0:3|3:2,0:0:0:0:
360,237,196798,6,0,L|365:148,1,89.9999972534181,4|0,0:3|0:0,0:0:0:0:
209,151,197092,2,0,L|204:240,1,89.9999972534181,4|8,0:3|3:2,0:0:0:0:
389,334,197386,2,0,P|330:309|294:321,1,89.9999972534181,4|0,0:3|0:0,0:0:0:0:
231,378,197680,1,0,1:0:0:0:
283,201,197827,1,0,1:0:0:0:
389,334,197975,6,0,P|438:302|452:270,1,75,4|0,0:0|0:0,0:0:0:0:
443,204,198269,1,4,0:3:0:0:
494,364,198416,5,8,0:0:0:0:
365,147,198563,1,8,0:0:0:0:
365,147,198636,1,8,0:0:0:0:
365,147,198710,1,4,0:3:0:0:
211,250,198857,1,4,0:3:0:0:
208,162,199004,1,8,0:0:0:0:
231,328,199151,6,0,P|265:312|287:282,1,75,4|0,0:3|0:0,0:0:0:0:
117,157,199445,1,8,0:0:0:0:
117,157,199519,1,8,0:0:0:0:
117,157,199592,1,8,0:0:0:0:
74,239,199739,1,4,0:3:0:0:
173,84,199886,1,8,0:0:0:0:
211,250,200033,5,4,0:3:0:0:
91,73,200180,1,8,0:0:0:0:
137,301,200327,1,8,0:0:0:0:
137,301,200401,1,8,0:0:0:0:
137,301,200475,5,4,0:3:0:0:
227,156,200622,1,8,1:2:0:0:
265,314,200769,5,4,0:3:0:0:
117,157,200916,1,8,1:2:0:0:
64,345,201063,5,4,0:3:0:0:
304,224,201210,1,8,1:2:0:0:
52,209,201357,5,4,0:3:0:0:
52,209,201504,2,0,P|35:162|49:114,1,75,8|4,1:2|0:3,0:0:0:0:
105,10,201798,2,0,P|129:38|135:78,1,75,8|4,1:2|0:3,0:0:0:0:
280,117,202092,2,0,P|246:77|244:28,1,75,8|4,1:2|0:3,0:0:0:0:
310,285,202386,1,8,1:2:0:0:
393,136,202533,1,4,0:3:0:0:
401,303,202680,1,8,1:2:0:0:
341,206,202827,5,4,0:3:0:0:
495,319,202975,1,8,1:2:0:0:
221,260,203123,5,4,0:3:0:0:
477,157,203270,1,8,1:2:0:0:
306,344,203417,5,4,0:3:0:0:
306,344,203564,2,0,L|216:356,1,75,8|4,1:2|0:3,0:0:0:0:
50,290,203857,2,0,L|140:302,1,75,8|4,1:2|0:3,0:0:0:0:
221,173,204151,2,0,P|167:191|148:222,1,75,8|4,1:2|0:3,0:0:0:0:
320,208,204445,2,0,P|325:163|314:129,1,75,8|4,1:2|0:3,0:0:0:0:
155,102,204739,1,8,1:2:0:0:
221,260,204886,1,4,0:3:0:0:
221,173,205033,1,8,1:2:0:0:
124,299,205180,5,4,0:3:0:0:
320,208,205327,1,8,1:2:0:0:
80,221,205475,5,4,0:3:0:0:
329,286,205622,1,8,1:2:0:0:
220,347,205769,5,4,0:3:0:0:
220,347,205916,2,0,L|308:360,1,75,8|4,1:2|0:3,0:0:0:0:
268,119,206210,6,0,P|236:140|219:172,1,75,8|4,1:2|0:3,0:0:0:0:
408,289,206504,2,0,P|439:269|456:236,1,75,8|4,1:2|0:3,0:0:0:0:
394,66,206798,2,0,L|383:153,1,75,8|4,1:2|0:3,0:0:0:0:
220,347,207092,2,0,L|229:272,1,75,8|8,1:2|1:2,0:0:0:0:
169,97,207386,6,0,P|100:140|161:198,1,168.750006437302,4|8,0:0|0:3,0:0:0:0:
220,172,207975,2,0,P|257:164|284:168,1,56.2500021457673,8|8,0:3|0:3,0:0:0:0:
348,204,208269,2,0,L|352:264,1,56.2500021457673,4|4,0:3|0:3,0:0:0:0:
289,350,208563,5,12,0:0:0:0:
378,71,208857,1,8,1:2:0:0:
378,71,208930,1,8,1:2:0:0:
378,71,209004,1,8,1:2:0:0:
220,172,209151,1,8,0:3:0:0:
210,86,209298,1,8,0:3:0:0:
289,120,209445,1,4,0:3:0:0:
140,137,209592,2,0,P|124:86|133:52,1,75,8|0,0:0|0:0,0:0:0:0:
351,260,209886,5,4,1:2:0:0:
351,260,210916,5,4,1:2:0:0:
351,260,212239,6,0,P|374:209|241:218,1,269.999991760254,4|0,1:2|0:0,0:0:0:0:
