osu file format v14

[General]
AudioFilename: audio.mp3
AudioLeadIn: 0
PreviewTime: 53677
Countdown: 0
SampleSet: Soft
StackLeniency: 0.3
Mode: 0
LetterboxInBreaks: 0
WidescreenStoryboard: 0

[Editor]
DistanceSpacing: 0.8
BeatDivisor: 4
GridSize: 4
TimelineZoom: 2.2

[Metadata]
Title:The Flower of Raison D'etre (Cut Ver.)
TitleUnicode:レゾンデートルの花 (Cut Ver.)
Artist:40mP
ArtistUnicode:40mP
Creator:torriru
Version:spoken's Insane
Source:
Tags:reiSevia Roda Totsuki Shirahane Suou spokenAway spoken hana 40㍍P 40meterP ショートストーリー short story japanese rock vocaloid gumi english ボーカロイド ボカロ no detre
BeatmapID:2728176
BeatmapSetID:1316672

[Difficulty]
HPDrainRate:5
CircleSize:3.8
OverallDifficulty:8
ApproachRate:9
SliderMultiplier:1.7
SliderTickRate:1

[Events]
//Background and Video events
0,0,"flower.jpg",0,0
//Break Periods
//Storyboard Layer 0 (Background)
//Storyboard Layer 1 (Fail)
//Storyboard Layer 2 (Pass)
//Storyboard Layer 3 (Foreground)
//Storyboard Layer 4 (Overlay)
//Storyboard Sound Samples

[TimingPoints]
1095,329.67032967033,4,2,1,50,1,0
1095,-142.857142857143,4,2,1,50,0,0
11314,-166.666666666667,4,2,1,60,0,0
11562,-166.666666666667,4,2,1,5,0,0
11644,-100,4,2,1,65,0,0
16507,-100,4,2,1,5,0,0
16589,-100,4,2,1,65,0,0
21122,-100,4,2,1,65,0,0
21204,-100,4,2,1,65,0,0
22193,-117.647058823529,4,2,1,55,0,0
32743,-117.647058823529,4,2,1,60,0,0
48567,-111.111111111111,4,2,1,65,0,0
51204,-100,4,2,1,65,0,0
53182,-100,4,2,1,70,0,0
53842,-83.3333333333333,4,2,1,75,0,1
58704,-83.3333333333333,4,2,1,75,0,1
58787,-83.3333333333333,4,2,1,75,0,1
69254,-83.3333333333333,4,2,1,75,0,1
69336,-83.3333333333333,4,2,1,75,0,1
74941,-90.9090909090909,4,2,1,70,0,0
75188,-90.9090909090909,4,2,1,70,0,0
75270,-90.9090909090909,4,2,1,70,0,0
79803,-90.9090909090909,4,2,1,70,0,0
79886,-90.9090909090909,4,2,1,70,0,0
82770,-90.9090909090909,4,2,1,70,0,0
82853,-90.9090909090909,4,2,1,70,0,0
85490,-83.3333333333333,4,2,1,75,0,0
90353,-83.3333333333333,4,2,1,75,0,0
90435,-83.3333333333333,4,2,1,75,0,0
93402,-166.666666666667,4,2,1,65,0,0
93649,-166.666666666667,4,2,1,5,0,0
93732,-90.9090909090909,4,2,1,65,0,0
93979,-90.9090909090909,4,2,1,5,0,0
94062,-166.666666666667,4,2,1,65,0,0
94309,-166.666666666667,4,2,1,5,0,0
94391,-90.9090909090909,4,2,1,65,0,0
94638,-90.9090909090909,4,2,1,5,0,0
94721,-166.666666666667,4,2,1,65,0,0
94968,-166.666666666667,4,2,1,5,0,0
95051,-90.9090909090909,4,2,1,65,0,0
96040,-142.857142857143,4,2,1,70,0,0
96699,-200,4,2,1,5,0,0

[Colours]
Combo1 : 188,188,188
Combo2 : 184,201,222
Combo3 : 255,128,128
Combo4 : 156,125,114

[HitObjects]
40,28,1095,6,0,P|126:48|217:67,1,178.499994552612,2|2,0:0|0:0,0:0:0:0:
354,119,1754,2,0,P|308:119|258:233,1,178.499994552612,2|2,0:0|0:0,0:0:0:0:
395,215,2413,2,0,P|363:207|321:197,1,59.4999981842042,2|2,0:0|0:0,0:0:0:0:
266,309,2743,2,0,P|297:301|339:291,1,59.4999981842042,2|0,0:0|0:0,0:0:0:0:
471,264,3073,6,0,B|491:214|491:214|489:181|449:148,1,118.999996368408,2|2,0:0|0:0,0:0:0:0:
391,64,3567,1,2,0:0:0:0:
391,64,3732,2,0,P|330:78|256:96,1,118.999996368408,2|0,0:0|0:0,0:0:0:0:
184,154,4226,1,2,0:0:0:0:
184,154,4391,2,0,P|176:123|166:81,1,59.4999981842042,2|0,0:0|0:0,0:0:0:0:
65,30,4721,1,2,0:0:0:0:
65,30,4886,6,0,B|23:66|23:66|23:108|65:139,1,118.999996368408,2|2,0:0|0:0,0:0:0:0:
109,224,5380,2,0,P|78:216|36:206,1,59.4999981842042,2|0,0:0|0:0,0:0:0:0:
101,342,5710,2,0,P|147:303|214:314,1,118.999996368408,2|2,0:0|0:0,0:0:0:0:
304,368,6204,1,2,0:0:0:0:
304,368,6369,6,0,P|316:310|333:235,1,118.999996368408,2|0,0:0|0:0,0:0:0:0:
214,188,6864,1,2,0:0:0:0:
214,188,7029,2,0,P|222:219|232:261,1,59.4999981842042,2|0,0:0|0:0,0:0:0:0:
362,168,7358,1,2,0:0:0:0:
362,168,7523,6,0,P|315:165|274:88,1,118.999996368408,2|2,0:0|0:0,0:0:0:0:
365,24,8018,2,0,P|357:55|347:97,1,59.4999981842042,2|0,0:0|0:0,0:0:0:0:
431,216,8347,2,0,B|456:168|456:168|458:135|423:98,1,118.999996368408,2|2,0:0|0:0,0:0:0:0:
340,179,8842,1,2,0:0:0:0:
340,179,9007,6,0,P|309:171|267:161,1,59.4999981842042,2|0,0:0|0:0,0:0:0:0:
219,71,9336,2,0,P|188:79|146:89,1,59.4999981842042,2|0,0:0|0:0,0:0:0:0:
190,217,9666,2,0,P|198:186|208:144,1,59.4999981842042,2|0,0:0|0:0,0:0:0:0:
78,103,9996,2,0,P|86:134|96:176,1,59.4999981842042,2|0,0:0|0:0,0:0:0:0:
25,260,10325,1,2,0:0:0:0:
25,260,11314,6,0,P|70:274|107:287,1,76.4999976654053,4|0,3:0|0:0,0:0:0:0:
171,345,11644,6,0,P|136:290|202:203,1,170,6|10,3:2|0:0,0:0:0:0:
292,116,12138,1,0,0:0:0:0:
172,40,12303,2,0,P|182:86|192:135,1,85,2|0,3:2|0:0,0:0:0:0:
296,208,12633,1,10,0:0:0:0:
296,208,12798,1,2,0:0:0:0:
171,296,12963,6,0,P|181:250|191:200,1,85,2|0,3:2|0:0,0:0:0:0:
303,301,13292,2,0,P|313:347|323:396,1,85,10|0,0:0|0:0,0:0:0:0:
453,289,13622,1,2,3:2:0:0:
324,208,13787,1,2,0:0:0:0:
499,146,13952,2,0,P|453:156|403:166,1,85,10|0,0:0|0:0,0:0:0:0:
230,209,14281,6,0,P|214:131|189:29,1,170,2|10,3:2|0:0,0:0:0:0:
319,125,14776,1,0,0:0:0:0:
138,184,14941,2,0,P|128:230|118:280,1,85,2|0,3:2|0:0,0:0:0:0:
209,376,15270,1,10,0:0:0:0:
209,376,15435,1,2,0:0:0:0:
41,384,15600,6,0,P|33:342|21:288,1,85,2|0,3:2|0:0,0:0:0:0:
138,184,15930,2,0,P|92:174|42:164,1,85,10|0,0:0|0:0,0:0:0:0:
7,38,16259,1,2,3:2:0:0:
7,38,16342,2,0,P|53:28|103:18,1,85,8|0,0:0|0:0,0:0:0:0:
162,64,16589,2,0,P|208:74|258:84,1,85,8|0,0:0|0:0,0:0:0:0:
400,24,16919,6,0,P|343:57|367:164,1,170,2|10,3:2|0:0,0:0:0:0:
483,209,17413,1,0,0:0:0:0:
365,286,17578,2,0,P|319:276|269:266,1,85,2|0,3:2|0:0,0:0:0:0:
174,165,17908,1,10,0:0:0:0:
174,165,18073,1,2,0:0:0:0:
111,313,18237,6,0,P|157:303|207:293,1,85,2|0,3:2|0:0,0:0:0:0:
276,174,18567,2,0,P|267:132|256:78,1,85,10|0,0:0|0:0,0:0:0:0:
114,35,18897,1,2,3:2:0:0:
174,165,19062,1,2,0:0:0:0:
281,0,19226,2,0,P|239:9|185:20,1,85,10|0,0:0|0:0,0:0:0:0:
33,102,19556,6,0,P|42:144|53:198,1,85,2|0,3:2|0:0,0:0:0:0:
14,345,19886,1,6,3:1:0:0:
124,243,20051,1,8,0:0:0:0:
124,243,20133,1,8,0:0:0:0:
124,243,20215,1,2,3:2:0:0:
218,366,20380,1,8,0:0:0:0:
223,213,20545,1,10,0:0:0:0:
113,361,20710,1,10,0:0:0:0:
113,361,20792,1,8,0:0:0:0:
113,361,20875,5,10,3:2:0:0:
335,237,21204,1,10,3:2:0:0:
128,157,21534,1,10,3:2:0:0:
128,157,22193,6,0,P|204:141|283:125,1,144.500002756119,6|8,3:2|0:0,0:0:0:0:
388,168,22688,1,2,0:0:0:0:
388,168,22853,2,0,P|379:129|370:77,1,72.2500013780594,2|0,3:2|3:2,0:0:0:0:
497,166,23182,1,10,0:0:0:0:
427,269,23347,6,0,B|360:282|360:282|319:262|282:210,1,144.500002756119,2|2,0:0|0:0,0:0:0:0:
200,331,23842,2,0,P|238:322|290:313,1,72.2500013780594,10|0,0:0|0:0,0:0:0:0:
196,214,24171,2,0,P|157:205|105:196,1,72.2500013780594,2|0,3:2|0:0,0:0:0:0:
53,120,24501,1,10,0:0:0:0:
53,120,24666,1,2,0:0:0:0:
154,25,24831,6,0,P|211:44|221:144,1,144.500002756119,2|8,3:2|0:0,0:0:0:0:
316,25,25325,1,2,0:0:0:0:
316,25,25490,2,0,P|277:34|225:43,1,72.2500013780594,2|0,3:2|3:2,0:0:0:0:
152,109,25820,1,10,0:0:0:0:
263,172,25985,6,0,B|355:142|355:142|408:181,1,144.500002756119,2|2,0:0|0:0,0:0:0:0:
333,295,26479,2,0,B|316:257|316:257|343:210,1,72.2500013780594,10|0,0:0|0:0,0:0:0:0:
471,134,26809,2,0,B|490:173|490:173|463:216,1,72.2500013780594,2|0,3:2|3:2,0:0:0:0:
359,145,27138,1,10,0:0:0:0:
359,145,27303,1,2,0:0:0:0:
460,14,27468,6,0,P|398:60|326:16,1,144.500002756119,2|8,3:2|0:0,0:0:0:0:
222,15,27963,1,2,0:0:0:0:
222,15,28127,2,0,P|231:54|240:106,1,72.2500013780594,2|0,3:2|3:2,0:0:0:0:
335,145,28457,1,10,0:0:0:0:
221,207,28622,6,0,P|146:188|71:172,1,144.500002756119,2|2,0:0|0:0,0:0:0:0:
14,282,29116,2,0,P|6:246|-4:191,1,72.2500013780594,10|0,0:0|0:0,0:0:0:0:
125,270,29446,2,0,P|116:310|107:361,1,72.2500013780594,2|0,3:2|3:2,0:0:0:0:
234,241,29776,1,10,0:0:0:0:
234,241,29941,1,2,0:0:0:0:
272,355,30105,6,0,P|232:346|181:337,1,72.2500013780594,2|0,3:2|0:0,0:0:0:0:
320,245,30435,2,0,P|360:236|411:227,1,72.2500013780594,10|0,0:0|0:0,0:0:0:0:
404,383,30765,2,0,P|395:343|386:292,1,72.2500013780594,2|0,3:2|3:2,0:0:0:0:
490,214,31095,2,0,P|481:254|472:305,1,72.2500013780594,10|0,0:0|0:0,0:0:0:0:
346,163,31424,5,2,3:2:0:0:
489,107,31589,1,10,0:0:0:0:
407,227,31754,1,10,0:0:0:0:
336,80,31919,1,10,3:0:0:0:
280,230,32084,2,0,P|245:221|184:210,1,72.2500013780594,10|8,0:0|3:0,0:0:0:0:
165,218,32331,1,8,3:0:0:0:
165,218,32413,2,0,P|156:183|145:123,1,72.2500013780594,8|0,0:0|0:0,0:0:0:0:
211,13,32743,6,0,P|151:68|81:27,2,144.500002756119,6|10|2,3:2|0:0|3:2,0:0:0:0:
223,127,33567,1,0,3:2:0:0:
353,73,33732,2,0,P|317:64|268:52,1,72.2500013780594,10|0,0:0|0:0,0:0:0:0:
292,215,34062,6,0,P|300:179|312:130,1,72.2500013780594,2|0,3:2|0:0,0:0:0:0:
418,200,34391,2,0,P|426:235|438:284,1,72.2500013780594,10|0,0:0|0:0,0:0:0:0:
325,312,34721,1,2,3:2:0:0:
325,312,34886,1,0,3:2:0:0:
469,377,35051,2,0,P|434:368|385:356,1,72.2500013780594,10|0,0:0|0:0,0:0:0:0:
231,384,35380,6,0,P|222:322|206:235,2,144.500002756119,2|10|2,3:2|0:0|3:2,0:0:0:0:
127,272,36204,1,0,3:2:0:0:
53,372,36369,2,0,B|96:379|96:379|137:347,1,72.2500013780594,10|0,0:0|0:0,0:0:0:0:
27,177,36699,6,0,P|36:212|48:261,1,72.2500013780594,2|0,3:2|0:0,0:0:0:0:
149,178,37029,2,0,P|158:143|170:94,1,72.2500013780594,8|0,0:0|0:0,0:0:0:0:
27,177,37358,1,0,3:2:0:0:
27,177,37523,1,0,3:2:0:0:
123,275,37688,2,0,P|158:266|207:254,1,72.2500013780594,8|0,0:0|0:0,0:0:0:0:
290,136,38018,6,0,B|264:197|264:197|273:249|333:265,2,144.500002756119,2|10|2,3:2|0:0|3:2,0:0:0:0:
424,91,38842,1,0,3:2:0:0:
427,205,39007,2,0,P|392:196|343:184,1,72.2500013780594,10|0,0:0|0:0,0:0:0:0:
440,88,39336,6,0,P|475:79|524:67,1,72.2500013780594,2|0,3:2|0:0,0:0:0:0:
325,25,39666,2,0,P|334:60|346:109,1,72.2500013780594,10|0,0:0|0:0,0:0:0:0:
223,113,39996,1,2,3:2:0:0:
223,113,40160,1,0,3:2:0:0:
285,239,40325,2,0,P|294:204|306:155,1,72.2500013780594,10|0,0:0|0:0,0:0:0:0:
158,209,40655,6,0,P|167:244|179:293,1,72.2500013780594,2|0,3:2|0:0,0:0:0:0:
318,367,40985,2,0,P|283:358|234:346,1,72.2500013780594,10|0,0:0|0:0,0:0:0:0:
369,272,41314,1,2,3:2:0:0:
369,272,41479,1,0,3:2:0:0:
438,378,41644,2,0,P|447:343|459:294,1,72.2500013780594,10|0,0:0|0:0,0:0:0:0:
512,188,41974,6,0,P|477:179|410:165,1,72.2500013780594,2|2,3:2|0:0,0:0:0:0:
395,70,42303,2,0,P|360:79|293:92,1,72.2500013780594,14|2,0:1|3:2,0:0:0:0:
295,100,42551,1,8,0:0:0:0:
295,100,42633,1,10,0:0:0:0:
145,138,42798,1,10,0:0:0:0:
230,30,42963,1,10,0:0:0:0:
253,176,43127,1,10,0:0:0:0:
253,176,43210,1,8,0:0:0:0:
253,176,43292,6,0,P|244:211|235:268,1,72.2500013780594,6|0,3:2|0:0,0:0:0:0:
138,322,43622,2,0,P|132:290|120:230,1,72.2500013780594,10|0,0:0|0:0,0:0:0:0:
16,171,43952,1,2,3:2:0:0:
16,171,44116,1,0,3:2:0:0:
147,86,44281,2,0,B|153:126|153:126|121:170,1,72.2500013780594,10|0,0:0|0:0,0:0:0:0:
217,300,44611,6,0,P|177:247|99:248,2,144.500002756119,2|10|2,3:2|0:0|3:2,0:0:0:0:
361,246,45435,1,0,3:2:0:0:
313,384,45600,2,0,P|307:352|295:292,1,72.2500013780594,10|0,0:0|0:0,0:0:0:0:
462,269,45930,6,0,P|454:311|444:361,1,72.2500013780594,2|0,3:2|0:0,0:0:0:0:
361,246,46259,2,0,P|353:204|343:154,1,72.2500013780594,10|0,0:0|0:0,0:0:0:0:
441,99,46589,1,2,3:2:0:0:
441,99,46754,1,0,3:2:0:0:
334,48,46919,2,0,P|292:40|242:30,1,72.2500013780594,10|0,0:0|0:0,0:0:0:0:
142,159,47248,6,0,L|111:9,2,144.500002756119,2|8|0,3:2|0:0|3:2,0:0:0:0:
252,222,48073,1,0,3:2:0:0:
132,314,48237,2,0,B|120:279|120:279|149:225,1,72.2500013780594,10|2,0:0|0:0,0:0:0:0:
266,359,48567,6,0,B|318:346|361:334|361:334|418:380,1,152.999995330811,2|8,3:2|0:0,0:0:0:0:
498,261,49062,1,2,0:0:0:0:
366,147,49226,2,0,P|314:166|315:278,1,152.999995330811,2|8,3:2|0:0,0:0:0:0:
436,205,49721,1,2,0:0:0:0:
440,77,49886,6,0,P|400:68|338:55,1,76.4999976654053,2|0,3:2|0:0,0:0:0:0:
243,12,50215,2,0,P|203:21|141:34,1,76.4999976654053,10|0,0:0|0:0,0:0:0:0:
215,177,50545,2,0,B|244:148|244:148|227:93,1,76.4999976654053,2|0,3:2|3:2,0:0:0:0:
80,19,50875,2,0,B|51:52|51:52|75:98,1,76.4999976654053,10|0,0:0|0:0,0:0:0:0:
6,255,51204,6,0,P|30:202|140:201,1,170,2|8,3:2|0:0,0:0:0:0:
252,294,51699,1,0,3:2:0:0:
252,294,51781,1,8,0:0:0:0:
252,294,51864,1,0,3:2:0:0:
88,261,52029,1,0,3:2:0:0:
169,376,52193,1,12,0:1:0:0:
178,384,52523,5,8,0:0:0:0:
178,384,52605,1,8,0:0:0:0:
178,384,52688,2,0,L|245:366,1,42.5,8|8,3:0|3:0,0:0:0:0:
302,263,52853,1,8,3:0:0:0:
302,263,52935,1,8,3:0:0:0:
302,263,53018,2,0,L|234:245,1,42.5,4|4,3:0|3:0,0:0:0:0:
327,380,53182,5,10,3:2:0:0:
327,380,53842,6,0,B|385:382|385:382|429:343,1,101.999996887207,6|2,3:2|0:0,0:0:0:0:
505,203,54171,2,0,B|469:167|469:167|403:172,1,101.999996887207,10|2,0:0|0:0,0:0:0:0:
333,29,54501,1,2,3:2:0:0:
504,96,54666,1,2,0:0:0:0:
318,216,54831,2,0,P|330:163|343:103,1,101.999996887207,10|2,0:0|0:0,0:0:0:0:
177,17,55160,6,0,P|189:70|202:129,1,101.999996887207,2|0,3:2|0:0,0:0:0:0:
244,272,55490,2,0,P|191:260|131:246,1,101.999996887207,10|0,0:0|0:0,0:0:0:0:
0,79,55820,2,0,P|74:108|52:230,1,203.999993774414,2|8,3:2|0:0,0:0:0:0:
174,334,56314,1,0,0:0:0:0:
0,383,56479,6,0,P|12:330|25:270,1,101.999996887207,2|2,3:2|0:0,0:0:0:0:
148,131,56809,2,0,P|160:184|173:243,1,101.999996887207,10|2,0:0|0:0,0:0:0:0:
351,286,57138,1,2,3:2:0:0:
243,146,57303,1,2,0:0:0:0:
160,330,57468,2,0,P|213:318|272:305,1,101.999996887207,10|2,0:0|0:0,0:0:0:0:
458,266,57798,6,0,P|446:319|433:378,1,101.999996887207,2|2,3:2|0:0,0:0:0:0:
328,202,58127,2,0,P|381:190|440:177,1,101.999996887207,10|0,0:0|0:0,0:0:0:0:
293,88,58457,1,2,3:2:0:0:
293,88,58540,1,8,0:0:0:0:
293,88,58622,1,0,3:2:0:0:
450,0,58787,2,0,P|438:53|425:112,1,101.999996887207,10|0,0:0|0:0,0:0:0:0:
309,207,59116,6,0,B|256:218|256:218|212:183,1,101.999996887207,2|2,3:2|0:0,0:0:0:0:
101,71,59446,2,0,B|148:38|148:38|211:55,1,101.999996887207,10|2,0:0|0:0,0:0:0:0:
100,192,59776,1,2,3:2:0:0:
0,77,59941,1,2,0:0:0:0:
172,126,60105,1,10,0:0:0:0:
0,220,60270,1,2,0:0:0:0:
156,299,60435,6,0,P|209:287|268:274,1,101.999996887207,2|0,3:2|0:0,0:0:0:0:
409,372,60765,2,0,P|421:319|434:260,1,101.999996887207,10|0,0:0|0:0,0:0:0:0:
282,101,61095,2,0,P|294:154|307:213,1,101.999996887207,2|0,3:2|0:0,0:0:0:0:
461,80,61424,1,10,0:0:0:0:
285,9,61589,1,2,0:0:0:0:
386,186,61754,6,0,P|438:169|498:161,1,101.999996887207,2|0,3:2|0:0,0:0:0:0:
292,285,62084,2,0,P|241:269|180:260,1,101.999996887207,10|0,0:0|0:0,0:0:0:0:
226,70,62413,2,0,P|238:123|251:182,1,101.999996887207,2|0,3:2|0:0,0:0:0:0:
65,274,62743,1,10,0:0:0:0:
147,112,62908,1,2,0:0:0:0:
193,294,63073,5,2,3:2:0:0:
61,162,63238,1,10,0:0:0:0:
31,368,63402,2,0,B|87:382|87:382|144:343,1,101.999996887207,14|6,0:1|3:0,0:0:0:0:
298,261,63732,1,10,0:0:0:0:
298,261,63814,1,8,0:0:0:0:
298,261,63897,1,8,0:0:0:0:
139,213,64062,1,8,0:0:0:0:
232,374,64226,1,8,0:0:0:0:
232,374,64308,1,8,0:0:0:0:
232,374,64391,6,0,P|285:362|344:349,1,101.999996887207,6|2,3:2|0:0,0:0:0:0:
512,240,64721,2,0,P|500:293|487:352,1,101.999996887207,10|2,0:0|0:0,0:0:0:0:
338,213,65051,1,2,3:2:0:0:
502,148,65215,1,2,0:0:0:0:
403,289,65380,1,10,0:0:0:0:
339,123,65545,1,2,0:0:0:0:
271,267,65710,6,0,B|217:279|217:279|174:246,1,101.999996887207,2|0,3:2|0:0,0:0:0:0:
18,129,66040,2,0,B|63:160|63:160|126:141,1,101.999996887207,10|0,0:0|0:0,0:0:0:0:
280,31,66369,2,0,B|229:70|229:70|157:74|99:4,1,203.999993774414,2|8,3:2|0:0,0:0:0:0:
242,163,66864,1,0,0:0:0:0:
408,16,67029,6,0,P|396:69|383:128,1,101.999996887207,2|2,3:2|0:0,0:0:0:0:
236,177,67358,1,10,0:0:0:0:
391,251,67523,1,2,0:0:0:0:
246,363,67688,2,0,P|258:310|271:251,1,101.999996887207,2|2,3:2|0:0,0:0:0:0:
137,131,68018,2,0,P|149:184|162:243,1,101.999996887207,10|2,0:0|0:0,0:0:0:0:
298,100,68347,5,2,3:2:0:0:
151,41,68512,1,2,0:0:0:0:
247,202,68677,2,0,P|295:185|359:177,1,101.999996887207,10|0,0:0|0:0,0:0:0:0:
481,100,69007,1,2,3:2:0:0:
481,100,69089,1,8,0:0:0:0:
481,100,69171,1,0,0:3:0:0:
512,262,69336,2,0,P|459:250|400:237,1,101.999996887207,10|0,0:0|0:0,0:0:0:0:
284,375,69666,6,0,P|337:363|396:350,1,101.999996887207,2|2,3:2|0:0,0:0:0:0:
277,182,69996,2,0,P|265:235|252:294,1,101.999996887207,10|2,0:0|0:0,0:0:0:0:
92,337,70325,1,2,3:2:0:0:
186,189,70490,1,2,0:0:0:0:
76,347,70655,1,10,0:0:0:0:
254,281,70820,1,2,0:0:0:0:
89,210,70985,6,0,P|101:157|114:98,1,101.999996887207,2|0,3:2|0:0,0:0:0:0:
254,32,71314,1,10,0:0:0:0:
292,193,71479,1,2,0:3:0:0:
292,193,71562,1,2,0:0:0:0:
292,193,71644,2,0,P|239:181|180:168,1,101.999996887207,2|0,3:2|0:0,0:0:0:0:
341,57,71974,1,10,0:0:0:0:
385,221,72138,1,2,0:0:0:0:
475,74,72303,6,0,P|487:127|500:186,1,101.999996887207,2|0,3:2|0:0,0:0:0:0:
443,340,72633,2,0,P|394:325|331:315,1,101.999996887207,14|0,0:0|0:0,0:0:0:0:
219,180,72963,2,0,P|270:162|331:155,1,101.999996887207,2|0,3:2|0:0,0:0:0:0:
225,328,73292,2,0,P|176:311|113:303,1,101.999996887207,10|0,0:0|0:0,0:0:0:0:
6,146,73622,6,0,P|18:199|31:258,1,101.999996887207,2|0,3:2|0:0,0:0:0:0:
230,166,73952,1,14,0:0:0:0:
95,45,74116,1,8,0:0:0:0:
95,45,74199,1,8,0:0:0:0:
95,45,74281,1,10,3:0:0:0:
111,216,74446,1,0,3:0:0:0:
212,59,74611,1,10,3:0:0:0:
212,59,74693,1,8,0:0:0:0:
212,59,74776,2,0,L|277:44,1,50.9999984436036,4|4,3:0|3:0,0:0:0:0:
440,26,74941,6,0,B|432:68|432:68|426:80|426:80|417:138,1,93.5000028533936,6|0,3:2|0:0,0:0:0:0:
294,249,75270,2,0,B|356:222|356:222|406:234|406:234|486:197,1,187.000005706787,8|0,0:0|3:2,0:0:0:0:
292,144,75765,1,0,0:0:0:0:
322,331,75930,2,0,B|271:345|271:345|230:314,1,93.5000028533936,10|0,0:0|0:0,0:0:0:0:
85,204,76259,6,0,B|68:141|68:141|78:98|78:98|56:5,2,187.000005706787,0|8|2,3:2|0:0|3:2,0:0:0:0:
0,334,77084,1,0,0:0:0:0:
154,345,77248,2,0,B|196:337|196:337|208:331|208:331|266:322,1,93.5000028533936,12|2,0:0|0:0,0:0:0:0:
398,384,77578,6,0,B|406:342|406:342|412:330|412:330|421:272,1,93.5000028533936,2|2,3:2|0:0,0:0:0:0:
288,161,77908,1,14,0:0:0:0:
327,327,78073,1,2,0:0:0:0:
426,159,78237,1,2,3:2:0:0:
282,250,78402,1,2,0:0:0:0:
269,64,78567,2,0,B|324:59|324:59|363:92,1,93.5000028533936,14|2,0:0|0:0,0:0:0:0:
170,156,78897,6,0,B|139:115|139:115|151:59,1,93.5000028533936,2|2,3:2|0:0,0:0:0:0:
293,157,79226,2,0,B|306:206|306:206|283:241,1,93.5000028533936,10|2,0:0|0:0,0:0:0:0:
140,310,79556,1,0,3:2:0:0:
140,310,79638,1,8,0:0:0:0:
140,310,79721,1,0,0:0:0:0:
274,384,79886,2,0,B|316:376|316:376|328:370|328:370|386:361,1,93.5000028533936,12|0,0:0|0:0,0:0:0:0:
499,266,80215,6,0,B|457:258|457:258|445:252|445:252|387:243,1,93.5000028533936,2|2,3:2|0:0,0:0:0:0:
332,268,80463,1,2,0:0:0:0:
332,268,80545,2,0,B|324:226|324:226|318:214|318:214|309:156,1,93.5000028533936,14|2,0:0|0:0,0:0:0:0:
252,127,80792,1,2,0:0:0:0:
252,127,80875,2,0,B|260:85|260:85|266:73|266:73|275:15,1,93.5000028533936,2|2,3:2|0:0,0:0:0:0:
352,17,81122,1,2,0:0:0:0:
352,17,81204,2,0,B|394:25|394:25|406:31|406:31|464:40,1,93.5000028533936,10|2,0:0|0:0,0:0:0:0:
501,107,81452,1,2,0:0:0:0:
501,107,81534,6,0,B|459:115|459:115|447:121|447:121|389:130,1,93.5000028533936,2|2,3:2|0:0,0:0:0:0:
356,194,81781,1,2,0:0:0:0:
356,194,81864,2,0,B|398:202|398:202|410:208|410:208|468:217,1,93.5000028533936,10|2,0:0|0:0,0:0:0:0:
512,346,82193,2,0,B|470:354|470:354|458:360|458:360|400:369,1,93.5000028533936,2|0,3:2|0:0,0:0:0:0:
264,384,82523,2,0,B|256:342|256:342|250:330|250:330|241:272,1,93.5000028533936,14|0,0:0|0:0,0:0:0:0:
141,194,82853,6,0,L|158:119,3,46.7500014266968,2|0|2|2,3:2|0:0|0:0|0:0,0:0:0:0:
23,208,83182,2,0,L|40:283,1,46.7500014266968,10|0,0:0|0:0,0:0:0:0:
106,353,83347,1,2,0:0:0:0:
106,353,83430,1,0,0:0:0:0:
106,353,83512,2,0,L|181:336,1,46.7500014266968,2|2,3:2|0:0,0:0:0:0:
267,252,83677,2,0,L|192:235,1,46.7500014266968,2|2,0:0|0:0,0:0:0:0:
273,371,83842,1,14,0:0:0:0:
273,371,83925,1,0,0:0:0:0:
273,371,84007,2,0,L|348:354,1,46.7500014266968,2|2,0:0|0:0,0:0:0:0:
456,328,84171,6,0,B|464:286|464:286|470:274|470:274|479:216,1,93.5000028533936,2|10,3:2|0:0,0:0:0:0:
313,153,84501,1,14,0:0:0:0:
471,85,84666,1,10,0:0:0:0:
394,227,84831,1,2,0:0:0:0:
394,227,84913,1,8,0:0:0:0:
394,227,84996,1,8,3:0:0:0:
305,62,85160,1,8,0:0:0:0:
257,231,85325,1,8,0:0:0:0:
257,231,85408,1,8,0:0:0:0:
257,231,85490,6,0,P|208:218|142:202,1,101.999996887207,6|2,3:2|0:0,0:0:0:0:
195,12,85820,2,0,P|208:61|224:127,1,101.999996887207,14|2,0:1|0:0,0:0:0:0:
55,207,86149,1,2,3:2:0:0:
126,58,86314,1,2,0:0:0:0:
173,233,86479,1,10,0:0:0:0:
31,120,86643,1,2,0:0:0:0:
9,313,86809,6,0,B|61:328|61:328|121:286,1,101.999996887207,2|0,3:2|0:0,0:0:0:0:
285,164,87138,2,0,P|236:151|170:135,1,101.999996887207,10|0,0:0|0:0,0:0:0:0:
240,301,87468,1,2,3:2:0:0:
376,173,87633,1,0,0:0:0:0:
421,353,87798,2,0,P|372:340|306:324,1,101.999996887207,8|0,0:0|0:0,0:0:0:0:
501,173,88127,6,0,P|488:222|472:288,1,101.999996887207,2|2,3:2|0:0,0:0:0:0:
351,73,88457,2,0,P|363:125|380:188,1,101.999996887207,10|2,0:0|0:0,0:0:0:0:
216,270,88787,1,2,3:2:0:0:
378,320,88952,1,2,0:0:0:0:
286,176,89116,1,14,0:0:0:0:
390,329,89281,1,2,0:0:0:0:
200,367,89446,6,0,B|149:384|149:384|84:344,1,101.999996887207,2|0,3:2|0:0,0:0:0:0:
5,223,89776,2,0,B|52:190|52:190|114:207,1,101.999996887207,14|0,0:0|0:0,0:0:0:0:
226,68,90105,1,2,3:2:0:0:
226,68,90188,1,8,0:0:0:0:
226,68,90270,1,0,3:2:0:0:
308,220,90435,2,0,P|256:206|193:191,1,101.999996887207,12|0,0:0|0:0,0:0:0:0:
346,70,90765,6,0,P|398:56|461:41,1,101.999996887207,2|2,3:2|0:0,0:0:0:0:
489,233,91095,2,0,P|477:184|460:118,1,101.999996887207,14|2,0:0|0:0,0:0:0:0:
292,229,91424,1,2,3:2:0:0:
454,313,91589,1,2,0:0:0:0:
373,159,91754,1,10,0:0:0:0:
307,328,91919,1,2,0:0:0:0:
240,154,92084,6,0,P|191:166|125:183,1,101.999996887207,2|0,3:2|0:0,0:0:0:0:
11,312,92413,2,0,P|60:324|126:341,1,101.999996887207,14|8,0:0|3:0,0:0:0:0:
144,352,92660,1,8,3:0:0:0:
144,352,92742,1,2,0:0:0:0:
272,240,92908,2,0,L|198:259,1,50.9999984436036,8|8,0:0|0:0,0:0:0:0:
60,190,93073,1,8,3:0:0:0:
60,190,93155,1,8,3:0:0:0:
60,190,93237,2,0,L|79:264,1,50.9999984436036,8|0,3:0|3:2,0:0:0:0:
178,151,93402,6,0,P|187:106|197:60,1,76.4999976654053,2|0,3:2|0:0,0:0:0:0:
262,12,93732,2,0,P|277:89|292:168,1,140.25000428009,14|0,0:0|0:0,0:0:0:0:
360,209,94062,6,0,P|369:164|379:118,1,76.4999976654053,2|0,0:0|0:0,0:0:0:0:
452,70,94391,2,0,P|467:147|482:226,1,140.25000428009,14|0,0:0|0:0,0:0:0:0:
498,287,94721,6,0,P|453:278|407:268,1,76.4999976654053,2|0,0:0|0:0,0:0:0:0:
359,332,95051,2,0,P|307:342|259:351,1,93.5000028533936,14|8,0:0|0:0,0:0:0:0:
242,357,95298,1,8,0:0:0:0:
242,357,95380,1,10,0:0:0:0:
113,248,95545,1,8,3:0:0:0:
263,173,95710,2,0,B|287:223|287:223|259:254,1,93.5000028533936,4|0,3:0|0:0,0:0:0:0:
22,191,96040,6,0,B|91:153|91:153|133:159|133:159|187:136|187:136|172:103|133:89,1,237.999992736817,6|0,3:2|0:0,0:0:0:0:
