osu file format v14

[General]
AudioFilename: audio.mp3
AudioLeadIn: 0
PreviewTime: 53677
Countdown: 0
SampleSet: Soft
StackLeniency: 0.7
Mode: 0
LetterboxInBreaks: 0
WidescreenStoryboard: 1

[Editor]
Bookmarks: 11789,22338,32888,53987,75086,85635,93547,96185
DistanceSpacing: 1.1
BeatDivisor: 4
GridSize: 8
TimelineZoom: 1

[Metadata]
Title:The Flower of Raison D'etre (Cut Ver.)
TitleUnicode:レゾンデートルの花 (Cut Ver.)
Artist:40mP
ArtistUnicode:40mP
Creator:torriru
Version:Suou's Hard
Source:
Tags:reiSevia Roda Totsuki Shirahane Suou spokenAway spoken hana 40㍍P 40meterP ショートストーリー short story japanese rock vocaloid gumi english ボーカロイド ボカロ no detre
BeatmapID:2795225
BeatmapSetID:1316672

[Difficulty]
HPDrainRate:4
CircleSize:3.7
OverallDifficulty:6.5
ApproachRate:7.6
SliderMultiplier:1.5
SliderTickRate:1

[Events]
//Background and Video events
0,0,"flower.jpg",0,0
//Break Periods
//Storyboard Layer 0 (Background)
//Storyboard Layer 1 (Fail)
//Storyboard Layer 2 (Pass)
//Storyboard Layer 3 (Foreground)
//Storyboard Layer 4 (Overlay)
//Storyboard Sound Samples

[TimingPoints]
1095,329.67032967033,4,2,1,50,1,0
11314,-100,4,2,1,60,0,0
11644,-111.111111111111,4,2,1,65,0,0
16507,-111.111111111111,4,2,1,65,0,0
16589,-111.111111111111,4,2,1,65,0,0
21122,-111.111111111111,4,2,1,65,0,0
21204,-111.111111111111,4,2,1,65,0,0
22193,-125,4,2,1,55,0,0
32743,-111.111111111111,4,2,1,60,0,0
48567,-111.111111111111,4,2,1,65,0,0
53182,-111.111111111111,4,2,1,70,0,0
53512,-111.111111111111,4,2,1,5,0,0
53842,-100,4,2,1,75,0,1
58704,-100,4,2,1,75,0,1
58787,-100,4,2,1,75,0,1
69254,-100,4,2,1,75,0,1
69336,-100,4,2,1,75,0,1
74941,-100,4,2,1,70,0,0
75188,-100,4,2,1,70,0,0
75270,-100,4,2,1,70,0,0
79803,-100,4,2,1,70,0,0
79886,-100,4,2,1,70,0,0
82770,-100,4,2,1,70,0,0
82853,-100,4,2,1,70,0,0
85490,-100,4,2,1,75,0,0
90353,-100,4,2,1,75,0,0
90435,-100,4,2,1,75,0,0
93402,-100,4,2,1,65,0,0
93649,-100,4,2,1,65,0,0
93732,-100,4,2,1,65,0,0
93979,-100,4,2,1,65,0,0
94062,-100,4,2,1,65,0,0
94309,-100,4,2,1,65,0,0
94391,-100,4,2,1,65,0,0
94638,-100,4,2,1,65,0,0
94721,-100,4,2,1,65,0,0
94968,-100,4,2,1,65,0,0
95051,-100,4,2,1,65,0,0
96040,-133.333333333333,4,2,1,70,0,0
96699,-133.333333333333,4,2,1,5,0,0

[Colours]
Combo1 : 188,188,188
Combo2 : 184,201,222
Combo3 : 255,128,128
Combo4 : 156,125,114

[HitObjects]
68,118,11314,5,4,3:0:0:0:
68,118,11644,6,0,B|97:134|114:165|114:165|85:194|92:225,2,135,6|10|2,3:2|0:0|3:2,0:0:0:0:
188,225,12633,2,0,P|222:219|255:216,1,67.4999979400635,10|2,0:0|0:0,0:0:0:0:
312,157,12963,6,0,P|349:150|384:164,1,67.5000000000001,2|0,3:2|0:0,0:0:0:0:
451,199,13292,2,0,L|450:282,1,67.5000000000001,10|0,0:0|0:0,0:0:0:0:
412,340,13622,1,2,3:2:0:0:
412,340,13787,1,2,0:0:0:0:
340,301,13952,2,0,P|303:294|268:308,1,67.5000000000001,10|0,0:0|0:0,0:0:0:0:
201,336,14281,6,0,B|166:344|147:370|147:370|121:346|83:341,2,135,2|10|2,3:2|0:0|3:2,0:0:0:0:
130,189,15270,2,0,P|133:155|139:122,1,67.4999979400635,10|2,0:0|0:0,0:0:0:0:
203,70,15600,6,0,P|234:58|266:67,1,67.5000000000001,2|0,3:2|0:0,0:0:0:0:
333,112,15930,2,0,P|364:123|396:114,1,67.5000000000001,10|0,0:0|0:0,0:0:0:0:
468,71,16259,1,2,3:2:0:0:
468,71,16342,1,8,0:0:0:0:
468,71,16424,1,0,3:2:0:0:
510,140,16589,2,0,L|510:227,1,67.5000000000001,8|0,0:0|0:0,0:0:0:0:
442,252,16919,6,0,B|452:307|452:307|440:332|440:332|450:390,2,135,2|10|2,3:2|0:0|3:2,0:0:0:0:
361,111,17908,2,0,P|394:94|431:99,1,67.4999979400635,10|2,0:0|0:0,0:0:0:0:
499,129,18237,6,0,P|508:96|501:64,1,67.5000000000001,2|0,3:2|0:0,0:0:0:0:
439,10,18567,2,0,P|406:1|374:8,1,67.5000000000001,10|0,0:0|0:0,0:0:0:0:
305,49,18897,1,2,3:2:0:0:
305,49,19062,1,2,0:0:0:0:
232,13,19226,2,0,P|199:5|167:14,1,67.5000000000001,10|0,0:0|0:0,0:0:0:0:
114,75,19556,6,0,P|123:107|128:140,1,67.5000000000001,2|0,3:2|0:0,0:0:0:0:
196,186,19886,2,0,P|186:218|181:251,1,67.5000000000001,6|8,3:1|0:0,0:0:0:0:
172,339,20215,1,2,3:2:0:0:
96,294,20380,1,8,0:0:0:0:
19,336,20545,2,0,P|14:302|7:269,1,67.4999979400635,10|10,0:0|0:0,0:0:0:0:
5,229,20792,1,8,0:0:0:0:
5,229,20875,5,10,3:2:0:0:
128,141,21204,1,10,3:2:0:0:
5,34,21534,2,0,P|66:53|111:7,1,135,10|2,3:2|0:0,0:0:0:0:
195,25,22029,1,2,0:0:0:0:
195,25,22193,6,0,P|262:31|334:44,1,120,6|8,3:2|0:0,0:0:0:0:
393,81,22688,1,2,0:0:0:0:
393,81,22853,2,0,P|384:148|378:215,1,120,2|10,3:2|0:0,0:0:0:0:
390,283,23347,1,2,0:0:0:0:
248,370,23677,1,2,0:0:0:0:
248,370,23842,2,0,P|266:337|229:244,1,120,10|2,0:0|3:2,0:0:0:0:
116,128,24501,2,0,P|108:161|103:192,1,60,10|2,0:0|0:0,0:0:0:0:
38,241,24831,6,0,P|101:234|137:279,1,120,2|8,3:2|0:0,0:0:0:0:
192,341,25325,1,2,0:0:0:0:
192,341,25490,2,0,B|223:348|245:363|245:363|266:341|298:333,1,120,2|10,3:2|0:0,0:0:0:0:
376,300,25985,1,2,0:0:0:0:
257,189,26314,1,2,0:0:0:0:
257,189,26479,2,0,P|225:151|250:73,1,120,10|2,0:0|3:2,0:0:0:0:
401,15,27138,2,0,P|434:18|466:25,1,60,10|2,0:0|0:0,0:0:0:0:
509,92,27468,6,0,B|465:111|465:111|471:200,1,120,2|8,3:2|0:0,0:0:0:0:
506,264,27963,1,2,0:0:0:0:
506,264,28127,2,0,P|474:235|385:254,1,120,2|10,3:2|0:0,0:0:0:0:
356,311,28622,1,2,0:0:0:0:
207,244,28952,1,2,0:0:0:0:
207,244,29116,2,0,P|251:291|236:352,1,120,10|2,0:0|3:2,0:0:0:0:
82,307,29776,2,0,P|77:273|69:245,1,60,10|2,0:0|0:0,0:0:0:0:
2,197,30105,6,0,P|55:159|117:174,1,120,2|10,3:2|0:0,0:0:0:0:
271,197,30765,2,0,P|266:129|256:70,1,120,2|10,3:2|0:0,0:0:0:0:
115,10,31424,1,2,3:2:0:0:
115,10,31589,1,10,0:0:0:0:
69,77,31754,2,0,P|99:91|138:92,1,60,10|10,0:0|3:0,0:0:0:0:
198,135,32084,2,0,P|161:125|116:197,1,120,10|8,0:0|0:0,0:0:0:0:
25,328,32743,6,0,B|94:303|78:356|166:312,1,134.999995880127,6|10,3:2|0:0,0:0:0:0:
291,228,33402,2,0,P|301:260|308:293,1,67.5000000000001,2|0,3:2|3:2,0:0:0:0:
379,333,33732,2,0,P|386:300|396:267,1,67.5000000000001,10|0,0:0|0:0,0:0:0:0:
469,230,34062,2,0,P|403:232|363:181,1,135,2|10,3:2|0:0,0:0:0:0:
238,78,34721,1,2,3:2:0:0:
238,78,34886,1,0,3:2:0:0:
305,33,35051,2,0,P|322:64|317:110,1,67.5000000000001,10|0,0:0|0:0,0:0:0:0:
271,158,35380,6,0,B|233:158|204:172|204:172|188:140|157:127,1,135,2|10,3:2|0:0,0:0:0:0:
10,196,36040,2,0,P|11:162|17:129,1,67.5000000000001,2|0,3:2|3:2,0:0:0:0:
34,49,36369,2,0,P|66:56|98:47,1,67.5000000000001,10|0,0:0|0:0,0:0:0:0:
174,14,36699,2,0,P|144:42|162:131,2,134.999995880127,2|8|0,3:2|0:0|3:2,0:0:0:0:
259,8,37523,1,0,3:2:0:0:
259,8,37688,1,8,0:0:0:0:
369,129,38018,6,0,P|421:90|483:111,1,135,2|10,3:2|0:0,0:0:0:0:
510,270,38677,2,0,P|477:262|443:256,1,67.5000000000001,2|0,3:2|3:2,0:0:0:0:
362,246,39007,2,0,P|328:251|295:259,1,67.5000000000001,10|0,0:0|0:0,0:0:0:0:
224,298,39336,2,0,P|269:251|254:188,1,135,2|10,3:2|0:0,0:0:0:0:
161,61,39996,1,2,3:2:0:0:
161,61,40160,1,0,3:2:0:0:
116,132,40325,2,0,P|148:141|181:146,1,67.5000000000001,10|0,0:0|0:0,0:0:0:0:
246,92,40655,6,0,P|290:101|339:33,1,135,2|10,3:2|0:0,0:0:0:0:
422,9,41149,1,0,0:0:0:0:
422,9,41314,2,0,P|414:76|408:143,1,135,2|10,3:2|0:0,0:0:0:0:
465,213,41809,1,0,0:0:0:0:
465,213,41974,2,0,P|435:229|402:230,1,67.5000000000001,2|2,3:2|0:0,0:0:0:0:
332,187,42303,2,0,P|302:170|269:169,1,67.5000000000001,14|2,0:1|3:2,0:0:0:0:
219,233,42633,1,10,0:0:0:0:
184,159,42798,1,10,0:0:0:0:
124,214,42963,2,0,L|46:201,1,67.4999979400635,10|10,0:0|0:0,0:0:0:0:
27,184,43210,1,8,0:0:0:0:
27,184,43292,6,0,B|-16:216|-16:216|3:317,1,135,6|10,3:2|0:0,0:0:0:0:
143,370,43952,2,0,P|175:361|208:355,1,67.5000000000001,2|0,3:2|3:2,0:0:0:0:
283,319,44281,2,0,P|316:325|348:333,1,67.5000000000001,10|0,0:0|0:0,0:0:0:0:
425,372,44611,2,0,B|431:340|452:309|452:309|428:290|417:253,1,135,2|10,3:2|0:0,0:0:0:0:
357,101,45270,1,2,3:2:0:0:
357,101,45435,1,0,3:2:0:0:
319,172,45600,2,0,P|357:185|399:172,1,67.5000000000001,10|0,0:0|0:0,0:0:0:0:
439,121,45930,6,0,P|438:62|364:18,1,135,2|10,3:2|0:0,0:0:0:0:
231,90,46589,2,0,P|226:57|221:24,1,67.5000000000001,2|0,3:2|3:2,0:0:0:0:
153,69,46919,2,0,P|147:102|143:135,1,67.5000000000001,10|0,0:0|0:0,0:0:0:0:
175,210,47248,2,0,P|154:176|60:183,1,135,2|8,3:2|0:0,0:0:0:0:
124,332,47908,1,0,3:2:0:0:
124,332,48073,1,0,3:2:0:0:
195,293,48237,2,0,P|228:294|262:298,1,67.5000000000001,10|2,0:0|0:0,0:0:0:0:
331,342,48567,6,0,B|297:301|297:301|327:206,1,135,2|8,3:2|0:0,0:0:0:0:
388,175,49062,1,2,0:0:0:0:
388,175,49226,2,0,P|345:193|281:138,1,135,2|8,3:2|0:0,0:0:0:0:
268,66,49721,1,2,0:0:0:0:
268,66,49886,2,0,B|301:59|335:81|335:81|352:57|387:43,1,135,2|10,3:2|0:0,0:0:0:0:
509,149,50545,1,2,3:2:0:0:
509,149,50710,1,0,3:2:0:0:
446,200,50875,2,0,P|435:240|450:282,1,67.5000000000001,10|0,0:0|0:0,0:0:0:0:
451,345,51204,6,0,B|378:327|411:377|321:351,1,135,2|8,3:2|0:0,0:0:0:0:
252,306,51699,1,0,3:2:0:0:
252,306,51781,1,8,0:0:0:0:
252,306,51864,2,0,P|253:272|258:239,1,67.5000000000001,0|0,3:2|3:2,0:0:0:0:
301,169,52193,2,0,P|271:154|237:158,1,67.5000000000001,12|0,0:1|0:0,0:0:0:0:
164,192,52523,6,0,L|81:187,1,67.5000000000001,8|8,0:0|3:0,0:0:0:0:
59,160,52770,1,8,3:0:0:0:
63,164,52853,1,8,3:0:0:0:
112,99,53018,1,4,3:0:0:0:
85,22,53182,2,0,P|24:25|32:84,1,135,10|0,3:2|0:0,0:0:0:0:
209,48,53842,6,0,P|246:46|283:47,1,75,6|2,3:2|0:0,0:0:0:0:
364,80,54171,1,10,0:0:0:0:
364,80,54336,1,2,0:0:0:0:
312,144,54501,2,0,P|298:178|301:215,1,75,2|2,3:2|0:0,0:0:0:0:
368,265,54831,2,0,P|381:299|378:336,1,75,10|2,0:0|0:0,0:0:0:0:
304,373,55160,6,0,B|284:339|236:331|236:331|220:362|180:364,1,150,2|10,3:2|0:0,0:0:0:0:
105,330,55655,1,0,0:0:0:0:
112,247,55820,2,0,P|153:259|174:295,1,75,2|0,3:2|0:0,0:0:0:0:
247,252,56149,2,0,P|244:214|246:177,1,75,8|0,0:0|0:0,0:0:0:0:
290,106,56479,6,0,P|255:91|219:96,1,75,2|2,3:2|0:0,0:0:0:0:
173,166,56809,1,10,0:0:0:0:
173,166,56974,1,2,0:0:0:0:
138,92,57138,2,0,P|127:56|137:20,1,75,2|2,3:2|0:0,0:0:0:0:
220,25,57468,2,0,P|230:60|220:96,1,75,10|2,0:0|0:0,0:0:0:0:
173,166,57798,5,2,3:2:0:0:
173,166,57963,1,2,0:0:0:0:
89,162,58127,2,0,P|52:157|15:154,1,75,10|0,0:0|0:0,0:0:0:0:
10,79,58457,1,2,3:2:0:0:
10,79,58540,1,8,0:0:0:0:
10,79,58622,1,0,3:2:0:0:
63,16,58787,2,0,P|104:14|138:30,1,75,10|0,0:0|0:0,0:0:0:0:
191,85,59116,6,0,P|229:79|266:76,1,75,2|2,3:2|0:0,0:0:0:0:
333,26,59446,1,10,0:0:0:0:
333,26,59611,1,2,0:0:0:0:
392,83,59776,2,0,P|404:117|393:153,1,75,2|2,3:2|0:0,0:0:0:0:
327,202,60105,2,0,P|314:236|325:272,1,75,10|2,0:0|0:0,0:0:0:0:
368,343,60435,6,0,B|403:344|440:368|440:368|463:334|495:322,1,150,2|10,3:2|0:0,0:0:0:0:
427,274,60930,1,0,0:0:0:0:
464,200,61095,2,0,P|475:161|453:113,1,75,2|0,3:2|0:0,0:0:0:0:
420,66,61424,1,10,0:0:0:0:
420,66,61589,1,2,0:0:0:0:
347,107,61754,6,0,P|310:101|273:99,1,75,2|0,3:2|0:0,0:0:0:0:
214,40,62084,2,0,P|176:42|139:47,1,75,10|0,0:0|0:0,0:0:0:0:
69,91,62413,2,0,P|56:126|75:178,1,75,2|0,3:2|0:0,0:0:0:0:
134,205,62743,2,0,P|147:240|128:292,1,75,10|2,0:0|0:0,0:0:0:0:
92,344,63073,5,2,3:2:0:0:
92,344,63237,1,10,0:0:0:0:
21,300,63402,2,0,P|8:265|27:213,1,75,14|6,0:1|3:0,0:0:0:0:
64,162,63732,2,0,L|55:113,2,37.5,10|8|8,0:0|0:0|0:0,0:0:0:0:
134,205,64062,1,8,0:0:0:0:
194,150,64226,1,8,0:0:0:0:
194,150,64309,1,8,0:0:0:0:
194,150,64391,6,0,P|237:139|275:150,1,75,6|2,3:2|0:0,0:0:0:0:
339,194,64721,1,10,0:0:0:0:
339,194,64886,1,2,0:0:0:0:
407,147,65051,2,0,P|420:112|412:76,1,75,2|2,3:2|0:0,0:0:0:0:
348,23,65380,2,0,P|310:28|274:37,1,75,10|2,0:0|0:0,0:0:0:0:
195,64,65710,6,0,P|145:13|78:36,1,150,2|10,3:2|0:0,0:0:0:0:
14,89,66204,1,0,0:0:0:0:
71,148,66369,2,0,P|83:182|79:219,1,75,2|0,3:2|0:0,0:0:0:0:
41,296,66699,1,8,0:0:0:0:
41,296,66864,1,0,0:0:0:0:
108,343,67029,6,0,P|149:351|198:328,1,75,2|2,3:2|0:0,0:0:0:0:
235,280,67358,1,10,0:0:0:0:
235,280,67523,1,2,0:0:0:0:
194,208,67688,2,0,P|184:166|196:133,1,75,2|2,3:2|0:0,0:0:0:0:
277,137,68018,2,0,P|286:178|274:211,1,75,10|2,0:0|0:0,0:0:0:0:
321,284,68347,5,2,3:2:0:0:
321,284,68512,1,2,0:0:0:0:
366,215,68677,2,0,P|403:204|461:221,1,75,10|0,0:0|0:0,0:0:0:0:
502,276,69007,1,2,3:2:0:0:
502,276,69089,1,8,0:0:0:0:
502,276,69171,1,0,0:3:0:0:
448,339,69336,2,0,P|413:349|376:345,1,75,10|0,0:0|0:0,0:0:0:0:
320,284,69666,6,0,P|283:288|246:295,1,75,2|2,3:2|0:0,0:0:0:0:
179,341,69996,1,10,0:0:0:0:
179,341,70160,1,2,0:0:0:0:
119,283,70325,2,0,P|105:244|124:198,1,75,2|2,3:2|0:0,0:0:0:0:
169,151,70655,2,0,P|205:144|243:139,1,75,10|2,0:0|0:0,0:0:0:0:
296,203,70985,6,0,P|330:139|300:74,1,150,2|10,3:2|0:0,0:0:0:0:
249,9,71479,1,2,0:3:0:0:
179,54,71644,2,0,P|141:50|104:47,1,75,2|0,3:2|0:0,0:0:0:0:
34,2,71974,2,0,P|18:35|24:71,1,75,10|2,0:0|0:0,0:0:0:0:
80,132,72303,6,0,B|68:191|68:191|92:220|92:220|77:294,1,150,2|14,3:2|0:0,0:0:0:0:
30,336,72798,1,0,0:0:0:0:
99,380,72963,2,0,P|136:375|173:371,1,75,2|0,3:2|0:0,0:0:0:0:
233,314,73292,2,0,P|270:317|307:322,1,75,10|0,0:0|0:0,0:0:0:0:
377,367,73622,6,0,P|328:313|346:244,1,150,2|14,3:2|0:0,0:0:0:0:
408,189,74116,1,8,0:0:0:0:
408,189,74199,1,8,0:0:0:0:
408,189,74281,2,0,P|445:190|482:195,1,75,10|0,3:0|3:0,0:0:0:0:
511,273,74611,2,0,P|473:274|436:279,1,75,10|4,3:0|3:0,0:0:0:0:
368,327,74941,6,0,P|336:363|238:349,1,150,6|8,3:2|0:0,0:0:0:0:
159,348,75435,2,0,B|209:348|209:348|233:304|227:252,1,150,2|0,0:0|0:0,0:0:0:0:
193,176,75930,2,0,P|158:163|121:168,1,75,10|0,0:0|0:0,0:0:0:0:
47,204,76259,6,0,P|94:151|66:85,1,150,0|8,3:2|0:0,0:0:0:0:
126,28,76754,1,0,0:0:0:0:
126,28,76919,2,0,B|161:39|161:39|203:33,1,75,2|0,3:2|0:0,0:0:0:0:
277,5,77248,1,12,0:0:0:0:
336,75,77413,1,2,0:0:0:0:
336,75,77496,1,0,0:0:0:0:
336,75,77578,6,0,P|328:111|324:149,1,75,2|2,3:2|0:0,0:0:0:0:
262,204,77908,1,14,0:0:0:0:
262,204,78073,1,2,0:0:0:0:
324,264,78237,1,2,3:2:0:0:
324,264,78402,1,2,0:0:0:0:
268,325,78567,2,0,P|230:337|192:322,1,75,14|2,0:0|0:0,0:0:0:0:
124,283,78897,6,0,P|123:246|127:209,1,75,2|2,3:2|0:0,0:0:0:0:
188,153,79226,1,10,0:0:0:0:
126,98,79391,1,2,0:0:0:0:
66,155,79556,2,0,L|3:154,2,37.5,0|8|0,3:2|0:0|0:0,0:0:0:0:
127,209,79886,2,0,P|123:246|124:283,1,75,12|0,0:0|0:0,0:0:0:0:
185,339,80215,6,0,P|224:353|279:327,1,75,2|2,3:2|0:0,0:0:0:0:
315,288,80545,2,0,P|354:274|409:300,1,75,14|2,0:0|0:0,0:0:0:0:
424,297,80792,1,2,0:0:0:0:
424,297,80875,2,0,P|424:259|427:222,1,75,2|2,3:2|0:0,0:0:0:0:
474,153,81204,2,0,P|440:137|403:141,1,75,10|2,0:0|0:0,0:0:0:0:
368,161,81452,1,2,0:0:0:0:
368,161,81534,6,0,P|331:154|293:151,1,75,2|2,3:2|0:0,0:0:0:0:
228,99,81864,2,0,P|191:91|156:102,1,75,10|2,0:0|0:0,0:0:0:0:
127,132,82111,1,0,0:0:0:0:
127,132,82193,2,0,P|135:169|139:206,1,75,2|0,3:2|0:0,0:0:0:0:
125,288,82523,1,14,0:0:0:0:
10,169,82853,6,0,P|25:135|13:87,1,75,2|2,3:2|0:0,0:0:0:0:
10,58,83100,1,2,0:0:0:0:
10,58,83182,2,0,L|61:47,3,37.5,10|0|2|0,0:0|0:0|0:0|0:0,0:0:0:0:
85,64,83512,2,0,L|136:75,3,37.5,2|2|2|2,3:2|0:0|0:0|0:0,0:0:0:0:
156,49,83842,1,14,0:0:0:0:
231,103,84007,1,2,0:0:0:0:
231,103,84089,1,2,0:0:0:0:
231,103,84171,6,0,P|244:146|225:194,1,75,2|10,3:2|0:0,0:0:0:0:
197,246,84501,1,14,0:0:0:0:
245,312,84666,1,10,0:0:0:0:
316,271,84831,2,0,L|332:216,2,37.5,2|8|8,0:0|0:0|3:0,0:0:0:0:
338,353,85160,1,8,0:0:0:0:
420,325,85325,1,8,0:0:0:0:
420,325,85408,1,8,0:0:0:0:
420,325,85490,6,0,P|444:287|419:176,1,150,6|14,3:2|0:1,0:0:0:0:
385,117,85985,1,2,0:0:0:0:
311,152,86149,2,0,P|272:157|229:139,1,75,2|2,3:2|0:0,0:0:0:0:
173,94,86479,2,0,P|134:89|91:107,1,75,10|2,0:0|0:0,0:0:0:0:
46,37,86809,6,0,P|61:110|73:184,2,150,2|10|2,3:2|0:0|3:2,0:0:0:0:
215,8,87798,2,0,P|251:5|284:22,1,75,8|0,0:0|0:0,0:0:0:0:
362,49,88127,6,0,B|344:78|324:91|324:91|348:137|340:181,1,150,2|10,3:2|0:0,0:0:0:0:
287,244,88622,1,2,0:0:0:0:
336,310,88787,2,0,P|380:318|419:304,1,75,2|2,3:2|0:0,0:0:0:0:
458,244,89116,2,0,L|458:154,1,75,14|2,0:0|0:0,0:0:0:0:
510,104,89446,6,0,P|443:133|416:62,1,150,2|14,3:2|0:0,0:0:0:0:
261,138,90105,1,2,3:2:0:0:
261,138,90188,1,8,0:0:0:0:
261,138,90270,1,0,3:2:0:0:
225,63,90435,2,0,P|267:54|307:68,1,75,12|0,0:0|0:0,0:0:0:0:
348,127,90765,6,0,P|338:201|330:275,1,150,2|14,3:2|0:0,0:0:0:0:
271,333,91259,1,2,0:0:0:0:
209,277,91424,2,0,P|170:268|128:291,1,75,2|2,3:2|0:0,0:0:0:0:
67,323,91754,2,0,P|62:285|54:249,1,75,10|2,0:0|0:0,0:0:0:0:
1,185,92084,6,0,B|20:159|62:146|62:146|92:173|133:165,1,150,2|14,3:2|0:0,0:0:0:0:
197,113,92578,2,0,L|197:57,2,37.5,8|8|2,3:0|3:0|0:0,0:0:0:0:
269,171,92908,1,8,0:0:0:0:
269,171,92990,1,8,0:0:0:0:
269,171,93073,2,0,L|325:170,3,37.5,8|8|8|0,3:0|3:0|3:0|3:2,0:0:0:0:
347,171,93402,5,2,3:2:0:0:
460,290,93732,2,0,B|422:276|422:276|363:291,1,75,14|0,0:0|0:0,0:0:0:0:
308,307,94062,1,2,0:0:0:0:
195,188,94391,2,0,B|233:202|233:202|292:187,1,75,14|0,0:0|0:0,0:0:0:0:
347,171,94721,1,2,0:0:0:0:
291,15,95051,1,14,0:0:0:0:
232,72,95215,2,0,L|232:136,2,37.5,8|8|10,0:0|0:0|0:0,0:0:0:0:
169,17,95545,1,8,3:0:0:0:
110,74,95710,2,0,B|93:108|93:108|105:152,1,75,4|0,3:0|0:0,0:0:0:0:
76,220,96040,6,0,B|95:195|132:183|132:183|164:191|190:222|190:222|239:227|266:193,1,225.000000000001,6|0,3:2|0:0,0:0:0:0:
