osu file format v14

[General]
AudioFilename: audio.mp3
AudioLeadIn: 0
PreviewTime: 53677
Countdown: 0
SampleSet: Soft
StackLeniency: 0.3
Mode: 0
LetterboxInBreaks: 0
WidescreenStoryboard: 1

[Editor]
DistanceSpacing: 1
BeatDivisor: 4
GridSize: 4
TimelineZoom: 1

[Metadata]
Title:The Flower of Raison D'etre (Cut Ver.)
TitleUnicode:レゾンデートルの花 (Cut Ver.)
Artist:40mP
ArtistUnicode:40mP
Creator:torriru
Version:Normal
Source:
Tags:reiSevia Roda Totsuki Shirahane Suou spokenAway spoken hana 40㍍P 40meterP ショートストーリー short story japanese rock vocaloid gumi english ボーカロイド ボカロ no detre
BeatmapID:2728173
BeatmapSetID:1316672

[Difficulty]
HPDrainRate:3
CircleSize:3
OverallDifficulty:4
ApproachRate:5
SliderMultiplier:0.999999999999999
SliderTickRate:1

[Events]
//Background and Video events
0,0,"flower.jpg",0,0
//Break Periods
//Storyboard Layer 0 (Background)
//Storyboard Layer 1 (Fail)
//Storyboard Layer 2 (Pass)
//Storyboard Layer 3 (Foreground)
//Storyboard Layer 4 (Overlay)
//Storyboard Sound Samples

[TimingPoints]
1095,329.67032967033,4,2,1,50,1,0
11314,-100,4,2,1,60,0,0
11644,-100,4,2,1,65,0,0
16507,-100,4,2,1,65,0,0
16589,-100,4,2,1,65,0,0
21122,-100,4,2,1,65,0,0
21204,-100,4,2,1,65,0,0
22193,-111.111111111111,4,2,1,55,0,0
32743,-111.111111111111,4,2,1,60,0,0
48567,-111.111111111111,4,2,1,65,0,0
51204,-100,4,2,1,65,0,0
53182,-111.111111111111,4,2,1,70,0,0
53842,-90.9090909090908,4,2,1,75,0,1
58704,-90.9090909090908,4,2,1,75,0,1
58787,-90.9090909090908,4,2,1,75,0,1
69254,-90.9090909090908,4,2,1,75,0,1
69336,-90.9090909090908,4,2,1,75,0,1
74941,-90.9090909090908,4,2,1,70,0,0
75188,-90.9090909090908,4,2,1,70,0,0
75270,-90.9090909090908,4,2,1,70,0,0
79803,-90.9090909090908,4,2,1,70,0,0
79886,-90.9090909090908,4,2,1,70,0,0
82770,-90.9090909090908,4,2,1,70,0,0
82853,-90.9090909090908,4,2,1,70,0,0
85490,-90.9090909090908,4,2,1,75,0,0
90353,-90.9090909090908,4,2,1,75,0,0
90435,-90.9090909090908,4,2,1,75,0,0
93402,-100,4,2,1,65,0,0
93649,-100,4,2,1,65,0,0
93732,-100,4,2,1,65,0,0
93979,-100,4,2,1,65,0,0
94062,-100,4,2,1,65,0,0
94309,-100,4,2,1,65,0,0
94391,-100,4,2,1,65,0,0
94638,-100,4,2,1,65,0,0
94721,-100,4,2,1,65,0,0
94968,-100,4,2,1,65,0,0
95051,-100,4,2,1,65,0,0
96040,-111.111111111111,4,2,1,70,0,0
96699,-111.111111111111,4,2,1,5,0,0

[Colours]
Combo1 : 188,188,188
Combo2 : 184,201,222
Combo3 : 255,128,128
Combo4 : 156,125,114

[HitObjects]
60,116,11644,6,0,L|179:105,1,99.9999999999999,6|10,3:2|0:0,0:0:0:0:
244,164,12303,2,0,L|343:172,1,99.9999999999999,2|10,3:2|0:0,0:0:0:0:
396,180,12798,1,2,0:0:0:0:
396,180,12963,2,0,P|380:224|404:284,1,99.9999999999999,2|10,3:2|0:0,0:0:0:0:
328,348,13622,2,0,L|268:342,1,50,2|2,3:2|0:0,0:0:0:0:
228,340,13952,1,10,0:0:0:0:
128,328,14281,6,0,P|142:281|126:234,1,99.9999999999999,2|10,3:2|0:0,0:0:0:0:
52,164,14941,2,0,P|37:117|53:70,1,99.9999999999999,2|10,3:2|0:0,0:0:0:0:
88,36,15435,1,2,0:0:0:0:
88,36,15600,2,0,L|195:45,1,99.9999999999999,2|10,3:2|0:0,0:0:0:0:
264,108,16259,2,0,L|371:99,1,99.9999999999999,2|8,3:2|0:0,0:0:0:0:
440,164,16919,6,0,P|454:211|438:258,1,99.9999999999999,2|10,3:2|0:0,0:0:0:0:
352,308,17579,2,0,P|305:323|258:307,1,99.9999999999999,2|10,3:2|0:0,0:0:0:0:
232,272,18073,1,2,0:0:0:0:
232,272,18237,2,0,L|241:168,1,99.9999999999999,2|10,3:2|0:0,0:0:0:0:
180,92,18897,2,0,L|120:97,1,50,2|2,3:2|0:0,0:0:0:0:
80,100,19226,1,10,0:0:0:0:
32,188,19556,6,0,L|41:295,1,99.9999999999999,2|6,3:2|3:1,0:0:0:0:
116,352,20215,2,0,P|162:367|209:352,1,99.9999999999999,2|10,3:2|0:0,0:0:0:0:
244,316,20710,1,10,0:0:0:0:
244,316,20875,1,10,3:2:0:0:
332,360,21204,1,10,3:2:0:0:
420,312,21534,1,10,3:2:0:0:
416,132,22193,6,0,L|326:124,1,89.999997253418,6|8,3:2|0:0,0:0:0:0:
248,168,22853,2,0,L|158:175,1,89.999997253418,2|10,3:2|0:0,0:0:0:0:
112,172,23347,2,0,P|96:132|108:76,1,89.999997253418,2|2,0:0|0:0,0:0:0:0:
132,52,23842,1,10,0:0:0:0:
216,20,24171,1,2,3:2:0:0:
296,64,24501,2,0,L|351:59,1,44.999998626709,10|2,0:0|0:0,0:0:0:0:
384,44,24831,6,0,L|374:147,1,89.999997253418,2|8,3:2|0:0,0:0:0:0:
432,204,25490,2,0,L|441:307,1,89.999997253418,2|10,3:2|0:0,0:0:0:0:
444,340,25985,2,0,P|404:356|348:344,1,89.999997253418,2|2,0:0|0:0,0:0:0:0:
316,332,26479,1,10,0:0:0:0:
232,368,26809,1,2,3:2:0:0:
152,328,27138,2,0,L|92:333,1,44.999998626709,10|2,0:0|0:0,0:0:0:0:
60,336,27468,6,0,P|48:288|64:240,1,89.999997253418,2|8,3:2|0:0,0:0:0:0:
96,164,28127,2,0,P|108:116|92:68,1,89.999997253418,2|10,3:2|0:0,0:0:0:0:
64,48,28622,2,0,L|164:39,1,89.999997253418,2|2,0:0|0:0,0:0:0:0:
200,36,29116,1,10,0:0:0:0:
284,64,29446,1,2,3:2:0:0:
292,152,29776,2,0,L|286:211,1,44.999998626709,10|2,0:0|0:0,0:0:0:0:
312,236,30105,6,0,L|321:339,1,89.999997253418,2|10,3:2|0:0,0:0:0:0:
244,376,30765,2,0,P|200:384|140:366,1,89.999997253418,2|10,3:2|0:0,0:0:0:0:
116,296,31424,2,0,L|120:244,1,44.999998626709,2|10,3:2|0:0,0:0:0:0:
124,208,31754,1,10,0:0:0:0:
136,120,32084,2,0,P|100:108|44:140,1,89.999997253418,10|8,0:0|0:0,0:0:0:0:
4,204,32743,6,0,L|13:311,1,89.999997253418,6|10,3:2|0:0,0:0:0:0:
84,344,33402,1,2,3:2:0:0:
168,296,33732,1,10,0:0:0:0:
244,340,34062,2,0,P|288:356|336:340,1,89.999997253418,2|10,3:2|0:0,0:0:0:0:
400,284,34721,2,0,P|443:273|486:285,1,89.999997253418,2|10,3:2|0:0,0:0:0:0:
500,196,35380,5,2,3:2:0:0:
472,112,35710,1,10,0:0:0:0:
496,24,36040,2,0,L|404:32,1,89.999997253418,2|10,3:2|0:0,0:0:0:0:
320,56,36699,2,0,B|255:38|255:38|189:57,2,134.999995880127,2|0|8,3:2|0:0|0:0,0:0:0:0:
360,136,38018,6,0,L|351:227,1,89.999997253418,2|10,3:2|0:0,0:0:0:0:
280,280,38677,1,2,3:2:0:0:
200,240,39007,1,10,0:0:0:0:
120,284,39336,2,0,P|76:296|32:284,1,89.999997253418,2|10,3:2|0:0,0:0:0:0:
4,200,39996,2,0,L|11:110,1,89.999997253418,2|10,3:2|0:0,0:0:0:0:
84,56,40655,5,2,3:2:0:0:
168,88,40985,1,10,0:0:0:0:
244,40,41314,2,0,L|339:48,1,89.999997253418,2|10,3:2|0:0,0:0:0:0:
392,120,41974,6,0,L|387:171,1,44.999998626709,2|2,3:2|0:0,0:0:0:0:
360,200,42303,2,0,L|364:251,1,44.999998626709,14|2,0:1|3:2,0:0:0:0:
392,280,42633,2,0,L|387:331,1,44.999998626709,10|10,0:0|0:0,0:0:0:0:
360,360,42963,1,10,0:0:0:0:
276,328,43292,6,0,L|180:319,1,89.999997253418,6|10,3:2|0:0,0:0:0:0:
156,236,43952,1,2,3:2:0:0:
192,156,44281,1,10,0:0:0:0:
128,92,44611,2,0,P|84:76|36:92,1,89.999997253418,2|10,3:2|0:0,0:0:0:0:
8,168,45270,2,0,L|16:267,1,89.999997253418,2|10,3:2|0:0,0:0:0:0:
72,328,45930,5,2,3:2:0:0:
152,292,46259,1,10,0:0:0:0:
232,336,46589,2,0,L|327:327,1,89.999997253418,2|10,3:2|0:0,0:0:0:0:
384,264,47248,2,0,P|373:220|389:179,1,89.999997253418,2|8,3:2|0:0,0:0:0:0:
444,108,47908,1,0,3:2:0:0:
408,28,48237,2,0,L|364:31,1,44.999998626709,10|2,0:0|0:0,0:0:0:0:
332,64,48567,6,0,P|289:75|247:59,1,89.999997253418,2|8,3:2|0:0,0:0:0:0:
216,36,49062,1,2,0:0:0:0:
216,36,49226,2,0,P|174:20|131:31,1,89.999997253418,2|8,3:2|0:0,0:0:0:0:
64,88,49886,1,2,3:2:0:0:
132,148,50215,1,10,0:0:0:0:
68,208,50545,2,0,L|59:297,1,89.999997253418,2|10,3:2|0:0,0:0:0:0:
136,360,51204,6,0,P|182:377|230:364,1,99.9999999999999,2|8,3:2|0:0,0:0:0:0:
312,308,51864,2,0,P|358:290|406:302,1,99.9999999999999,0|12,3:2|0:1,0:0:0:0:
500,340,52523,2,0,L|494:287,1,50,8|8,0:0|3:0,0:0:0:0:
492,240,52853,2,0,L|496:187,1,50,8|4,3:0|3:0,0:0:0:0:
472,152,53182,1,10,3:2:0:0:
300,12,53842,6,0,L|295:67,1,55.0000016784668,6|2,3:2|0:0,0:0:0:0:
328,116,54171,2,0,L|332:171,1,55.0000016784668,10|2,0:0|0:0,0:0:0:0:
300,216,54501,2,0,L|295:271,1,55.0000016784668,2|2,3:2|0:0,0:0:0:0:
324,320,54831,1,10,0:0:0:0:
224,368,55160,2,0,L|108:357,1,110.000003356934,2|10,3:2|0:0,0:0:0:0:
52,268,55820,2,0,P|68:236|48:156,1,110.000003356934,2|8,3:2|0:0,0:0:0:0:
48,56,56479,6,0,L|103:60,1,55.0000016784668,2|2,3:2|0:0,0:0:0:0:
148,28,56809,2,0,L|203:23,1,55.0000016784668,10|2,0:0|0:0,0:0:0:0:
248,56,57138,2,0,L|303:60,1,55.0000016784668,2|2,3:2|0:0,0:0:0:0:
352,32,57468,1,10,0:0:0:0:
444,92,57798,2,0,L|452:159,1,55.0000016784668,2|2,3:2|0:0,0:0:0:0:
456,200,58127,1,10,0:0:0:0:
468,308,58457,2,0,P|416:320|352:297,1,110.000003356934,2|10,3:2|0:0,0:0:0:0:
308,208,59116,6,0,L|252:203,1,55.0000016784668,2|2,3:2|0:0,0:0:0:0:
208,232,59446,2,0,L|152:236,1,55.0000016784668,10|2,0:0|0:0,0:0:0:0:
104,204,59776,2,0,L|48:199,1,55.0000016784668,2|2,3:2|0:0,0:0:0:0:
0,228,60105,1,10,0:0:0:0:
12,120,60435,2,0,P|36:64|16:12,1,110.000003356934,2|10,3:2|0:0,0:0:0:0:
132,8,61095,2,0,L|247:18,1,110.000003356934,2|10,3:2|0:0,0:0:0:0:
292,48,61589,1,2,0:0:0:0:
292,48,61754,6,0,L|401:38,1,110.000003356934,2|10,3:2|0:0,0:0:0:0:
508,68,62413,1,2,3:2:0:0:
476,172,62743,2,0,L|471:228,1,55.0000016784668,10|2,0:0|0:0,0:0:0:0:
488,280,63073,2,0,P|428:296|372:276,1,110.000003356934,2|14,3:2|0:1,0:0:0:0:
344,256,63567,1,6,3:0:0:0:
344,256,63732,2,0,P|284:240|228:260,1,110.000003356934,10|8,0:0|0:0,0:0:0:0:
148,316,64391,6,0,L|153:261,1,55.0000016784668,6|2,3:2|0:0,0:0:0:0:
120,216,64721,2,0,L|116:161,1,55.0000016784668,10|2,0:0|0:0,0:0:0:0:
148,116,65050,2,0,L|153:61,1,55.0000016784668,2|2,3:2|0:0,0:0:0:0:
124,12,65380,1,10,0:0:0:0:
16,28,65710,2,0,P|36:80|26:143,1,110.000003356934,2|10,3:2|0:0,0:0:0:0:
108,212,66369,2,0,P|88:264|97:327,1,110.000003356934,2|8,3:2|0:0,0:0:0:0:
192,364,67029,6,0,L|247:359,1,55.0000016784668,2|2,3:2|0:0,0:0:0:0:
292,328,67358,2,0,L|347:332,1,55.0000016784668,10|2,0:0|0:0,0:0:0:0:
396,356,67688,2,0,L|451:351,1,55.0000016784668,2|2,3:2|0:0,0:0:0:0:
500,324,68018,1,10,0:0:0:0:
492,216,68347,2,0,L|484:149,1,55.0000016784668,2|2,3:2|0:0,0:0:0:0:
484,108,68677,1,10,0:0:0:0:
408,28,69007,2,0,P|356:8|300:24,1,110.000003356934,2|10,3:2|0:0,0:0:0:0:
300,132,69666,6,0,L|245:137,1,55.0000016784668,2|2,3:2|0:0,0:0:0:0:
204,104,69995,2,0,L|149:100,1,55.0000016784668,10|2,0:0|0:0,0:0:0:0:
104,132,70325,2,0,L|49:137,1,55.0000016784668,2|2,3:2|0:0,0:0:0:0:
0,108,70655,1,10,0:0:0:0:
8,216,70985,2,0,P|27:266|15:319,1,110.000003356934,2|10,3:2|0:0,0:0:0:0:
116,364,71644,2,0,L|225:373,1,110.000003356934,2|10,3:2|0:0,0:0:0:0:
280,356,72138,1,2,0:0:0:0:
280,356,72303,6,0,L|389:346,1,110.000003356934,2|14,3:2|0:0,0:0:0:0:
444,248,72963,1,2,3:2:0:0:
400,148,73292,1,10,0:0:0:0:
444,48,73622,2,0,L|335:58,1,110.000003356934,2|14,3:2|0:0,0:0:0:0:
240,112,74281,2,0,L|131:102,1,110.000003356934,10|10,3:0|3:0,0:0:0:0:
32,52,74941,6,0,B|16:104|16:104|36:144|36:144|-12:200|32:272,1,220.000006713867,6|0,3:2|3:2,0:0:0:0:
108,328,75930,1,10,0:0:0:0:
200,260,76259,2,0,L|319:270,2,110.000003356934,0|8|2,3:2|0:0|3:2,0:0:0:0:
120,192,77248,1,12,0:0:0:0:
188,104,77578,6,0,L|251:109,1,55.0000016784668,2|2,3:2|0:0,0:0:0:0:
296,116,77908,1,14,0:0:0:0:
388,56,78237,2,0,L|451:50,1,55.0000016784668,2|2,3:2|0:0,0:0:0:0:
496,44,78567,1,14,0:0:0:0:
476,152,78897,2,0,L|486:271,1,110.000003356934,2|10,3:2|0:0,0:0:0:0:
492,316,79391,2,0,P|436:284|336:328,1,165.0000050354,2|12,0:0|0:0,0:0:0:0:
252,368,80215,5,2,3:2:0:0:
156,316,80545,1,14,0:0:0:0:
52,352,80875,1,2,3:2:0:0:
0,256,81204,1,10,0:0:0:0:
72,172,81534,2,0,P|124:188|196:164,1,110.000003356934,2|10,3:2|0:0,0:0:0:0:
264,108,82193,2,0,P|316:92|388:116,1,110.000003356934,2|14,3:2|0:0,0:0:0:0:
480,132,82853,5,2,3:2:0:0:
480,132,83018,2,0,L|474:195,1,55.0000016784668,2|10,0:0|0:0,0:0:0:0:
444,232,83347,1,2,0:0:0:0:
444,232,83512,2,0,L|449:295,1,55.0000016784668,2|2,3:2|0:0,0:0:0:0:
480,332,83842,1,14,0:0:0:0:
380,380,84171,6,0,L|268:374,1,110.000003356934,2|14,3:2|0:0,0:0:0:0:
224,352,84666,1,10,0:0:0:0:
224,352,84831,2,0,B|216:320|216:320|230:297|230:297|196:244|240:188,1,165.0000050354,2|8,0:0|0:0,0:0:0:0:
276,164,85490,6,0,L|271:109,1,55.0000016784668,6|2,3:2|0:0,0:0:0:0:
268,52,85820,1,14,0:1:0:0:
168,8,86149,2,0,L|113:12,1,55.0000016784668,2|2,3:2|0:0,0:0:0:0:
56,16,86479,1,10,0:0:0:0:
16,120,86809,6,0,L|27:251,1,110.000003356934,2|10,3:2|0:0,0:0:0:0:
8,340,87468,2,0,P|60:320|132:348,1,110.000003356934,2|8,3:2|0:0,0:0:0:0:
220,356,88127,6,0,L|274:351,1,55.0000016784668,2|2,3:2|0:0,0:0:0:0:
332,348,88457,1,10,0:0:0:0:
396,260,88787,2,0,L|391:205,1,55.0000016784668,2|2,3:2|0:0,0:0:0:0:
388,148,89116,1,14,0:0:0:0:
436,48,89446,6,0,P|383:36|332:56,1,110.000003356934,2|14,3:2|0:0,0:0:0:0:
252,132,90105,2,0,P|199:143|148:123,1,110.000003356934,2|12,3:2|0:0,0:0:0:0:
52,68,90765,6,0,L|47:122,1,55.0000016784668,2|2,3:2|0:0,0:0:0:0:
44,180,91095,1,14,0:0:0:0:
112,268,91424,2,0,L|116:322,1,55.0000016784668,2|2,3:2|0:0,0:0:0:0:
120,380,91754,1,10,0:0:0:0:
204,308,92084,6,0,P|254:288|307:300,1,110.000003356934,2|14,3:2|0:0,0:0:0:0:
384,224,92743,2,0,P|440:244|492:228,1,110.000003356934,2|8,0:0|3:0,0:0:0:0:
512,184,93237,1,8,3:0:0:0:
512,184,93402,5,2,3:2:0:0:
496,84,93732,2,0,B|452:68|452:68|392:84,1,99.9999999999999,14|2,0:0|0:0,0:0:0:0:
328,152,94391,2,0,B|284:168|284:168|224:152,1,99.9999999999999,14|2,0:0|0:0,0:0:0:0:
152,96,95051,2,0,B|108:80|108:80|48:96,1,99.9999999999999,14|10,0:0|0:0,0:0:0:0:
24,132,95545,1,8,3:0:0:0:
24,132,95710,2,0,L|28:187,1,50,4|0,3:0|0:0,0:0:0:0:
32,228,96040,6,0,B|100:222|100:222|138:243|138:243|213:236,1,179.999994506836,6|0,3:2|0:0,0:0:0:0:
