osu file format v14

[General]
AudioFilename: audio.mp3
AudioLeadIn: 0
PreviewTime: 53677
Countdown: 0
SampleSet: Soft
StackLeniency: 0.3
Mode: 0
LetterboxInBreaks: 0
WidescreenStoryboard: 0

[Editor]
Bookmarks: 1240,11789,22338,32888,53987,75086,93547,96185
DistanceSpacing: 1.6
BeatDivisor: 4
GridSize: 4
TimelineZoom: 1.5

[Metadata]
Title:The Flower of Raison D'etre (Cut Ver.)
TitleUnicode:レゾンデートルの花 (Cut Ver.)
Artist:40mP
ArtistUnicode:40mP
Creator:torriru
Version:Broken
Source:
Tags:reiSevia Roda Totsuki Shirahane Suou spokenAway spoken hana 40㍍P 40meterP ショートストーリー short story japanese rock vocaloid gumi english ボーカロイド ボカロ no detre
BeatmapID:2728174
BeatmapSetID:1316672

[Difficulty]
HPDrainRate:5.5
CircleSize:4
OverallDifficulty:9
ApproachRate:9.2
SliderMultiplier:1.8
SliderTickRate:1

[Events]
//Background and Video events
0,0,"flower.jpg",0,0
//Break Periods
//Storyboard Layer 0 (Background)
//Storyboard Layer 1 (Fail)
//Storyboard Layer 2 (Pass)
//Storyboard Layer 3 (Foreground)
//Storyboard Layer 4 (Overlay)
//Storyboard Sound Samples

[TimingPoints]
1095,329.67032967033,4,2,1,50,1,0
1095,-142.857142857143,4,2,1,50,0,0
11314,-142.857142857143,4,2,1,60,0,0
11644,-111.111111111111,4,2,1,65,0,0
19803,-111.111111111111,4,2,1,5,0,0
19886,-111.111111111111,4,2,1,65,0,0
20957,-111.111111111111,4,2,1,5,0,0
21204,-111.111111111111,4,2,1,65,0,0
21286,-111.111111111111,4,2,1,5,0,0
21534,-250,4,2,1,65,0,0
22193,-125,4,2,1,55,0,0
32743,-117.647058823529,4,2,1,60,0,0
40902,-117.647058823529,4,2,1,5,0,0
40985,-117.647058823529,4,2,1,60,0,0
41561,-117.647058823529,4,2,1,5,0,0
41644,-111.111111111111,4,2,1,60,0,0
48567,-111.111111111111,4,2,1,65,0,0
53182,-111.111111111111,4,2,1,70,0,0
53511,-111.111111111111,4,2,1,5,0,0
53842,-111.111111111111,4,2,1,75,0,1
55160,-100,4,2,1,75,0,1
58704,-100,4,2,1,5,0,1
58787,-100,4,2,1,75,0,1
69253,-100,4,2,1,5,0,1
69336,-100,4,2,1,75,0,1
74941,-100,4,2,1,70,0,0
79802,-100,4,2,1,5,0,0
79886,-100,4,2,1,70,0,0
85490,-100,4,2,1,75,0,0
90352,-100,4,2,1,5,0,0
90435,-100,4,2,1,75,0,0
93402,-250,4,2,1,65,0,0
93649,-250,4,2,1,5,0,0
93732,-83.3333333333333,4,2,1,65,0,0
93979,-83.3333333333333,4,2,1,5,0,0
94062,-250,4,2,1,65,0,0
94309,-250,4,2,1,5,0,0
94391,-83.3333333333333,4,2,1,65,0,0
94638,-83.3333333333333,4,2,1,5,0,0
94721,-250,4,2,1,65,0,0
94968,-250,4,2,1,5,0,0
95051,-83.3333333333333,4,2,1,65,0,0
95710,-100,4,2,1,65,0,0
96040,-142.857142857143,4,2,1,70,0,0
96699,-142.857142857143,4,2,1,5,0,0

[Colours]
Combo1 : 188,188,188
Combo2 : 184,201,222
Combo3 : 255,128,128
Combo4 : 156,125,114

[HitObjects]
32,144,1095,6,1,B|63:122|102:141|85:147|121:164|152:146,1,126,2|0,0:0|0:0,0:0:0:0:
252,72,1589,1,2,0:0:0:0:
252,72,1754,2,0,L|230:198,1,126,2|0,0:0|0:0,0:0:0:0:
152,288,2248,1,2,0:0:0:0:
152,288,2413,6,0,L|219:276,1,62.9999999999999,2|2,0:0|0:0,0:0:0:0:
328,356,2743,2,0,L|266:345,1,62.9999999999999,2|0,0:0|0:0,0:0:0:0:
328,156,3073,2,1,B|295:191|295:191|312:270,1,126,2|2,0:0|0:0,0:0:0:0:
420,376,3567,1,2,0:0:0:0:
420,376,3732,6,0,L|396:242,1,126,2|0,0:0|0:0,0:0:0:0:
447,153,4226,1,2,0:0:0:0:
447,153,4391,2,1,B|416:131|377:150|394:156|358:173|327:155,1,126,2|2,0:0|0:0,0:0:0:0:
224,64,4886,6,1,B|257:99|257:99|240:178,1,126,2|2,0:0|0:0,0:0:0:0:
140,240,5380,2,0,L|151:178,1,62.9999999999999,2|0,0:0|0:0,0:0:0:0:
48,96,5710,2,0,L|59:158,1,62.9999999999999,2|0,0:0|0:0,0:0:0:0:
32,8,6040,1,2,0:0:0:0:
32,8,6204,1,2,0:0:0:0:
132,48,6369,6,1,B|179:39|179:39|204:55|204:55|253:46,1,126,2|0,0:0|0:0,0:0:0:0:
356,144,6864,1,2,0:0:0:0:
356,144,7029,2,1,B|323:109|323:109|340:30,1,126,2|2,0:0|0:0,0:0:0:0:
416,212,7523,6,0,P|376:236|300:212,1,126,2|2,0:0|0:0,0:0:0:0:
197,137,8018,2,0,L|208:200,1,62.9999999999999,2|0,0:0|0:0,0:0:0:0:
96,236,8347,2,0,L|106:173,1,62.9999999999999,2|0,0:0|0:0,0:0:0:0:
88,324,8677,1,2,0:0:0:0:
88,324,8842,1,2,0:0:0:0:
188,252,9007,6,0,L|250:262,1,62.9999999999999,2|0,0:0|0:0,0:0:0:0:
336,344,9336,2,0,L|273:354,1,62.9999999999999,2|0,0:0|0:0,0:0:0:0:
384,212,9666,2,0,L|394:274,1,62.9999999999999,2|0,0:0|0:0,0:0:0:0:
488,328,9996,2,0,L|498:265,1,62.9999999999999,2|0,0:0|0:0,0:0:0:0:
456,112,10325,6,0,L|466:174,2,62.9999999999999,2|2|2,0:0|0:0|0:0,0:0:0:0:
476,32,10820,1,2,0:0:0:0:
476,32,10985,2,1,B|445:10|404:24|423:35|387:52|356:34,1,126,2|4,0:0|3:0,0:0:0:0:
60,240,11644,6,0,B|120:229|120:229|152:249|152:249|214:238,1,162,6|10,3:2|0:0,0:0:0:0:
380,156,12138,1,0,0:0:0:0:
204,56,12303,2,0,L|189:139,1,81.0000000000001,2|0,3:2|0:0,0:0:0:0:
144,328,12633,1,10,0:0:0:0:
24,172,12798,1,2,0:0:0:0:
214,237,12963,6,0,L|297:222,1,81.0000000000001,2|0,3:2|0:0,0:0:0:0:
464,144,13292,2,0,L|384:130,1,81.0000000000001,10|0,0:0|0:0,0:0:0:0:
192,88,13622,1,2,3:2:0:0:
364,12,13787,1,2,0:0:0:0:
293,222,13952,2,0,L|279:142,1,81.0000000000001,10|0,0:0|0:0,0:0:0:0:
60,0,14281,6,0,B|101:44|101:44|80:144,1,162,2|10,3:2|0:0,0:0:0:0:
192,316,14776,1,0,0:0:0:0:
279,142,14941,2,0,L|359:128,1,81.0000000000001,2|0,3:2|0:0,0:0:0:0:
308,328,15270,1,10,0:0:0:0:
200,160,15435,1,2,0:0:0:0:
408,228,15600,6,0,L|328:242,1,81.0000000000001,2|0,3:2|0:0,0:0:0:0:
144,300,15930,2,0,L|224:314,1,81.0000000000001,10|0,0:0|0:0,0:0:0:0:
124,132,16259,1,2,3:2:0:0:
124,132,16342,1,8,0:0:0:0:
124,132,16424,1,0,3:2:0:0:
56,288,16589,1,8,0:0:0:0:
220,184,16754,1,0,0:0:0:0:
0,60,16919,6,0,B|40:89|90:64|68:56|115:35|154:57,1,162,2|10,3:2|0:0,0:0:0:0:
328,136,17413,1,0,0:0:0:0:
110,211,17578,2,0,L|124:131,1,81.0000000000001,2|0,3:2|0:0,0:0:0:0:
280,244,17908,1,10,0:0:0:0:
92,292,18073,1,2,0:0:0:0:
206,104,18237,6,0,L|220:184,1,81.0000000000001,2|0,3:2|0:0,0:0:0:0:
328,380,18567,2,0,L|342:300,1,81.0000000000001,10|0,0:0|0:0,0:0:0:0:
456,132,18897,1,2,3:2:0:0:
496,324,19062,1,2,0:0:0:0:
356,220,19226,2,0,L|370:140,1,81.0000000000001,10|0,0:0|0:0,0:0:0:0:
512,12,19556,6,0,P|457:-10|403:13,1,121.5,2|0,3:2|0:0,0:0:0:0:
384,36,19886,2,0,L|398:116,1,81.0000000000001,6|8,3:1|0:0,0:0:0:0:
408,152,20133,1,8,0:0:0:0:
408,152,20215,5,2,3:2:0:0:
200,84,20380,1,8,0:0:0:0:
336,248,20545,1,10,0:0:0:0:
292,0,20710,1,10,0:0:0:0:
292,0,20792,1,8,0:0:0:0:
292,0,20875,6,0,L|283:41,1,40.5,10|0,3:2|0:0,0:0:0:0:
180,240,21204,6,0,L|171:198,1,40.5,10|0,3:2|0:0,0:0:0:0:
52,0,21534,6,0,L|38:70,1,72,10|2,3:2|0:0,0:0:0:0:
0,308,22193,6,0,B|53:298|53:298|81:316|81:316|136:306,1,144,6|8,3:2|0:0,0:0:0:0:
236,240,22688,1,2,0:0:0:0:
236,240,22853,2,0,L|209:389,1,144,2|10,3:2|0:0,0:0:0:0:
304,184,23347,6,0,P|268:152|180:172,1,144,2|2,0:0|0:0,0:0:0:0:
304,304,23842,2,0,L|374:291,1,72,10|0,0:0|0:0,0:0:0:0:
496,224,24171,2,0,L|425:211,1,72,2|0,3:2|0:0,0:0:0:0:
348,88,24501,1,10,0:0:0:0:
348,88,24666,1,2,0:0:0:0:
460,0,24831,6,0,B|496:39|496:39|477:127,1,144,2|8,3:2|0:0,0:0:0:0:
352,212,25325,1,2,0:0:0:0:
352,212,25490,2,0,L|379:58,1,144,2|10,3:2|0:0,0:0:0:0:
288,0,25985,6,0,B|252:-24|206:-9|227:3|187:22|152:2,1,144,2|2,0:0|0:0,0:0:0:0:
16,96,26479,2,0,L|94:82,1,72,10|0,0:0|0:0,0:0:0:0:
216,188,26809,2,0,L|137:174,1,72,2|0,3:2|3:2,0:0:0:0:
24,260,27138,1,10,0:0:0:0:
24,260,27303,1,2,0:0:0:0:
144,344,27468,6,0,B|197:334|197:334|225:352|225:352|280:342,1,144,2|8,3:2|0:0,0:0:0:0:
352,196,27963,1,2,0:0:0:0:
352,196,28127,2,0,B|333:284|333:284|369:323,1,144,2|10,3:2|0:0,0:0:0:0:
420,148,28622,6,0,P|384:116|296:136,1,144,2|2,0:0|0:0,0:0:0:0:
252,276,29116,2,0,L|264:205,1,72,10|0,0:0|0:0,0:0:0:0:
156,140,29446,2,0,L|168:210,1,72,2|0,3:2|3:2,0:0:0:0:
8,176,29776,1,10,0:0:0:0:
140,64,29941,1,2,0:0:0:0:
100,264,30105,6,0,L|88:194,1,72,2|0,3:2|0:0,0:0:0:0:
240,112,30435,2,0,L|228:182,1,72,10|0,0:0|0:0,0:0:0:0:
120,344,30765,2,0,L|190:332,1,72,2|0,3:2|3:2,0:0:0:0:
348,280,31095,2,0,L|278:268,1,72,10|0,0:0|0:0,0:0:0:0:
160,136,31424,5,2,3:2:0:0:
349,198,31589,1,10,0:0:0:0:
155,253,31754,1,10,0:0:0:0:
272,103,31919,1,10,3:0:0:0:
276,280,32084,2,0,L|346:292,1,72,10|8,0:0|3:0,0:0:0:0:
416,344,32331,1,8,3:0:0:0:
416,344,32413,2,0,L|486:332,1,72,8|0,0:0|0:0,0:0:0:0:
432,180,32743,6,0,B|372:169|372:169|342:188|342:188|285:177,2,153.000000000001,6|10|2,3:2|0:0|3:2,0:0:0:0:
460,32,33567,1,0,3:2:0:0:
324,104,33732,2,0,L|244:90,1,76.5000000000003,10|0,0:0|0:0,0:0:0:0:
128,216,34062,6,0,B|166:173|166:173|147:80,2,153.000000000001,2|10|2,3:2|0:0|3:2,0:0:0:0:
0,104,34886,1,0,3:2:0:0:
32,280,35051,2,0,L|45:205,1,76.5000000000003,10|0,0:0|0:0,0:0:0:0:
180,332,35380,6,0,L|105:345,1,76.5000000000003,2|0,3:2|0:0,0:0:0:0:
288,256,35710,2,0,L|213:243,1,76.5000000000003,10|0,0:0|0:0,0:0:0:0:
332,112,36040,1,2,3:2:0:0:
368,276,36204,1,0,3:2:0:0:
228,152,36369,2,0,L|241:77,1,76.5000000000003,10|0,0:0|0:0,0:0:0:0:
440,16,36699,6,0,B|403:37|359:16|383:3|333:-14|295:12,2,153.000000000001,2|8|0,3:2|0:0|3:2,0:0:0:0:
312,168,37523,1,0,3:2:0:0:
204,0,37688,2,0,L|217:75,1,76.5000000000003,8|0,0:0|0:0,0:0:0:0:
104,208,38018,6,0,B|142:165|142:165|123:72,2,153.000000000001,2|10|2,3:2|0:0|3:2,0:0:0:0:
217,75,38842,1,0,3:2:0:0:
32,64,39007,2,0,L|45:139,1,76.5000000000003,10|0,0:0|0:0,0:0:0:0:
84,288,39336,6,0,B|139:298|139:298|169:279|169:279|229:290,2,153.000000000001,2|10|2,3:2|0:0|3:2,0:0:0:0:
232,384,40160,1,0,3:2:0:0:
308,260,40325,2,0,L|383:247,1,76.5000000000003,10|0,0:0|0:0,0:0:0:0:
252,120,40655,6,0,L|231:235,1,114.75,2|0,3:2|0:0,0:0:0:0:
228,264,40985,2,0,P|189:274|151:264,1,76.5000000000003,10|0,0:0|0:0,0:0:0:0:
40,96,41314,2,0,P|92:76|148:100,1,114.75,2|0,3:2|0:0,0:0:0:0:
164,112,41644,2,0,L|150:194,1,81.0000000000001,10|0,0:0|0:0,0:0:0:0:
320,284,41974,6,0,L|306:203,1,81.0000000000001,2|2,3:2|0:0,0:0:0:0:
512,268,42303,1,14,0:1:0:0:
336,384,42468,1,2,3:2:0:0:
336,384,42551,1,8,0:0:0:0:
336,384,42633,2,0,L|256:370,1,81.0000000000001,10|10,0:0|0:0,0:0:0:0:
176,248,42963,1,10,0:0:0:0:
328,292,43127,1,10,0:0:0:0:
328,292,43210,1,8,0:0:0:0:
328,292,43292,6,0,L|408:278,1,81.0000000000001,6|0,3:2|0:0,0:0:0:0:
512,164,43622,2,0,L|433:150,1,81.0000000000001,10|0,0:0|0:0,0:0:0:0:
292,48,43952,1,2,3:2:0:0:
460,16,44116,1,0,3:2:0:0:
360,196,44281,2,0,L|346:115,1,81.0000000000001,10|0,0:0|0:0,0:0:0:0:
184,0,44611,6,0,L|170:80,1,81.0000000000001,2|0,3:2|0:0,0:0:0:0:
36,236,44941,2,0,L|23:161,1,81.0000000000001,10|0,0:0|0:0,0:0:0:0:
212,216,45270,1,2,3:2:0:0:
64,316,45435,1,0,3:2:0:0:
96,116,45600,2,0,L|109:191,1,81.0000000000001,10|0,0:0|0:0,0:0:0:0:
268,344,45930,6,0,L|193:331,1,81.0000000000001,2|0,3:2|0:0,0:0:0:0:
36,220,46259,2,0,L|111:207,1,81.0000000000001,10|0,0:0|0:0,0:0:0:0:
216,28,46589,2,0,L|203:103,1,81.0000000000001,2|0,3:2|3:2,0:0:0:0:
344,236,46919,2,0,L|331:161,1,81.0000000000001,10|0,0:0|0:0,0:0:0:0:
368,12,47248,6,0,B|467:-8|467:-8|513:32,2,162,2|8|0,3:2|0:0|3:2,0:0:0:0:
344,204,48073,1,0,3:2:0:0:
216,24,48237,1,10,0:0:0:0:
420,108,48402,1,2,0:0:0:0:
208,160,48567,6,0,B|144:148|144:148|112:168|112:168|54:157,1,162,2|8,3:2|0:0,0:0:0:0:
184,328,49062,1,2,0:0:0:0:
292,148,49226,2,0,L|322:321,1,162,2|8,3:2|0:0,0:0:0:0:
472,220,49721,1,2,0:0:0:0:
364,92,49886,6,0,L|377:171,1,81.0000000000001,2|0,3:2|0:0,0:0:0:0:
198,271,50215,2,0,L|211:191,1,81.0000000000001,10|0,0:0|0:0,0:0:0:0:
24,76,50545,1,2,3:2:0:0:
124,232,50710,1,0,3:2:0:0:
208,32,50875,2,0,L|221:111,1,81.0000000000001,10|0,0:0|0:0,0:0:0:0:
351,267,51204,38,0,B|311:238|260:263|282:271|235:292|196:270,1,162,2|8,3:2|0:0,0:0:0:0:
64,120,51699,1,0,3:2:0:0:
64,120,51781,1,8,0:0:0:0:
64,120,51864,1,0,3:2:0:0:
120,360,52029,2,0,L|129:308,1,40.5,0|0,3:2|3:2,0:0:0:0:
304,136,52193,2,0,L|225:149,1,81.0000000000001,12|0,0:1|0:0,0:0:0:0:
256,348,52523,5,8,0:0:0:0:
276,325,52605,1,8,0:0:0:0:
305,319,52688,1,8,3:0:0:0:
332,327,52770,1,8,3:0:0:0:
360,344,52852,5,8,3:0:0:0:
386,373,52935,1,8,3:0:0:0:
426,384,53018,1,4,3:0:0:0:
465,371,53100,1,4,3:0:0:0:
488,340,53182,6,0,B|502:222|502:222|494:250|474:266,1,161.999995056153,10|0,3:2|0:0,0:0:0:0:
347,53,53842,5,6,3:2:0:0:
119,150,54007,1,2,0:0:0:0:
367,214,54171,1,10,0:0:0:0:
204,16,54336,1,2,0:0:0:0:
196,265,54501,5,2,3:2:0:0:
324,128,54666,1,2,0:0:0:0:
272,369,54831,1,10,0:0:0:0:
135,180,54996,1,2,0:0:0:0:
96,384,55160,6,0,L|5:368,1,90,2|0,3:2|0:0,0:0:0:0:
124,151,55490,2,0,L|212:135,1,90,10|0,0:0|0:0,0:0:0:0:
360,352,55820,2,0,B|338:226|338:226|344:256|384:280,1,180,2|8,3:2|0:0,0:0:0:0:
512,196,56314,1,0,0:0:0:0:
304,43,56479,6,0,L|321:141,1,90,2|2,3:2|0:0,0:0:0:0:
128,268,56809,2,0,L|145:169,1,90,10|2,0:0|0:0,0:0:0:0:
16,8,57138,1,2,3:2:0:0:
224,96,57303,1,2,0:0:0:0:
0,124,57468,1,10,0:0:0:0:
216,208,57633,1,2,0:0:0:0:
164,0,57798,5,2,3:2:0:0:
56,200,57963,1,2,0:0:0:0:
312,112,58127,2,0,L|213:94,1,90,10|0,0:0|0:0,0:0:0:0:
288,292,58457,1,2,3:2:0:0:
288,292,58540,2,0,L|386:274,1,90,8|0,0:0|0:0,0:0:0:0:
460,260,58787,2,0,P|472:212|452:168,1,90,10|0,0:0|0:0,0:0:0:0:
224,64,59116,5,2,3:2:0:0:
384,220,59281,1,2,0:0:0:0:
160,192,59446,1,10,0:0:0:0:
368,88,59611,1,2,0:0:0:0:
260,288,59776,5,2,3:2:0:0:
116,108,59941,1,2,0:0:0:0:
140,332,60105,1,10,0:0:0:0:
303,159,60270,1,2,0:0:0:0:
16,240,60435,6,0,L|110:256,1,90,2|0,3:2|0:0,0:0:0:0:
220,76,60765,2,0,L|125:92,1,90,10|0,0:0|0:0,0:0:0:0:
287,247,61095,2,0,L|302:158,1,90,2|0,3:2|0:0,0:0:0:0:
472,292,61424,1,10,0:0:0:0:
272,336,61589,1,2,0:0:0:0:
432,104,61754,6,0,L|447:192,1,90,2|0,3:2|0:0,0:0:0:0:
272,336,62084,2,0,L|287:247,1,90,10|0,0:0|0:0,0:0:0:0:
72,112,62413,2,0,L|87:200,1,90,2|0,3:2|0:0,0:0:0:0:
232,72,62743,1,10,0:0:0:0:
60,0,62908,1,2,0:0:0:0:
192,180,63073,1,2,3:2:0:0:
340,0,63237,5,10,0:0:0:0:
68,88,63402,1,14,0:1:0:0:
336,208,63567,1,6,3:0:0:0:
80,264,63732,1,10,0:0:0:0:
80,264,63814,1,8,0:0:0:0:
80,264,63897,1,8,0:0:0:0:
200,40,64062,1,8,0:0:0:0:
192,340,64226,1,8,0:0:0:0:
192,340,64309,1,8,0:0:0:0:
192,340,64391,6,0,L|103:355,1,90,6|2,3:2|0:0,0:0:0:0:
239,180,64721,2,0,L|327:195,1,90,10|2,0:0|0:0,0:0:0:0:
480,28,65051,1,2,3:2:0:0:
272,96,65215,1,2,0:0:0:0:
488,152,65380,1,10,0:0:0:0:
352,0,65545,1,2,0:0:0:0:
408,232,65710,6,0,L|496:247,1,90,2|0,3:2|0:0,0:0:0:0:
360,80,66040,2,0,L|272:95,1,90,10|0,0:0|0:0,0:0:0:0:
136,280,66369,2,0,B|184:228|184:228|160:112,1,180,2|8,3:2|0:0,0:0:0:0:
352,0,66864,1,0,0:0:0:0:
272,220,67029,5,2,3:2:0:0:
120,24,67193,1,2,0:0:0:0:
68,248,67358,1,10,0:0:0:0:
272,104,67523,1,2,0:0:0:0:
176,324,67688,5,2,3:2:0:0:
56,124,67853,1,2,0:0:0:0:
272,220,68018,1,10,0:0:0:0:
36,256,68182,1,2,0:0:0:0:
256,360,68347,5,2,3:2:0:0:
168,152,68512,1,2,0:0:0:0:
276,376,68677,2,0,L|364:361,1,90,10|0,0:0|0:0,0:0:0:0:
512,208,69007,1,2,3:2:0:0:
512,208,69089,2,0,L|424:193,1,90,8|0,0:0|0:0,0:0:0:0:
352,136,69336,2,0,L|264:151,1,90,10|0,0:0|0:0,0:0:0:0:
60,276,69666,5,2,3:2:0:0:
100,56,69831,1,2,0:0:0:0:
212,232,69996,1,10,0:0:0:0:
0,144,70160,1,2,0:0:0:0:
152,324,70325,5,2,3:2:0:0:
200,76,70490,1,2,0:0:0:0:
316,296,70655,1,10,0:0:0:0:
88,192,70820,1,2,0:0:0:0:
352,136,70985,6,0,L|440:151,1,90,2|0,3:2|0:0,0:0:0:0:
300,312,71314,2,0,L|212:327,1,90,10|2,0:0|0:3,0:0:0:0:
136,340,71562,1,2,0:0:0:0:
136,340,71644,2,0,P|121:297|134:255,1,90,2|0,3:2|0:0,0:0:0:0:
284,84,71974,1,10,0:0:0:0:
300,312,72138,1,2,0:0:0:0:
88,164,72303,6,0,L|176:179,1,90,2|0,3:2|0:0,0:0:0:0:
316,0,72633,2,0,L|228:15,1,90,14|0,0:0|0:0,0:0:0:0:
424,184,72963,2,0,L|439:96,1,90,2|0,3:2|0:0,0:0:0:0:
260,204,73292,2,0,L|275:292,1,90,10|0,0:0|0:0,0:0:0:0:
452,384,73622,2,0,L|467:296,1,90,2|0,3:2|0:0,0:0:0:0:
244,120,73952,5,14,0:0:0:0:
356,360,74116,1,8,0:0:0:0:
356,360,74199,1,8,0:0:0:0:
356,360,74281,2,0,L|364:312,1,45,10|8,3:0|3:0,0:0:0:0:
172,180,74446,2,0,L|180:227,1,45,0|0,3:0|3:0,0:0:0:0:
324,64,74611,1,10,3:0:0:0:
290,35,74693,1,8,0:0:0:0:
246,23,74776,1,4,3:0:0:0:
203,33,74858,1,4,3:0:0:0:
168,60,74941,6,0,L|183:148,1,90,6|0,3:2|0:0,0:0:0:0:
356,360,75270,2,0,B|316:340|284:364|284:364|259:351|259:351|224:376|180:356,1,180,8|0,0:0|3:2,0:0:0:0:
16,240,75765,1,0,0:0:0:0:
228,184,75930,2,0,L|213:272,1,90,10|0,0:0|0:0,0:0:0:0:
68,104,76259,6,0,B|135:91|135:91|172:114|172:114|242:101,2,180,0|8|2,3:2|0:0|3:2,0:0:0:0:
212,272,77084,1,0,0:0:0:0:
336,96,77248,2,0,L|319:190,1,90,12|2,0:0|0:0,0:0:0:0:
416,368,77578,5,2,3:2:0:0:
492,180,77743,1,2,0:0:0:0:
304,272,77908,1,14,0:0:0:0:
512,312,78073,1,2,0:0:0:0:
408,148,78237,2,0,L|391:242,1,90,2|2,3:2|0:0,0:0:0:0:
300,384,78567,2,0,L|283:289,1,90,14|2,0:0|0:0,0:0:0:0:
104,228,78897,5,2,3:2:0:0:
200,368,79062,1,2,0:0:0:0:
264,184,79226,1,10,0:0:0:0:
104,324,79391,1,2,0:0:0:0:
160,96,79556,1,0,3:2:0:0:
160,96,79638,2,0,L|177:194,1,90,8|0,0:0|0:0,0:0:0:0:
224,256,79886,2,0,P|272:268|316:248,1,90,12|0,0:0|0:0,0:0:0:0:
420,56,80215,6,0,L|331:71,1,90,2|2,3:2|0:0,0:0:0:0:
248,111,80463,1,2,0:0:0:0:
248,111,80545,2,0,L|159:95,1,90,14|2,0:0|0:0,0:0:0:0:
88,44,80792,1,2,0:0:0:0:
88,44,80875,1,2,3:2:0:0:
8,176,81040,1,2,0:0:0:0:
8,176,81122,1,2,0:0:0:0:
8,176,81204,2,0,L|23:264,1,90,10|2,0:0|0:0,0:0:0:0:
44,348,81452,1,2,0:0:0:0:
44,348,81534,6,0,P|88:364|132:344,1,90,2|2,3:2|0:0,0:0:0:0:
192,300,81781,1,2,0:0:0:0:
191,300,81864,2,0,P|232:283|273:298,1,90,10|2,0:0|0:0,0:0:0:0:
440,384,82193,2,0,L|457:285,1,90,2|0,3:2|0:0,0:0:0:0:
260,160,82523,1,14,0:0:0:0:
356,348,82688,1,0,0:0:0:0:
472,136,82853,5,2,3:2:0:0:
280,304,83018,1,2,0:0:0:0:
280,304,83100,1,2,0:0:0:0:
280,304,83182,2,0,L|289:248,1,45,10|0,0:0|0:0,0:0:0:0:
332,36,83347,1,2,0:0:0:0:
128,152,83512,5,2,3:2:0:0:
172,159,83595,1,2,0:0:0:0:
216,167,83677,1,2,0:0:0:0:
260,175,83759,1,2,0:0:0:0:
305,183,83842,1,14,0:0:0:0:
136,360,84007,2,0,L|145:312,1,45,2|2,0:0|0:0,0:0:0:0:
80,88,84171,6,0,L|88:132,1,45,2|0,3:2|0:0,0:0:0:0:
256,276,84336,1,10,0:0:0:0:
184,8,84501,1,14,0:0:0:0:
48,256,84666,1,10,0:0:0:0:
305,167,84831,5,2,0:0:0:0:
305,167,84913,1,8,0:0:0:0:
305,167,84996,2,0,L|249:176,1,45,8|8,3:0|3:0,0:0:0:0:
80,348,85160,1,8,0:0:0:0:
92,96,85325,1,8,0:0:0:0:
92,96,85408,1,8,0:0:0:0:
92,96,85490,5,6,3:2:0:0:
200,296,85655,1,2,0:0:0:0:
304,84,85820,1,14,0:1:0:0:
80,208,85985,1,2,0:0:0:0:
344,240,86149,5,2,3:2:0:0:
152,368,86314,1,2,0:0:0:0:
180,140,86479,1,10,0:0:0:0:
328,352,86644,1,2,0:0:0:0:
392,68,86809,6,0,L|293:85,1,90,2|0,3:2|0:0,0:0:0:0:
108,216,87138,2,0,L|196:231,1,90,10|0,0:0|0:0,0:0:0:0:
28,0,87468,2,0,B|50:106|50:106|2:158,1,180,2|8,3:2|0:0,0:0:0:0:
92,308,87963,1,0,0:0:0:0:
224,120,88127,5,2,3:2:0:0:
8,224,88292,1,2,0:0:0:0:
248,276,88457,1,10,0:0:0:0:
88,100,88622,1,2,0:0:0:0:
192,348,88787,5,2,3:2:0:0:
320,136,88952,1,2,0:0:0:0:
88,228,89116,1,14,0:0:0:0:
340,276,89281,1,2,0:0:0:0:
239,31,89446,6,0,L|222:125,1,90,2|0,3:2|0:0,0:0:0:0:
103,316,89776,2,0,L|87:227,1,90,14|0,0:0|0:0,0:0:0:0:
16,8,90105,1,2,3:2:0:0:
16,8,90188,2,0,P|58:-6|100:6,1,90,8|0,0:0|0:0,0:0:0:0:
152,68,90435,2,0,L|136:156,1,90,12|0,0:0|0:0,0:0:0:0:
232,364,90765,5,2,3:2:0:0:
340,168,90930,1,2,0:0:0:0:
124,248,91095,1,14,0:0:0:0:
344,304,91259,1,2,0:0:0:0:
232,120,91424,5,2,3:2:0:0:
124,344,91589,1,2,0:0:0:0:
64,104,91754,1,10,0:0:0:0:
256,284,91919,1,2,0:0:0:0:
247,31,92084,6,0,L|231:119,1,90,2|0,3:2|0:0,0:0:0:0:
280,368,92413,1,14,0:0:0:0:
416,152,92578,1,8,3:0:0:0:
416,152,92660,1,8,3:0:0:0:
416,152,92743,1,2,0:0:0:0:
168,188,92908,1,8,0:0:0:0:
168,188,92990,1,8,0:0:0:0:
168,188,93073,6,0,L|215:196,1,45,8|8,3:0|3:0,0:0:0:0:
388,296,93237,2,0,L|340:304,1,45,8|0,3:0|3:2,0:0:0:0:
76,384,93402,6,0,L|85:330,1,54,2|0,3:2|0:0,0:0:0:0:
20,280,93732,6,0,P|64:248|160:296,1,162,14|0,0:0|0:0,0:0:0:0:
232,328,94062,6,0,L|286:319,1,54,2|0,0:0|0:0,0:0:0:0:
336,384,94391,6,0,P|368:340|320:244,1,162,14|0,0:0|0:0,0:0:0:0:
276,180,94721,6,0,L|222:171,1,54,2|0,0:0|0:0,0:0:0:0:
148,216,95051,6,0,P|132:184|160:115,1,108,14|8,0:0|0:0,0:0:0:0:
236,96,95298,1,8,0:0:0:0:
236,96,95380,1,10,0:0:0:0:
28,48,95545,1,8,3:0:0:0:
148,216,95710,2,0,L|236:200,1,90,4|0,3:0|0:0,0:0:0:0:
360,356,96040,6,0,B|386:317|363:264|350:287|323:234|358:188|358:188|347:229|376:260,1,252,6|0,3:2|0:0,0:0:0:0:
