osu file format v14

[General]
AudioFilename: audio.mp3
AudioLeadIn: 0
PreviewTime: 199752
Countdown: 0
SampleSet: Normal
StackLeniency: 0.7
Mode: 1
LetterboxInBreaks: 0
WidescreenStoryboard: 0

[Editor]
DistanceSpacing: 1
BeatDivisor: 8
GridSize: 32
TimelineZoom: 2.1

[Metadata]
Title:Snow Fairy Story
TitleUnicode:Snow Fairy Story
Artist:40mP
ArtistUnicode:40mP
Creator:KeyWee
Version:Glimmering White Snow
Source:SNOW MIKU 2015
Tags:ボーカロイド vocaloid 雪ミク Snow miku 2015 Christmas クリスマス yuki japanese pop jpop j-pop xmas 初音ミク Hatsune Miku 40meterP 40meter-P
BeatmapID:3383981
BeatmapSetID:1657894

[Difficulty]
HPDrainRate:5
CircleSize:2
OverallDifficulty:5
ApproachRate:0
SliderMultiplier:1.4
SliderTickRate:1

[Events]
//Background and Video events
0,0,"Snow Miku.jpg",0,-15
//Break Periods
//Storyboard Layer 0 (Background)
//Storyboard Layer 1 (Fail)
//Storyboard Layer 2 (Pass)
//Storyboard Layer 3 (Foreground)
//Storyboard Layer 4 (Overlay)
//Storyboard Sound Samples

[TimingPoints]
1043,468.75,4,1,0,60,1,8
1043,-100,4,1,0,60,0,0
1749,468.75,4,1,0,60,1,0
1749,-100,4,1,0,60,0,0
9248,-100,4,1,0,65,0,0
14873,-100,4,1,0,75,0,0
16748,-100,4,1,0,85,0,0
33623,468.75,4,1,0,60,1,0
33623,-100,4,1,0,60,0,0
48623,-100,4,1,0,65,0,0
63623,-100,4,1,0,65,0,0
76748,-100,4,1,0,75,0,0
80440,-100,4,1,0,85,0,0
80498,468.75,4,1,0,85,1,1
80498,-100,4,1,0,85,0,1
110498,-100,4,1,0,85,0,0
119873,468.75,4,1,0,60,1,0
119873,-100,4,1,0,60,0,0
134873,-100,4,1,0,75,0,0
149873,-100,4,1,0,65,0,0
162998,-100,4,1,0,75,0,0
166748,468.75,4,1,0,85,1,0
166748,-100,4,1,0,85,0,0
200498,468.75,4,1,0,55,1,0
200498,-100,4,1,0,55,0,0
207998,-100,4,1,0,60,0,0
213623,-100,4,1,0,65,0,0
215498,-100,4,1,0,75,0,0
217315,-100,4,1,0,85,0,0
217373,468.75,4,1,0,85,1,1
217373,-100,4,1,0,85,0,1
254873,-100,4,1,0,75,0,0
260498,-100,4,1,0,65,0,0
262373,-100,4,1,0,55,0,0

[HitObjects]
256,192,1043,5,0,0:0:0:0:
256,192,1277,1,8,0:0:0:0:
256,192,1511,1,8,0:0:0:0:
256,192,1746,1,0,0:0:0:0:
256,192,2100,1,8,0:0:0:0:
256,192,2452,1,0,0:0:0:0:
256,192,2920,1,0,0:0:0:0:
256,192,3155,1,8,0:0:0:0:
256,192,3389,1,8,0:0:0:0:
256,192,3623,1,0,0:0:0:0:
256,192,3975,1,8,0:0:0:0:
256,192,4327,1,0,0:0:0:0:
256,192,4795,1,0,0:0:0:0:
256,192,5030,1,8,0:0:0:0:
256,192,5264,1,8,0:0:0:0:
256,192,5498,1,0,0:0:0:0:
256,192,5850,1,8,0:0:0:0:
256,192,6202,1,8,0:0:0:0:
256,192,6436,1,0,0:0:0:0:
256,192,6787,1,8,0:0:0:0:
256,192,7139,1,8,0:0:0:0:
256,192,7373,1,0,0:0:0:0:
256,192,7725,1,8,0:0:0:0:
256,192,8077,1,8,0:0:0:0:
256,192,8311,1,0,0:0:0:0:
256,192,8545,1,0,0:0:0:0:
256,192,8662,1,0,0:0:0:0:
256,192,8780,1,8,0:0:0:0:
256,192,9248,1,0,0:0:0:0:
256,192,9717,1,8,0:0:0:0:
256,192,9952,1,0,0:0:0:0:
256,192,10069,1,0,0:0:0:0:
256,192,10186,1,8,0:0:0:0:
256,192,10537,1,8,0:0:0:0:
256,192,10889,1,8,0:0:0:0:
256,192,11123,1,0,0:0:0:0:
256,192,11475,1,8,0:0:0:0:
256,192,11827,1,0,0:0:0:0:
256,192,12295,1,8,0:0:0:0:
256,192,12530,1,8,0:0:0:0:
256,192,12764,1,0,0:0:0:0:
256,192,12881,1,0,0:0:0:0:
256,192,12998,1,0,0:0:0:0:
256,192,13233,1,8,0:0:0:0:
256,192,13467,1,0,0:0:0:0:
256,192,13702,1,0,0:0:0:0:
256,192,13819,1,0,0:0:0:0:
256,192,13936,1,8,0:0:0:0:
256,192,14170,1,0,0:0:0:0:
256,192,14405,1,8,0:0:0:0:
256,192,14639,1,0,0:0:0:0:
256,192,14756,1,0,0:0:0:0:
256,192,14873,1,12,0:0:0:0:
256,192,15225,1,12,0:0:0:0:
256,192,15577,1,12,0:0:0:0:
256,192,15811,1,0,0:0:0:0:
256,192,16045,1,0,0:0:0:0:
256,192,16162,1,0,0:0:0:0:
256,192,16280,1,8,0:0:0:0:
256,192,16397,1,8,0:0:0:0:
256,192,16514,1,8,0:0:0:0:
256,192,16631,1,8,0:0:0:0:
256,192,16748,5,4,0:0:0:0:
256,192,17100,1,0,0:0:0:0:
256,192,17217,1,8,0:0:0:0:
256,192,17452,1,0,0:0:0:0:
256,192,17686,1,0,0:0:0:0:
256,192,17920,1,8,0:0:0:0:
256,192,18037,5,8,0:0:0:0:
256,192,18155,1,0,0:0:0:0:
256,192,18389,1,8,0:0:0:0:
256,192,18506,1,8,0:0:0:0:
256,192,18623,1,0,0:0:0:0:
256,192,18975,1,0,0:0:0:0:
256,192,19092,1,8,0:0:0:0:
256,192,19327,1,0,0:0:0:0:
256,192,19561,1,0,0:0:0:0:
256,192,19678,1,8,0:0:0:0:
256,192,19912,5,8,0:0:0:0:
256,192,20030,1,0,0:0:0:0:
256,192,20264,1,8,0:0:0:0:
256,192,20381,1,8,0:0:0:0:
256,192,20498,1,0,0:0:0:0:
256,192,20850,1,0,0:0:0:0:
256,192,20967,1,8,0:0:0:0:
256,192,21202,1,8,0:0:0:0:
256,192,21436,1,0,0:0:0:0:
256,192,21670,1,0,0:0:0:0:
256,192,21787,1,0,0:0:0:0:
256,192,21905,1,8,0:0:0:0:
256,192,22139,1,8,0:0:0:0:
256,192,22256,1,8,0:0:0:0:
256,192,22373,1,4,0:0:0:0:
256,192,22725,1,12,0:0:0:0:
256,192,23077,1,4,0:0:0:0:
256,192,23545,1,0,0:0:0:0:
256,192,23780,1,8,0:0:0:0:
256,192,23897,1,8,0:0:0:0:
256,192,24014,1,0,0:0:0:0:
256,192,24131,1,0,0:0:0:0:
256,192,24248,1,12,0:0:0:0:
256,192,24600,1,0,0:0:0:0:
256,192,24717,1,12,0:0:0:0:
256,192,24952,1,0,0:0:0:0:
256,192,25186,1,0,0:0:0:0:
256,192,25420,1,8,0:0:0:0:
256,192,25537,1,8,0:0:0:0:
256,192,25655,1,0,0:0:0:0:
256,192,25889,1,8,0:0:0:0:
256,192,26006,1,8,0:0:0:0:
256,192,26123,1,0,0:0:0:0:
256,192,26475,1,0,0:0:0:0:
256,192,26592,1,8,0:0:0:0:
256,192,26827,1,0,0:0:0:0:
256,192,27061,1,0,0:0:0:0:
256,192,27178,1,8,0:0:0:0:
256,192,27412,1,8,0:0:0:0:
256,192,27530,1,0,0:0:0:0:
256,192,27764,1,0,0:0:0:0:
256,192,27881,1,0,0:0:0:0:
256,192,27998,1,8,0:0:0:0:
256,192,28233,1,8,0:0:0:0:
256,192,28350,1,0,0:0:0:0:
256,192,28467,1,0,0:0:0:0:
256,192,28702,1,12,0:0:0:0:
256,192,29170,1,0,0:0:0:0:
256,192,29405,1,8,0:0:0:0:
256,192,29639,1,0,0:0:0:0:
256,192,29756,1,0,0:0:0:0:
256,192,29873,1,8,0:0:0:0:
256,192,30342,1,12,0:0:0:0:
256,192,30577,1,0,0:0:0:0:
256,192,30811,1,0,0:0:0:0:
256,192,30928,1,8,0:0:0:0:
256,192,31045,1,8,0:0:0:0:
256,192,31280,1,0,0:0:0:0:
256,192,31514,1,8,0:0:0:0:
256,192,31631,1,8,0:0:0:0:
256,192,31748,1,4,0:0:0:0:
256,192,32100,1,4,0:0:0:0:
256,192,32452,1,12,0:0:0:0:
256,192,32920,1,0,0:0:0:0:
256,192,33155,1,8,0:0:0:0:
256,192,33389,1,0,0:0:0:0:
256,192,33506,1,0,0:0:0:0:
256,192,33623,5,12,0:0:0:0:
256,192,33975,1,0,0:0:0:0:
256,192,34327,1,8,0:0:0:0:
256,192,34795,1,8,0:0:0:0:
256,192,35030,1,0,0:0:0:0:
256,192,35264,1,0,0:0:0:0:
256,192,35498,1,8,0:0:0:0:
256,192,35850,1,8,0:0:0:0:
256,192,36202,1,0,0:0:0:0:
256,192,36670,1,0,0:0:0:0:
256,192,37139,1,0,0:0:0:0:
256,192,37256,1,0,0:0:0:0:
256,192,37373,1,8,0:0:0:0:
256,192,37725,1,8,0:0:0:0:
256,192,38077,1,0,0:0:0:0:
256,192,38545,1,8,0:0:0:0:
256,192,39014,1,0,0:0:0:0:
256,192,39248,1,8,0:0:0:0:
256,192,39483,1,0,0:0:0:0:
256,192,39600,1,8,0:0:0:0:
256,192,39834,1,0,0:0:0:0:
256,192,40069,1,8,0:0:0:0:
256,192,40186,1,0,0:0:0:0:
256,192,40420,1,0,0:0:0:0:
256,192,40655,1,8,0:0:0:0:
256,192,40889,1,0,0:0:0:0:
256,192,41006,1,0,0:0:0:0:
256,192,41123,1,8,0:0:0:0:
256,192,41475,1,0,0:0:0:0:
256,192,41827,1,8,0:0:0:0:
256,192,42295,1,8,0:0:0:0:
256,192,42530,1,8,0:0:0:0:
256,192,42764,1,0,0:0:0:0:
256,192,42998,1,8,0:0:0:0:
256,192,43233,1,0,0:0:0:0:
256,192,43350,1,8,0:0:0:0:
256,192,43702,1,0,0:0:0:0:
256,192,44170,1,0,0:0:0:0:
256,192,44405,1,8,0:0:0:0:
256,192,44639,1,0,0:0:0:0:
256,192,44756,1,0,0:0:0:0:
256,192,44873,1,8,0:0:0:0:
256,192,45108,1,0,0:0:0:0:
256,192,45225,1,8,0:0:0:0:
256,192,45459,1,8,0:0:0:0:
256,192,45577,1,0,0:0:0:0:
256,192,46045,1,8,0:0:0:0:
256,192,46280,1,0,0:0:0:0:
256,192,46514,1,8,0:0:0:0:
256,192,46631,1,8,0:0:0:0:
256,192,46748,1,0,0:0:0:0:
256,192,47217,1,0,0:0:0:0:
256,192,47452,1,0,0:0:0:0:
256,192,47569,1,8,0:0:0:0:
256,192,47686,1,8,0:0:0:0:
256,192,47920,1,0,0:0:0:0:
256,192,48155,1,8,0:0:0:0:
256,192,48389,1,0,0:0:0:0:
256,192,48506,1,0,0:0:0:0:
256,192,48623,5,12,0:0:0:0:
256,192,48975,1,8,0:0:0:0:
256,192,49092,1,0,0:0:0:0:
256,192,49327,1,8,0:0:0:0:
256,192,49795,1,0,0:0:0:0:
256,192,50030,1,8,0:0:0:0:
256,192,50264,1,0,0:0:0:0:
256,192,50498,1,8,0:0:0:0:
256,192,50850,1,0,0:0:0:0:
256,192,50967,1,8,0:0:0:0:
256,192,51202,1,0,0:0:0:0:
256,192,51436,1,8,0:0:0:0:
256,192,51670,1,8,0:0:0:0:
256,192,51905,1,0,0:0:0:0:
256,192,52139,1,0,0:0:0:0:
256,192,52256,1,0,0:0:0:0:
256,192,52373,1,8,0:0:0:0:
256,192,52725,1,0,0:0:0:0:
256,192,52842,1,8,0:0:0:0:
256,192,53077,1,0,0:0:0:0:
256,192,53545,1,8,0:0:0:0:
256,192,53780,1,0,0:0:0:0:
256,192,54014,1,8,0:0:0:0:
256,192,54248,1,0,0:0:0:0:
256,192,54483,1,8,0:0:0:0:
256,192,54600,1,0,0:0:0:0:
256,192,54834,1,8,0:0:0:0:
256,192,54952,1,0,0:0:0:0:
256,192,55069,1,0,0:0:0:0:
256,192,55186,1,8,0:0:0:0:
256,192,55420,1,8,0:0:0:0:
256,192,55655,1,0,0:0:0:0:
256,192,55889,1,0,0:0:0:0:
256,192,56006,1,0,0:0:0:0:
256,192,56123,1,8,0:0:0:0:
256,192,56475,1,8,0:0:0:0:
256,192,56592,1,0,0:0:0:0:
256,192,56827,1,8,0:0:0:0:
256,192,57295,1,8,0:0:0:0:
256,192,57530,1,8,0:0:0:0:
256,192,57764,1,8,0:0:0:0:
256,192,57998,1,0,0:0:0:0:
256,192,58350,1,0,0:0:0:0:
256,192,58467,1,8,0:0:0:0:
256,192,58702,1,0,0:0:0:0:
256,192,59170,1,0,0:0:0:0:
256,192,59405,1,8,0:0:0:0:
256,192,59639,1,8,0:0:0:0:
256,192,59756,1,8,0:0:0:0:
256,192,59873,1,0,0:0:0:0:
256,192,60108,1,0,0:0:0:0:
256,192,60225,1,8,0:0:0:0:
256,192,60459,1,8,0:0:0:0:
256,192,60577,1,0,0:0:0:0:
256,192,61045,1,0,0:0:0:0:
256,192,61280,1,8,0:0:0:0:
256,192,61514,1,8,0:0:0:0:
256,192,61748,1,0,0:0:0:0:
256,192,61983,1,8,0:0:0:0:
256,192,62100,1,0,0:0:0:0:
256,192,62217,1,8,0:0:0:0:
256,192,62452,1,0,0:0:0:0:
256,192,62686,1,0,0:0:0:0:
256,192,62803,1,8,0:0:0:0:
256,192,62920,1,0,0:0:0:0:
256,192,63155,1,8,0:0:0:0:
256,192,63389,1,8,0:0:0:0:
256,192,63506,1,8,0:0:0:0:
256,192,63623,5,4,0:0:0:0:
256,192,63975,1,0,0:0:0:0:
256,192,64327,1,8,0:0:0:0:
256,192,64795,1,0,0:0:0:0:
256,192,65030,1,8,0:0:0:0:
256,192,65264,1,8,0:0:0:0:
256,192,65498,1,0,0:0:0:0:
256,192,65850,1,0,0:0:0:0:
256,192,66202,1,8,0:0:0:0:
256,192,66319,1,0,0:0:0:0:
256,192,66436,1,0,0:0:0:0:
256,192,66670,1,0,0:0:0:0:
256,192,66905,1,8,0:0:0:0:
256,192,67022,1,8,0:0:0:0:
256,192,67139,1,0,0:0:0:0:
256,192,67256,1,0,0:0:0:0:
256,192,67373,1,8,0:0:0:0:
256,192,67725,1,0,0:0:0:0:
256,192,68077,1,8,0:0:0:0:
256,192,68545,1,0,0:0:0:0:
256,192,68780,1,8,0:0:0:0:
256,192,69014,1,8,0:0:0:0:
256,192,69248,1,0,0:0:0:0:
256,192,69600,1,0,0:0:0:0:
256,192,69952,1,8,0:0:0:0:
256,192,70420,1,0,0:0:0:0:
256,192,70655,1,8,0:0:0:0:
256,192,70772,1,8,0:0:0:0:
256,192,70889,1,0,0:0:0:0:
256,192,71006,1,0,0:0:0:0:
256,192,71123,1,8,0:0:0:0:
256,192,71475,1,0,0:0:0:0:
256,192,71827,1,8,0:0:0:0:
256,192,72295,1,8,0:0:0:0:
256,192,72530,1,0,0:0:0:0:
256,192,72764,1,0,0:0:0:0:
256,192,72998,1,8,0:0:0:0:
256,192,73350,1,0,0:0:0:0:
256,192,73702,1,8,0:0:0:0:
256,192,73936,1,0,0:0:0:0:
256,192,74170,1,0,0:0:0:0:
256,192,74405,1,8,0:0:0:0:
256,192,74522,1,8,0:0:0:0:
256,192,74639,1,0,0:0:0:0:
256,192,74756,1,0,0:0:0:0:
256,192,74873,1,8,0:0:0:0:
256,192,75225,1,8,0:0:0:0:
256,192,75342,1,0,0:0:0:0:
256,192,75577,1,0,0:0:0:0:
256,192,75811,1,8,0:0:0:0:
256,192,76162,1,8,0:0:0:0:
256,192,76280,1,0,0:0:0:0:
256,192,76514,1,0,0:0:0:0:
256,192,76748,5,12,0:0:0:0:
256,192,77217,1,8,0:0:0:0:
256,192,77452,1,0,0:0:0:0:
256,192,77686,1,8,0:0:0:0:
256,192,77920,1,8,0:0:0:0:
256,192,78155,1,0,0:0:0:0:
256,192,78389,1,8,0:0:0:0:
256,192,78506,1,8,0:0:0:0:
256,192,78623,1,0,0:0:0:0:
256,192,79092,1,12,0:0:0:0:
256,192,79561,1,0,0:0:0:0:
256,192,79678,1,8,0:0:0:0:
256,192,79795,1,8,0:0:0:0:
256,192,80030,1,0,0:0:0:0:
256,192,80264,1,8,0:0:0:0:
256,192,80381,1,8,0:0:0:0:
256,192,80498,5,4,0:0:0:0:
256,192,80850,1,0,0:0:0:0:
256,192,80967,1,8,0:0:0:0:
256,192,81202,1,8,0:0:0:0:
256,192,81319,1,8,0:0:0:0:
256,192,81436,1,0,0:0:0:0:
256,192,81670,1,0,0:0:0:0:
256,192,81905,1,8,0:0:0:0:
256,192,82022,1,8,0:0:0:0:
256,192,82139,1,0,0:0:0:0:
256,192,82373,1,8,0:0:0:0:
256,192,82725,1,0,0:0:0:0:
256,192,82842,1,8,0:0:0:0:
256,192,83077,1,0,0:0:0:0:
256,192,83311,1,8,0:0:0:0:
256,192,83428,1,8,0:0:0:0:
256,192,83545,1,0,0:0:0:0:
256,192,83780,1,8,0:0:0:0:
256,192,84014,1,0,0:0:0:0:
256,192,84131,1,0,0:0:0:0:
256,192,84248,1,8,0:0:0:0:
256,192,84600,1,8,0:0:0:0:
256,192,84717,1,0,0:0:0:0:
256,192,84952,1,0,0:0:0:0:
256,192,85069,1,0,0:0:0:0:
256,192,85186,1,8,0:0:0:0:
256,192,85537,1,8,0:0:0:0:
256,192,85655,1,0,0:0:0:0:
256,192,85889,1,0,0:0:0:0:
256,192,86006,1,0,0:0:0:0:
256,192,86123,1,8,0:0:0:0:
256,192,86475,1,8,0:0:0:0:
256,192,86592,1,0,0:0:0:0:
256,192,86827,1,8,0:0:0:0:
256,192,87061,1,0,0:0:0:0:
256,192,87178,1,8,0:0:0:0:
256,192,87530,1,8,0:0:0:0:
256,192,87764,1,0,0:0:0:0:
256,192,87881,1,8,0:0:0:0:
256,192,87998,1,4,0:0:0:0:
256,192,88467,1,8,0:0:0:0:
256,192,88702,1,0,0:0:0:0:
256,192,88819,1,0,0:0:0:0:
256,192,88936,1,8,0:0:0:0:
256,192,89170,1,8,0:0:0:0:
256,192,89287,1,8,0:0:0:0:
256,192,89405,1,0,0:0:0:0:
256,192,89639,1,8,0:0:0:0:
256,192,89873,1,0,0:0:0:0:
256,192,90225,1,0,0:0:0:0:
256,192,90342,1,8,0:0:0:0:
256,192,90577,1,0,0:0:0:0:
256,192,90811,1,0,0:0:0:0:
256,192,90928,1,8,0:0:0:0:
256,192,91045,1,8,0:0:0:0:
256,192,91280,1,0,0:0:0:0:
256,192,91514,1,8,0:0:0:0:
256,192,91631,1,8,0:0:0:0:
256,192,91748,1,0,0:0:0:0:
256,192,91983,1,0,0:0:0:0:
256,192,92100,1,0,0:0:0:0:
256,192,92217,1,8,0:0:0:0:
256,192,92452,1,8,0:0:0:0:
256,192,92569,1,0,0:0:0:0:
256,192,92686,1,8,0:0:0:0:
256,192,93037,1,8,0:0:0:0:
256,192,93155,1,0,0:0:0:0:
256,192,93389,1,8,0:0:0:0:
256,192,93506,1,8,0:0:0:0:
256,192,93623,1,4,0:0:0:0:
256,192,93975,1,12,0:0:0:0:
256,192,94327,1,4,0:0:0:0:
256,192,94795,1,0,0:0:0:0:
256,192,94912,1,0,0:0:0:0:
256,192,95030,1,8,0:0:0:0:
256,192,95147,1,8,0:0:0:0:
256,192,95264,1,8,0:0:0:0:
256,192,95381,1,8,0:0:0:0:
256,192,95498,1,4,0:0:0:0:
256,192,95850,1,0,0:0:0:0:
256,192,95967,1,12,0:0:0:0:
256,192,96202,1,8,0:0:0:0:
256,192,96319,1,8,0:0:0:0:
256,192,96436,1,0,0:0:0:0:
256,192,96670,1,0,0:0:0:0:
256,192,96905,1,8,0:0:0:0:
256,192,97022,1,8,0:0:0:0:
256,192,97139,1,0,0:0:0:0:
256,192,97373,1,8,0:0:0:0:
256,192,97725,1,0,0:0:0:0:
256,192,97842,1,8,0:0:0:0:
256,192,98077,1,0,0:0:0:0:
256,192,98311,1,8,0:0:0:0:
256,192,98428,1,8,0:0:0:0:
256,192,98545,1,0,0:0:0:0:
256,192,98780,1,8,0:0:0:0:
256,192,99014,1,0,0:0:0:0:
256,192,99131,1,0,0:0:0:0:
256,192,99248,1,8,0:0:0:0:
256,192,99600,1,8,0:0:0:0:
256,192,99717,1,0,0:0:0:0:
256,192,99952,1,0,0:0:0:0:
256,192,100069,1,0,0:0:0:0:
256,192,100186,1,8,0:0:0:0:
256,192,100537,1,8,0:0:0:0:
256,192,100655,1,0,0:0:0:0:
256,192,100889,1,0,0:0:0:0:
256,192,101006,1,0,0:0:0:0:
256,192,101123,1,8,0:0:0:0:
256,192,101475,1,8,0:0:0:0:
256,192,101592,1,0,0:0:0:0:
256,192,101827,1,8,0:0:0:0:
256,192,102061,1,0,0:0:0:0:
256,192,102178,1,8,0:0:0:0:
256,192,102530,1,8,0:0:0:0:
256,192,102764,1,0,0:0:0:0:
256,192,102881,1,8,0:0:0:0:
256,192,102998,1,4,0:0:0:0:
256,192,103467,1,8,0:0:0:0:
256,192,103702,1,0,0:0:0:0:
256,192,103819,1,0,0:0:0:0:
256,192,103936,1,8,0:0:0:0:
256,192,104170,1,8,0:0:0:0:
256,192,104287,1,8,0:0:0:0:
256,192,104405,1,0,0:0:0:0:
256,192,104639,1,0,0:0:0:0:
256,192,104873,1,8,0:0:0:0:
256,192,105108,1,0,0:0:0:0:
256,192,105225,1,8,0:0:0:0:
256,192,105342,1,8,0:0:0:0:
256,192,105577,1,0,0:0:0:0:
256,192,105811,1,8,0:0:0:0:
256,192,105928,1,0,0:0:0:0:
256,192,106162,1,0,0:0:0:0:
256,192,106280,1,8,0:0:0:0:
256,192,106514,1,0,0:0:0:0:
256,192,106631,1,0,0:0:0:0:
256,192,106748,1,8,0:0:0:0:
256,192,107100,1,0,0:0:0:0:
256,192,107217,1,8,0:0:0:0:
256,192,107452,1,8,0:0:0:0:
256,192,107569,1,8,0:0:0:0:
256,192,107686,1,0,0:0:0:0:
256,192,107920,1,0,0:0:0:0:
256,192,108037,1,0,0:0:0:0:
256,192,108155,1,8,0:0:0:0:
256,192,108389,1,8,0:0:0:0:
256,192,108506,1,8,0:0:0:0:
256,192,108623,1,4,0:0:0:0:
256,192,108975,1,0,0:0:0:0:
256,192,109092,1,12,0:0:0:0:
256,192,109327,1,0,0:0:0:0:
256,192,109561,1,8,0:0:0:0:
256,192,109678,1,8,0:0:0:0:
256,192,109795,1,0,0:0:0:0:
256,192,110030,1,8,0:0:0:0:
256,192,110264,1,8,0:0:0:0:
256,192,110381,1,8,0:0:0:0:
256,192,110498,5,4,0:0:0:0:
256,192,110967,1,12,0:0:0:0:
256,192,111202,1,0,0:0:0:0:
256,192,111436,1,8,0:0:0:0:
256,192,111553,1,8,0:0:0:0:
256,192,111670,1,0,0:0:0:0:
256,192,111905,1,8,0:0:0:0:
256,192,112139,1,0,0:0:0:0:
256,192,112256,1,0,0:0:0:0:
256,192,112373,1,8,0:0:0:0:
256,192,112725,1,0,0:0:0:0:
256,192,112842,1,8,0:0:0:0:
256,192,113077,1,0,0:0:0:0:
256,192,113311,1,8,0:0:0:0:
256,192,113428,1,0,0:0:0:0:
256,192,113545,1,0,0:0:0:0:
256,192,113780,1,8,0:0:0:0:
256,192,114014,1,0,0:0:0:0:
256,192,114131,1,0,0:0:0:0:
256,192,114248,1,8,0:0:0:0:
256,192,114600,1,8,0:0:0:0:
256,192,114717,1,0,0:0:0:0:
256,192,114952,1,12,0:0:0:0:
256,192,115419,1,0,0:0:0:0:
256,192,115655,1,8,0:0:0:0:
256,192,115889,1,0,0:0:0:0:
256,192,116006,1,0,0:0:0:0:
256,192,116123,1,8,0:0:0:0:
256,192,116592,1,12,0:0:0:0:
256,192,116827,1,0,0:0:0:0:
256,192,117061,1,0,0:0:0:0:
256,192,117178,1,8,0:0:0:0:
256,192,117295,1,8,0:0:0:0:
256,192,117530,1,8,0:0:0:0:
256,192,117764,1,8,0:0:0:0:
256,192,117881,1,8,0:0:0:0:
256,192,117998,1,0,0:0:0:0:
256,192,118233,1,8,0:0:0:0:
256,192,118350,1,0,0:0:0:0:
256,192,118702,1,12,0:0:0:0:
256,192,119170,1,0,0:0:0:0:
256,192,119405,1,8,0:0:0:0:
256,192,119639,1,8,0:0:0:0:
256,192,119756,1,8,0:0:0:0:
256,192,119873,5,4,0:0:0:0:
256,192,120225,1,0,0:0:0:0:
256,192,120577,1,8,0:0:0:0:
256,192,121045,1,8,0:0:0:0:
256,192,121280,1,0,0:0:0:0:
256,192,121514,1,0,0:0:0:0:
256,192,121748,1,8,0:0:0:0:
256,192,122100,1,0,0:0:0:0:
256,192,122452,1,8,0:0:0:0:
256,192,122920,1,8,0:0:0:0:
256,192,123389,1,0,0:0:0:0:
256,192,123506,1,0,0:0:0:0:
256,192,123623,1,8,0:0:0:0:
256,192,123975,1,8,0:0:0:0:
256,192,124327,1,0,0:0:0:0:
256,192,124795,1,8,0:0:0:0:
256,192,125264,1,8,0:0:0:0:
256,192,125498,1,0,0:0:0:0:
256,192,125733,1,0,0:0:0:0:
256,192,125850,1,8,0:0:0:0:
256,192,126084,1,0,0:0:0:0:
256,192,126319,1,8,0:0:0:0:
256,192,126436,1,0,0:0:0:0:
256,192,126670,1,0,0:0:0:0:
256,192,126905,1,8,0:0:0:0:
256,192,127139,1,0,0:0:0:0:
256,192,127256,1,0,0:0:0:0:
256,192,127373,1,8,0:0:0:0:
256,192,127725,1,0,0:0:0:0:
256,192,128077,1,8,0:0:0:0:
256,192,128545,1,8,0:0:0:0:
256,192,128780,1,8,0:0:0:0:
256,192,129014,1,0,0:0:0:0:
256,192,129248,1,8,0:0:0:0:
256,192,129600,1,8,0:0:0:0:
256,192,129952,1,0,0:0:0:0:
256,192,130420,1,0,0:0:0:0:
256,192,130655,1,8,0:0:0:0:
256,192,130889,1,0,0:0:0:0:
256,192,131006,1,0,0:0:0:0:
256,192,131123,1,8,0:0:0:0:
256,192,131358,1,0,0:0:0:0:
256,192,131475,1,8,0:0:0:0:
256,192,131709,1,8,0:0:0:0:
256,192,131827,1,0,0:0:0:0:
256,192,132295,1,8,0:0:0:0:
256,192,132530,1,0,0:0:0:0:
256,192,132764,1,8,0:0:0:0:
256,192,132881,1,8,0:0:0:0:
256,192,132998,1,0,0:0:0:0:
256,192,133467,1,8,0:0:0:0:
256,192,133702,1,0,0:0:0:0:
256,192,133819,1,0,0:0:0:0:
256,192,133936,1,8,0:0:0:0:
256,192,134053,1,8,0:0:0:0:
256,192,134170,1,0,0:0:0:0:
256,192,134405,1,8,0:0:0:0:
256,192,134639,1,0,0:0:0:0:
256,192,134756,1,0,0:0:0:0:
256,192,134873,5,12,0:0:0:0:
256,192,135225,1,8,0:0:0:0:
256,192,135342,1,0,0:0:0:0:
256,192,135577,1,8,0:0:0:0:
256,192,135811,1,8,0:0:0:0:
256,192,136045,1,0,0:0:0:0:
256,192,136280,1,8,0:0:0:0:
256,192,136514,1,0,0:0:0:0:
256,192,136631,1,0,0:0:0:0:
256,192,136748,1,8,0:0:0:0:
256,192,136983,1,8,0:0:0:0:
256,192,137100,1,8,0:0:0:0:
256,192,137217,1,0,0:0:0:0:
256,192,137452,1,8,0:0:0:0:
256,192,137569,1,8,0:0:0:0:
256,192,137686,1,0,0:0:0:0:
256,192,137920,1,8,0:0:0:0:
256,192,138155,1,0,0:0:0:0:
256,192,138389,1,0,0:0:0:0:
256,192,138506,1,0,0:0:0:0:
256,192,138623,1,8,0:0:0:0:
256,192,138975,1,0,0:0:0:0:
256,192,139092,1,8,0:0:0:0:
256,192,139327,1,0,0:0:0:0:
256,192,139444,1,0,0:0:0:0:
256,192,139561,1,0,0:0:0:0:
256,192,139795,1,8,0:0:0:0:
256,192,140030,1,0,0:0:0:0:
256,192,140264,1,8,0:0:0:0:
256,192,140381,1,8,0:0:0:0:
256,192,140498,1,0,0:0:0:0:
256,192,140733,1,8,0:0:0:0:
256,192,140850,1,0,0:0:0:0:
256,192,141084,1,8,0:0:0:0:
256,192,141319,1,0,0:0:0:0:
256,192,141436,1,8,0:0:0:0:
256,192,141553,1,8,0:0:0:0:
256,192,141670,1,0,0:0:0:0:
256,192,141905,1,8,0:0:0:0:
256,192,142139,1,0,0:0:0:0:
256,192,142256,1,0,0:0:0:0:
256,192,142373,1,8,0:0:0:0:
256,192,142725,1,0,0:0:0:0:
256,192,142842,1,8,0:0:0:0:
256,192,143077,1,0,0:0:0:0:
256,192,143194,1,0,0:0:0:0:
256,192,143311,1,0,0:0:0:0:
256,192,143545,1,8,0:0:0:0:
256,192,143780,1,8,0:0:0:0:
256,192,144014,1,8,0:0:0:0:
256,192,144131,1,8,0:0:0:0:
256,192,144248,1,0,0:0:0:0:
256,192,144483,1,0,0:0:0:0:
256,192,144600,1,0,0:0:0:0:
256,192,144717,1,8,0:0:0:0:
256,192,144952,1,0,0:0:0:0:
256,192,145069,1,0,0:0:0:0:
256,192,145186,1,8,0:0:0:0:
256,192,145420,1,0,0:0:0:0:
256,192,145655,1,8,0:0:0:0:
256,192,145889,1,8,0:0:0:0:
256,192,146006,1,8,0:0:0:0:
256,192,146123,1,0,0:0:0:0:
256,192,146358,1,0,0:0:0:0:
256,192,146475,1,8,0:0:0:0:
256,192,146709,1,8,0:0:0:0:
256,192,146827,1,0,0:0:0:0:
256,192,147061,1,8,0:0:0:0:
256,192,147295,1,0,0:0:0:0:
256,192,147530,1,8,0:0:0:0:
256,192,147764,1,8,0:0:0:0:
256,192,147881,1,8,0:0:0:0:
256,192,147998,1,0,0:0:0:0:
256,192,148233,1,8,0:0:0:0:
256,192,148350,1,0,0:0:0:0:
256,192,148467,1,8,0:0:0:0:
256,192,148702,1,0,0:0:0:0:
256,192,148936,1,0,0:0:0:0:
256,192,149053,1,8,0:0:0:0:
256,192,149170,1,0,0:0:0:0:
256,192,149405,1,8,0:0:0:0:
256,192,149639,1,8,0:0:0:0:
256,192,149756,1,8,0:0:0:0:
256,192,149873,5,4,0:0:0:0:
256,192,150225,1,0,0:0:0:0:
256,192,150577,1,8,0:0:0:0:
256,192,150694,1,0,0:0:0:0:
256,192,151045,1,0,0:0:0:0:
256,192,151280,1,8,0:0:0:0:
256,192,151514,1,8,0:0:0:0:
256,192,151748,1,0,0:0:0:0:
256,192,152100,1,0,0:0:0:0:
256,192,152452,1,8,0:0:0:0:
256,192,152569,1,0,0:0:0:0:
256,192,152686,1,0,0:0:0:0:
256,192,152920,1,0,0:0:0:0:
256,192,153155,1,8,0:0:0:0:
256,192,153389,1,8,0:0:0:0:
256,192,153506,1,8,0:0:0:0:
256,192,153623,1,0,0:0:0:0:
256,192,153975,1,0,0:0:0:0:
256,192,154327,1,8,0:0:0:0:
256,192,154444,1,0,0:0:0:0:
256,192,154795,1,0,0:0:0:0:
256,192,155030,1,8,0:0:0:0:
256,192,155264,1,8,0:0:0:0:
256,192,155498,1,0,0:0:0:0:
256,192,155850,1,0,0:0:0:0:
256,192,156202,1,8,0:0:0:0:
256,192,156670,1,0,0:0:0:0:
256,192,156905,1,8,0:0:0:0:
256,192,157022,1,8,0:0:0:0:
256,192,157139,1,0,0:0:0:0:
256,192,157256,1,0,0:0:0:0:
256,192,157373,1,8,0:0:0:0:
256,192,157725,1,0,0:0:0:0:
256,192,158077,1,8,0:0:0:0:
256,192,158194,1,0,0:0:0:0:
256,192,158545,1,8,0:0:0:0:
256,192,158780,1,0,0:0:0:0:
256,192,159014,1,0,0:0:0:0:
256,192,159248,1,8,0:0:0:0:
256,192,159600,1,0,0:0:0:0:
256,192,159952,1,8,0:0:0:0:
256,192,160186,1,0,0:0:0:0:
256,192,160420,1,0,0:0:0:0:
256,192,160655,1,8,0:0:0:0:
256,192,160889,1,0,0:0:0:0:
256,192,161006,1,8,0:0:0:0:
256,192,161123,1,8,0:0:0:0:
256,192,161475,1,8,0:0:0:0:
256,192,161592,1,0,0:0:0:0:
256,192,161827,1,0,0:0:0:0:
256,192,162061,1,8,0:0:0:0:
256,192,162412,1,8,0:0:0:0:
256,192,162530,1,0,0:0:0:0:
256,192,162764,1,0,0:0:0:0:
256,192,162998,5,12,0:0:0:0:
256,192,163467,1,8,0:0:0:0:
256,192,163702,1,0,0:0:0:0:
256,192,163936,1,8,0:0:0:0:
256,192,164170,1,8,0:0:0:0:
256,192,164405,1,0,0:0:0:0:
256,192,164639,1,8,0:0:0:0:
256,192,164756,1,8,0:0:0:0:
256,192,164873,1,0,0:0:0:0:
256,192,165108,1,0,0:0:0:0:
256,192,165225,1,8,0:0:0:0:
256,192,165459,1,8,0:0:0:0:
256,192,165577,1,0,0:0:0:0:
256,192,165811,1,8,0:0:0:0:
256,192,166045,1,0,0:0:0:0:
256,192,166280,1,8,0:0:0:0:
256,192,166397,1,8,0:0:0:0:
256,192,166514,1,0,0:0:0:0:
256,192,166631,1,0,0:0:0:0:
256,192,166748,5,12,0:0:0:0:
256,192,167217,1,12,0:0:0:0:
256,192,167452,1,0,0:0:0:0:
256,192,167686,1,0,0:0:0:0:
256,192,167803,1,8,0:0:0:0:
256,192,168037,1,8,0:0:0:0:
256,192,168272,1,8,0:0:0:0:
256,192,168389,1,0,0:0:0:0:
256,192,168623,1,8,0:0:0:0:
256,192,168858,1,0,0:0:0:0:
256,192,168975,1,0,0:0:0:0:
256,192,169092,1,8,0:0:0:0:
256,192,169327,1,0,0:0:0:0:
256,192,169444,1,0,0:0:0:0:
256,192,169561,1,8,0:0:0:0:
256,192,169678,1,0,0:0:0:0:
256,192,170030,1,8,0:0:0:0:
256,192,170264,1,0,0:0:0:0:
256,192,170381,1,0,0:0:0:0:
256,192,170498,1,8,0:0:0:0:
256,192,170850,1,8,0:0:0:0:
256,192,170967,1,0,0:0:0:0:
256,192,171202,1,0,0:0:0:0:
256,192,171670,1,0,0:0:0:0:
256,192,171905,1,8,0:0:0:0:
256,192,172139,1,0,0:0:0:0:
256,192,172256,1,0,0:0:0:0:
256,192,172373,1,8,0:0:0:0:
256,192,172725,1,0,0:0:0:0:
256,192,172842,1,8,0:0:0:0:
256,192,173077,1,8,0:0:0:0:
256,192,173311,1,0,0:0:0:0:
256,192,173428,1,8,0:0:0:0:
256,192,173545,1,0,0:0:0:0:
256,192,173780,1,0,0:0:0:0:
256,192,174014,1,8,0:0:0:0:
256,192,174131,1,8,0:0:0:0:
256,192,174248,1,4,0:0:0:0:
256,192,174717,1,8,0:0:0:0:
256,192,174952,1,0,0:0:0:0:
256,192,175186,1,8,0:0:0:0:
256,192,175303,1,8,0:0:0:0:
256,192,175420,1,0,0:0:0:0:
256,192,175655,1,8,0:0:0:0:
256,192,175889,1,8,0:0:0:0:
256,192,176006,1,8,0:0:0:0:
256,192,176123,1,0,0:0:0:0:
256,192,176475,1,0,0:0:0:0:
256,192,176592,1,8,0:0:0:0:
256,192,176827,1,8,0:0:0:0:
256,192,176944,1,0,0:0:0:0:
256,192,177061,1,8,0:0:0:0:
256,192,177178,1,0,0:0:0:0:
256,192,177530,1,8,0:0:0:0:
256,192,177764,1,0,0:0:0:0:
256,192,177881,1,0,0:0:0:0:
256,192,177998,1,8,0:0:0:0:
256,192,178350,1,0,0:0:0:0:
256,192,178467,1,8,0:0:0:0:
256,192,178702,1,8,0:0:0:0:
256,192,178936,1,0,0:0:0:0:
256,192,179053,1,8,0:0:0:0:
256,192,179170,1,0,0:0:0:0:
256,192,179287,1,0,0:0:0:0:
256,192,179405,1,8,0:0:0:0:
256,192,179639,1,0,0:0:0:0:
256,192,179873,1,8,0:0:0:0:
256,192,180225,1,8,0:0:0:0:
256,192,180342,1,0,0:0:0:0:
256,192,180577,1,8,0:0:0:0:
256,192,180694,1,8,0:0:0:0:
256,192,180811,1,0,0:0:0:0:
256,192,181045,1,0,0:0:0:0:
256,192,181280,1,8,0:0:0:0:
256,192,181397,1,8,0:0:0:0:
256,192,181514,1,0,0:0:0:0:
256,192,181631,1,0,0:0:0:0:
256,192,181748,1,12,0:0:0:0:
256,192,182100,1,8,0:0:0:0:
256,192,182217,1,0,0:0:0:0:
256,192,182452,1,12,0:0:0:0:
256,192,182920,1,8,0:0:0:0:
256,192,183155,1,0,0:0:0:0:
256,192,183389,1,0,0:0:0:0:
256,192,183506,1,0,0:0:0:0:
256,192,183623,1,12,0:0:0:0:
256,192,183975,1,12,0:0:0:0:
256,192,184327,1,4,0:0:0:0:
256,192,184678,1,8,0:0:0:0:
256,192,184795,1,0,0:0:0:0:
256,192,185030,1,8,0:0:0:0:
256,192,185264,1,0,0:0:0:0:
256,192,185381,1,0,0:0:0:0:
256,192,185498,1,12,0:0:0:0:
256,192,185850,1,8,0:0:0:0:
256,192,185967,1,0,0:0:0:0:
256,192,186202,1,12,0:0:0:0:
256,192,186670,1,0,0:0:0:0:
256,192,186905,1,8,0:0:0:0:
256,192,187139,1,8,0:0:0:0:
256,192,187256,1,8,0:0:0:0:
256,192,187373,1,4,0:0:0:0:
256,192,187725,1,12,0:0:0:0:
256,192,188077,1,4,0:0:0:0:
256,192,188545,1,0,0:0:0:0:
256,192,188780,1,8,0:0:0:0:
256,192,188897,1,8,0:0:0:0:
256,192,189014,1,0,0:0:0:0:
256,192,189131,1,0,0:0:0:0:
256,192,189248,1,12,0:0:0:0:
256,192,189600,1,8,0:0:0:0:
256,192,189717,1,0,0:0:0:0:
256,192,189952,1,12,0:0:0:0:
256,192,190420,1,0,0:0:0:0:
256,192,190655,1,8,0:0:0:0:
256,192,190889,1,0,0:0:0:0:
256,192,191006,1,0,0:0:0:0:
256,192,191123,1,12,0:0:0:0:
256,192,191475,1,12,0:0:0:0:
256,192,191827,1,4,0:0:0:0:
256,192,192295,1,0,0:0:0:0:
256,192,192530,1,8,0:0:0:0:
256,192,192764,1,0,0:0:0:0:
256,192,192881,1,0,0:0:0:0:
256,192,192998,1,12,0:0:0:0:
256,192,193467,1,12,0:0:0:0:
256,192,193702,1,0,0:0:0:0:
256,192,193819,1,0,0:0:0:0:
256,192,193936,1,8,0:0:0:0:
256,192,194287,1,8,0:0:0:0:
256,192,194405,1,0,0:0:0:0:
256,192,194639,1,8,0:0:0:0:
256,192,194756,1,8,0:0:0:0:
256,192,194873,1,0,0:0:0:0:
256,192,195342,1,8,0:0:0:0:
256,192,195577,1,0,0:0:0:0:
256,192,195694,1,0,0:0:0:0:
256,192,195811,1,8,0:0:0:0:
256,192,196045,1,8,0:0:0:0:
256,192,196280,1,0,0:0:0:0:
256,192,196514,1,8,0:0:0:0:
256,192,196631,1,8,0:0:0:0:
256,192,196748,1,0,0:0:0:0:
256,192,197217,1,8,0:0:0:0:
256,192,197452,1,8,0:0:0:0:
256,192,197686,1,0,0:0:0:0:
256,192,197803,1,8,0:0:0:0:
256,192,197920,1,0,0:0:0:0:
256,192,198155,1,8,0:0:0:0:
256,192,198389,1,0,0:0:0:0:
256,192,198506,1,0,0:0:0:0:
256,192,198623,1,8,0:0:0:0:
256,192,199092,1,12,0:0:0:0:
256,192,199795,1,0,0:0:0:0:
256,192,200030,1,8,0:0:0:0:
256,192,200264,1,8,0:0:0:0:
256,192,200498,5,0,0:0:0:0:
256,192,200850,1,8,0:0:0:0:
256,192,201202,1,0,0:0:0:0:
256,192,201670,1,0,0:0:0:0:
256,192,201905,1,8,0:0:0:0:
256,192,202139,1,8,0:0:0:0:
256,192,202373,1,0,0:0:0:0:
256,192,202725,1,8,0:0:0:0:
256,192,203077,1,0,0:0:0:0:
256,192,203545,1,0,0:0:0:0:
256,192,203780,1,8,0:0:0:0:
256,192,204014,1,8,0:0:0:0:
256,192,204248,1,0,0:0:0:0:
256,192,204600,1,0,0:0:0:0:
256,192,204952,1,8,0:0:0:0:
256,192,205186,1,8,0:0:0:0:
256,192,205537,1,0,0:0:0:0:
256,192,205889,1,8,0:0:0:0:
256,192,206123,1,0,0:0:0:0:
256,192,206475,1,0,0:0:0:0:
256,192,206827,1,0,0:0:0:0:
256,192,207061,1,8,0:0:0:0:
256,192,207530,1,8,0:0:0:0:
256,192,207998,1,0,0:0:0:0:
256,192,208702,1,0,0:0:0:0:
256,192,208819,1,0,0:0:0:0:
256,192,208936,1,8,0:0:0:0:
256,192,209287,1,0,0:0:0:0:
256,192,209639,1,8,0:0:0:0:
256,192,209873,1,0,0:0:0:0:
256,192,210225,1,8,0:0:0:0:
256,192,210577,1,0,0:0:0:0:
256,192,211045,1,8,0:0:0:0:
256,192,211514,1,0,0:0:0:0:
256,192,211748,1,0,0:0:0:0:
256,192,211983,1,8,0:0:0:0:
256,192,212452,1,0,0:0:0:0:
256,192,212569,1,0,0:0:0:0:
256,192,212686,1,8,0:0:0:0:
256,192,212920,1,0,0:0:0:0:
256,192,213155,1,8,0:0:0:0:
256,192,213389,1,8,0:0:0:0:
256,192,213623,1,4,0:0:0:0:
256,192,213975,1,4,0:0:0:0:
256,192,214327,1,12,0:0:0:0:
256,192,214795,1,0,0:0:0:0:
256,192,215030,1,8,0:0:0:0:
256,192,215147,1,8,0:0:0:0:
256,192,215264,1,8,0:0:0:0:
256,192,215498,1,4,0:0:0:0:
256,192,215850,1,4,0:0:0:0:
256,192,216202,1,12,0:0:0:0:
256,192,216670,1,0,0:0:0:0:
256,192,216905,1,8,0:0:0:0:
256,192,217139,1,8,0:0:0:0:
256,192,217373,5,4,0:0:0:0:
256,192,217725,1,0,0:0:0:0:
256,192,217842,1,12,0:0:0:0:
256,192,218077,1,8,0:0:0:0:
256,192,218194,1,8,0:0:0:0:
256,192,218311,1,0,0:0:0:0:
256,192,218545,1,0,0:0:0:0:
256,192,218780,1,8,0:0:0:0:
256,192,218897,1,8,0:0:0:0:
256,192,219014,1,0,0:0:0:0:
256,192,219248,1,8,0:0:0:0:
256,192,219600,1,0,0:0:0:0:
256,192,219717,1,8,0:0:0:0:
256,192,219952,1,0,0:0:0:0:
256,192,220186,1,8,0:0:0:0:
256,192,220303,1,8,0:0:0:0:
256,192,220420,1,0,0:0:0:0:
256,192,220655,1,8,0:0:0:0:
256,192,220889,1,0,0:0:0:0:
256,192,221006,1,0,0:0:0:0:
256,192,221123,1,8,0:0:0:0:
256,192,221475,1,8,0:0:0:0:
256,192,221592,1,0,0:0:0:0:
256,192,221827,1,0,0:0:0:0:
256,192,221944,1,0,0:0:0:0:
256,192,222061,1,8,0:0:0:0:
256,192,222412,1,8,0:0:0:0:
256,192,222530,1,0,0:0:0:0:
256,192,222764,1,0,0:0:0:0:
256,192,222881,1,0,0:0:0:0:
256,192,222998,1,8,0:0:0:0:
256,192,223350,1,8,0:0:0:0:
256,192,223467,1,0,0:0:0:0:
256,192,223702,1,8,0:0:0:0:
256,192,223936,1,0,0:0:0:0:
256,192,224053,1,8,0:0:0:0:
256,192,224405,1,8,0:0:0:0:
256,192,224639,1,0,0:0:0:0:
256,192,224756,1,8,0:0:0:0:
256,192,224873,1,4,0:0:0:0:
256,192,225342,1,8,0:0:0:0:
256,192,225577,1,0,0:0:0:0:
256,192,225694,1,0,0:0:0:0:
256,192,225811,1,8,0:0:0:0:
256,192,226045,1,8,0:0:0:0:
256,192,226162,1,8,0:0:0:0:
256,192,226280,1,0,0:0:0:0:
256,192,226514,1,8,0:0:0:0:
256,192,226748,1,0,0:0:0:0:
256,192,226983,1,0,0:0:0:0:
256,192,227100,1,0,0:0:0:0:
256,192,227217,1,8,0:0:0:0:
256,192,227452,1,0,0:0:0:0:
256,192,227686,1,0,0:0:0:0:
256,192,227803,1,8,0:0:0:0:
256,192,227920,1,8,0:0:0:0:
256,192,228155,1,0,0:0:0:0:
256,192,228389,1,8,0:0:0:0:
256,192,228506,1,8,0:0:0:0:
256,192,228623,1,0,0:0:0:0:
256,192,228858,1,0,0:0:0:0:
256,192,228975,1,0,0:0:0:0:
256,192,229092,1,8,0:0:0:0:
256,192,229327,1,8,0:0:0:0:
256,192,229444,1,0,0:0:0:0:
256,192,229561,1,8,0:0:0:0:
256,192,229912,1,8,0:0:0:0:
256,192,230030,1,0,0:0:0:0:
256,192,230264,1,8,0:0:0:0:
256,192,230381,1,8,0:0:0:0:
256,192,230498,1,4,0:0:0:0:
256,192,230850,1,12,0:0:0:0:
256,192,231202,1,4,0:0:0:0:
256,192,231670,1,0,0:0:0:0:
256,192,231787,1,0,0:0:0:0:
256,192,231905,1,8,0:0:0:0:
256,192,232022,1,8,0:0:0:0:
256,192,232139,1,8,0:0:0:0:
256,192,232256,1,8,0:0:0:0:
256,192,232373,1,4,0:0:0:0:
256,192,232725,1,0,0:0:0:0:
256,192,232842,1,12,0:0:0:0:
256,192,233077,1,8,0:0:0:0:
256,192,233194,1,8,0:0:0:0:
256,192,233311,1,0,0:0:0:0:
256,192,233545,1,0,0:0:0:0:
256,192,233780,1,8,0:0:0:0:
256,192,233897,1,8,0:0:0:0:
256,192,234014,1,0,0:0:0:0:
256,192,234248,1,8,0:0:0:0:
256,192,234600,1,0,0:0:0:0:
256,192,234717,1,8,0:0:0:0:
256,192,234952,1,0,0:0:0:0:
256,192,235186,1,8,0:0:0:0:
256,192,235303,1,8,0:0:0:0:
256,192,235420,1,0,0:0:0:0:
256,192,235655,1,8,0:0:0:0:
256,192,235889,1,0,0:0:0:0:
256,192,236006,1,0,0:0:0:0:
256,192,236123,1,12,0:0:0:0:
256,192,236475,1,12,0:0:0:0:
256,192,236827,1,0,0:0:0:0:
256,192,237061,1,12,0:0:0:0:
256,192,237412,1,12,0:0:0:0:
256,192,237764,1,0,0:0:0:0:
256,192,237998,1,12,0:0:0:0:
256,192,238350,1,12,0:0:0:0:
256,192,238702,1,0,0:0:0:0:
256,192,238936,1,12,0:0:0:0:
256,192,239405,1,8,0:0:0:0:
256,192,239873,1,4,0:0:0:0:
256,192,240342,1,12,0:0:0:0:
256,192,240577,1,0,0:0:0:0:
256,192,240694,1,0,0:0:0:0:
256,192,240811,1,8,0:0:0:0:
256,192,241045,1,8,0:0:0:0:
256,192,241162,1,8,0:0:0:0:
256,192,241280,1,0,0:0:0:0:
256,192,241514,1,0,0:0:0:0:
256,192,241748,1,8,0:0:0:0:
256,192,241983,1,0,0:0:0:0:
256,192,242100,1,8,0:0:0:0:
256,192,242217,1,8,0:0:0:0:
256,192,242452,1,0,0:0:0:0:
256,192,242686,1,8,0:0:0:0:
256,192,242803,1,0,0:0:0:0:
256,192,243037,1,0,0:0:0:0:
256,192,243155,1,8,0:0:0:0:
256,192,243389,1,0,0:0:0:0:
256,192,243506,1,0,0:0:0:0:
256,192,243623,1,8,0:0:0:0:
256,192,243975,1,0,0:0:0:0:
256,192,244092,1,8,0:0:0:0:
256,192,244327,1,8,0:0:0:0:
256,192,244444,1,8,0:0:0:0:
256,192,244561,1,0,0:0:0:0:
256,192,244795,1,0,0:0:0:0:
256,192,244912,1,0,0:0:0:0:
256,192,245030,1,8,0:0:0:0:
256,192,245264,1,8,0:0:0:0:
256,192,245381,1,8,0:0:0:0:
256,192,245498,1,4,0:0:0:0:
256,192,245850,1,0,0:0:0:0:
256,192,245967,1,12,0:0:0:0:
256,192,246202,1,0,0:0:0:0:
256,192,246436,1,8,0:0:0:0:
256,192,246553,1,8,0:0:0:0:
256,192,246670,1,0,0:0:0:0:
256,192,246905,1,0,0:0:0:0:
256,192,247139,1,8,0:0:0:0:
256,192,247256,1,8,0:0:0:0:
256,192,247373,1,4,0:0:0:0:
256,192,247725,1,0,0:0:0:0:
256,192,247842,1,12,0:0:0:0:
256,192,248077,1,0,0:0:0:0:
256,192,248311,1,8,0:0:0:0:
256,192,248428,1,8,0:0:0:0:
256,192,248545,1,0,0:0:0:0:
256,192,248780,1,8,0:0:0:0:
256,192,249014,1,0,0:0:0:0:
256,192,249131,1,0,0:0:0:0:
256,192,249248,1,8,0:0:0:0:
256,192,249600,1,0,0:0:0:0:
256,192,249717,1,8,0:0:0:0:
256,192,249952,1,0,0:0:0:0:
256,192,250186,1,0,0:0:0:0:
256,192,250303,1,8,0:0:0:0:
256,192,250537,1,8,0:0:0:0:
256,192,250655,1,0,0:0:0:0:
256,192,250889,1,0,0:0:0:0:
256,192,251006,1,0,0:0:0:0:
256,192,251123,1,8,0:0:0:0:
256,192,251475,1,8,0:0:0:0:
256,192,251592,1,0,0:0:0:0:
256,192,251827,1,8,0:0:0:0:
256,192,252061,1,0,0:0:0:0:
256,192,252178,1,0,0:0:0:0:
256,192,252295,1,8,0:0:0:0:
256,192,252530,1,0,0:0:0:0:
256,192,252764,1,0,0:0:0:0:
256,192,252881,1,0,0:0:0:0:
256,192,252998,1,8,0:0:0:0:
256,192,253350,1,0,0:0:0:0:
256,192,253467,1,8,0:0:0:0:
256,192,253702,1,0,0:0:0:0:
256,192,253936,1,0,0:0:0:0:
256,192,254053,1,8,0:0:0:0:
256,192,254170,1,8,0:0:0:0:
256,192,254405,1,8,0:0:0:0:
256,192,254639,1,8,0:0:0:0:
256,192,254756,1,8,0:0:0:0:
256,192,254873,5,4,0:0:0:0:
256,192,255342,1,0,0:0:0:0:
256,192,255577,1,8,0:0:0:0:
256,192,255811,1,0,0:0:0:0:
256,192,256280,1,8,0:0:0:0:
256,192,256514,1,0,0:0:0:0:
256,192,256748,1,8,0:0:0:0:
256,192,257100,1,8,0:0:0:0:
256,192,257452,1,0,0:0:0:0:
256,192,257920,1,0,0:0:0:0:
256,192,258155,1,8,0:0:0:0:
256,192,258389,1,0,0:0:0:0:
256,192,258506,1,0,0:0:0:0:
256,192,258623,1,8,0:0:0:0:
256,192,258975,1,0,0:0:0:0:
256,192,259327,1,8,0:0:0:0:
256,192,259795,1,8,0:0:0:0:
256,192,260030,1,0,0:0:0:0:
256,192,260264,1,0,0:0:0:0:
256,192,260381,1,0,0:0:0:0:
256,192,260498,1,8,0:0:0:0:
256,192,260850,1,8,0:0:0:0:
256,192,261202,1,0,0:0:0:0:
256,192,261436,1,8,0:0:0:0:
256,192,261787,1,8,0:0:0:0:
256,192,262139,1,0,0:0:0:0:
256,192,262373,12,8,269405,0:0:0:0:
