osu file format v14

[General]
AudioFilename: dandan.mp3
AudioLeadIn: 0
PreviewTime: 42068
Countdown: 0
SampleSet: Normal
StackLeniency: 0.7
Mode: 1
LetterboxInBreaks: 0
WidescreenStoryboard: 0

[Editor]
Bookmarks: 1254,19157,26776,34395,42014,56465,63225,69986,76746,93683,98285,111859,117859,124204,135664
DistanceSpacing: 0.8
BeatDivisor: 4
GridSize: 4
TimelineZoom: 1.1

[Metadata]
Title:Dandan Hayaku Naru
TitleUnicode:だんだん早くなる
Artist:40mP
ArtistUnicode:40mP
Creator:Volta
Version:Oni
Source:
Tags:gradually getting faster vocaloid 初音ミク hatsune miku 40Meter-P 40㍍P
BeatmapID:1477882
BeatmapSetID:697711

[Difficulty]
HPDrainRate:6
CircleSize:5
OverallDifficulty:5.5
ApproachRate:5
SliderMultiplier:1.4
SliderTickRate:1

[Events]
//Background and Video events
0,0,"hayaku.jpg",0,120
//Break Periods
//Storyboard Layer 0 (Background)
//Storyboard Layer 1 (Fail)
//Storyboard Layer 2 (Pass)
//Storyboard Layer 3 (Foreground)
//Storyboard Sound Samples

[TimingPoints]
1310,638.297872340426,4,1,0,80,1,0
3224,-97.9166662586805,4,1,0,80,0,0
3544,-96.9072168345201,4,1,0,80,0,0
3863,612.244897959184,4,1,0,80,1,0
5393,-98.9899069890834,4,1,0,80,0,0
5699,-98.0000156800025,4,1,0,80,0,0
6005,-97.0297260268656,4,1,0,80,0,0
6311,588.235294117647,4,1,0,80,1,0
8075,-98.0769233786982,4,1,0,80,0,0
8369,-97.1428575869388,4,1,0,80,0,0
8663,566.037735849057,4,1,0,80,1,0
10078,-99.0654207829505,4,1,0,80,0,0
10361,-98.1481485843621,4,1,0,80,0,0
10644,-97.2477061186769,4,1,0,80,0,0
10927,545.454545454546,4,1,0,80,1,0
12563,-98.2142874681123,4,1,0,80,0,0
12836,-97.345135327747,4,1,0,80,0,0
13108,526.315789473684,4,1,0,80,1,0
14423,-99.1304347653686,4,1,0,80,0,0
14686,-98.2758620350773,4,1,0,80,0,0
14950,-97.4358973859303,4,1,0,80,0,0
15213,508.474576271186,4,1,0,80,1,0
16738,-98.3333335791667,4,1,0,80,0,0
16992,-97.520661044191,4,1,0,80,0,0
17246,491.803278688525,4,1,0,80,1,0
18475,-99.1869919989424,4,1,0,80,0,0
18721,-98.3870970280957,4,1,0,80,0,0
18967,-97.600000374784,4,1,0,80,0,0
19213,476.190476190476,4,1,0,80,1,0
42070,-100,4,1,0,80,0,1
43498,-99.2125982220844,4,1,0,80,0,1
43736,-98.8235295977855,4,1,0,80,0,1
43974,468.75,4,1,0,80,1,1
45380,-99.2248062015504,4,1,0,80,0,1
45614,-98.8416988416988,4,1,0,80,0,1
45849,461.538461538462,4,1,0,80,1,1
47233,-99.2366409941146,4,1,0,80,0,1
47464,-98.8592981480174,4,1,0,80,0,1
47695,454.545454545455,4,1,0,80,1,1
49058,-99.2481259720734,4,1,0,80,0,1
49285,-98.8764080494888,4,1,0,80,0,1
49513,447.761194029851,4,1,0,80,1,1
50856,-99.2592589210425,4,1,0,80,0,1
51080,-98.8929889152925,4,1,0,80,0,1
51304,441.176470588235,4,1,0,80,1,1
52627,-99.2700731086366,4,1,0,80,0,1
52848,-98.9090910817322,4,1,0,80,0,1
53068,434.782608695652,4,1,0,80,1,1
54372,-99.2805752252989,4,1,0,80,0,1
54589,-98.9247307147647,4,1,0,80,0,1
54807,428.571428571429,4,1,0,80,1,1
56092,-99.290779860168,4,1,0,80,0,1
56307,-98.9399289090886,4,1,0,80,0,1
56521,422.535211267606,4,1,0,80,1,0
76380,-102.158273322499,4,1,0,80,0,0
76802,441.176470588235,4,1,0,80,1,1
77463,-100.740740621344,4,1,0,80,0,1
77684,-101.492537071063,4,1,0,80,0,1
77794,-101.872658870794,4,1,0,80,0,1
77904,-102.255638728701,4,1,0,80,0,1
78125,-103.030302530762,4,1,0,80,0,1
78346,-103.816794336927,4,1,0,80,0,1
78566,461.538461538462,4,1,0,80,1,1
79258,-100.775194032811,4,1,0,80,0,1
79489,-101.562500476074,4,1,0,80,0,1
79604,-101.960784393695,4,1,0,80,0,1
79719,-102.362204402009,4,1,0,80,0,1
79950,-103.174603092719,4,1,0,80,0,1
80181,-104.0000001664,4,1,0,80,0,1
80412,483.870967741935,4,1,0,80,1,1
81137,-100.813008137294,4,1,0,80,0,1
81379,-101.639344266627,4,1,0,80,0,1
81500,-102.057613176788,4,1,0,80,0,1
81621,-102.47933884433,4,1,0,80,0,1
81863,-103.333333342289,4,1,0,80,0,1
82105,-104.201680678223,4,1,0,80,0,1
82347,508.474576271186,4,1,0,80,1,1
83109,-100.854700857632,4,1,0,80,0,1
83363,-101.724137936998,4,1,0,80,0,1
83491,-102.164502166802,4,1,0,80,0,1
83618,-102.608695661275,4,1,0,80,0,1
83872,-103.508771931459,4,1,0,80,0,1
84126,-104.424778765867,4,1,0,80,0,1
84380,535.714285714286,4,1,0,80,1,1
85183,-100.900900908173,4,1,0,80,0,1
85451,-101.818181822625,4,1,0,80,0,1
85585,-102.28310502582,4,1,0,80,0,1
85719,-102.75229357949,4,1,0,80,0,1
85987,-103.703703712922,4,1,0,80,0,1
86255,-104.672897202522,4,1,0,80,0,1
86522,566.037735849057,4,1,0,80,1,1
87371,-100.952380956034,4,1,0,80,0,1
87512,-101.435406698953,4,1,0,80,0,1
87654,-101.923076930525,4,1,0,80,0,1
87937,-102.912621360023,4,1,0,80,0,1
88220,-103.921568632138,4,1,0,80,0,1
88503,-104.950495058234,4,1,0,80,0,1
88786,600,4,1,0,80,1,0
89686,-101.010101010101,4,1,0,80,0,0
89986,-102.040816326531,4,1,0,80,0,0
90136,-102.564102564103,4,1,0,80,0,0
90286,-103.092783505155,4,1,0,80,0,0
90586,-104.166666666667,4,1,0,80,0,0
90886,-105.263157894737,4,1,0,80,0,0
91186,638.297872340426,4,1,0,80,1,0
92143,-101.07526882003,4,1,0,80,0,0
92303,-101.62162163107,4,1,0,80,0,0
92462,-102.173913049253,4,1,0,80,0,0
92781,-103.296703305557,4,1,0,80,0,0
93100,-104.444444445605,4,1,0,80,0,0
93420,-105.617977532362,4,1,0,80,0,0
93739,681.818181818182,4,1,0,80,1,0
96466,468.75,4,1,0,80,1,0
98341,-100,4,1,0,80,0,1
99395,-99.6108949416342,4,1,0,80,0,1
99512,-99.2248062015504,4,1,0,80,0,1
99630,-98.8417843264853,4,1,0,80,0,1
99747,-98.4615384615385,4,1,0,80,0,1
99981,-97.7099236641221,4,1,0,80,0,1
100216,454.545454545455,4,1,0,80,1,1
101579,-98.5074627012698,4,1,0,80,0,1
101806,-97.7777777803852,4,1,0,80,0,1
102034,441.176470588235,4,1,0,80,1,1
103026,-99.6336996325318,4,1,0,80,0,1
103136,-99.270072990382,4,1,0,80,0,1
103247,-98.9090909056381,4,1,0,80,0,1
103357,-98.5507246331107,4,1,0,80,0,1
103578,-97.8417266215206,4,1,0,80,0,1
103798,428.571428571429,4,1,0,80,1,1
105083,-98.591549294386,4,1,0,80,0,1
105298,-97.9020979048364,4,1,0,80,0,1
105512,416.666666666667,4,1,0,80,1,1
106449,-99.6539792409612,4,1,0,80,0,1
106553,-99.3103448714197,4,1,0,80,0,1
106657,-98.9690721714784,4,1,0,80,0,1
106762,-98.630137851004,4,1,0,80,0,1
106970,-97.9591839933361,4,1,0,80,0,1
107178,405.405405405405,4,1,0,80,1,1
108394,-98.6666666679822,4,1,0,80,0,1
108596,-98.0132450590764,4,1,0,80,0,1
108799,394.736842105263,4,1,0,80,1,1
109687,-99.6721311459724,4,1,0,80,0,1
109785,-99.3464052256414,4,1,0,80,0,1
109884,-99.0228012982869,4,1,0,80,0,1
109983,-98.7012987048878,4,1,0,80,0,1
110180,-98.0645161295384,4,1,0,80,0,1
110377,384.615384615385,4,1,0,80,1,1
111530,-98.7341772171896,4,1,0,80,0,1
111723,-98.1132075501317,4,1,0,80,0,1
111915,375,4,1,0,80,1,0
122415,400,4,1,0,80,1,0
122415,-93.7500585937866,4,1,0,80,0,0
122515,-95.2380952380952,4,1,0,80,0,0
122615,-96.7741966701354,4,1,0,80,0,0
122815,428.571428571429,4,1,0,80,1,8
122815,-93.3333333358222,4,1,0,80,0,8
123029,-96.5517241392628,4,1,0,80,0,8
123136,-98.2456140309511,4,1,0,80,0,8
123243,461.538461538462,4,1,0,80,1,8
123243,-92.8571428591327,4,1,0,80,0,8
123358,-94.5454545447669,4,1,0,80,0,8
123473,-96.2962962927298,4,1,0,80,0,8
123589,-98.1132075501317,4,1,0,80,0,8
123704,500,4,1,0,80,1,8
123704,-92.3076951479291,4,1,0,80,0,8
123954,-96.0000006144,4,1,0,80,0,8
124079,-97.9591839933361,4,1,0,80,0,8
124204,500,4,1,0,80,1,0
124954,-100.840336202246,4,1,0,80,0,0
125204,-101.694915598966,4,1,0,80,0,0
125329,-102.127659581421,4,1,0,80,0,0
125454,-102.564102564103,4,1,0,80,0,0
125704,-103.448276575505,4,1,0,80,0,0
125954,-104.347826449905,4,1,0,80,0,0
126204,526.315789473684,4,1,0,80,1,0
126993,-100.88495575989,4,1,0,80,0,0
127125,-101.333333339819,4,1,0,80,0,0
127256,-101.785714290985,4,1,0,80,0,0
127519,-102.702702705478,4,1,0,80,0,0
127782,-103.636363636552,4,1,0,80,0,0
128046,-104.587155971746,4,1,0,80,0,0
128309,555.555555555556,4,1,0,80,1,0
129142,-100.934579443403,4,1,0,80,0,0
129420,-101.886792461289,4,1,0,80,0,0
129559,-102.564102564103,4,1,0,80,0,0
129697,-102.857143092245,4,1,0,80,0,0
129975,-103.846153852944,4,1,0,80,0,0
130253,-104.854368932446,4,1,0,80,0,0
130531,588.235294117647,4,1,0,80,1,0
131413,-102.000000006528,4,1,0,80,0,0
131560,-103.030303040294,4,1,0,80,0,0
131707,625,4,1,0,80,1,8
131707,-98.9690722302476,4,1,0,80,0,8
132019,-100,4,1,0,80,0,8
132332,666.666666666667,4,1,0,80,1,8
132332,-95.7447215934986,4,1,0,80,0,8
132665,-97.8260890831758,4,1,0,80,0,8
132998,666.666666666667,4,1,0,80,1,0

[HitObjects]
88,168,1310,5,0,0:0:0:0:
120,168,1629,1,8,0:0:0:0:
96,168,1948,1,0,0:0:0:0:
120,168,2267,1,8,0:0:0:0:
96,168,2586,1,0,0:0:0:0:
96,168,2746,1,0,0:0:0:0:
124,168,2905,1,8,0:0:0:0:
124,168,3224,1,0,0:0:0:0:
120,168,3544,1,8,0:0:0:0:
80,128,4169,1,8,0:0:0:0:
80,128,4475,1,8,0:0:0:0:
84,128,4781,1,0,0:0:0:0:
104,152,4934,1,0,0:0:0:0:
224,144,5087,1,8,0:0:0:0:
224,144,5393,1,0,0:0:0:0:
224,144,5699,1,8,0:0:0:0:
277,88,6005,1,0,0:0:0:0:
224,144,6311,1,0,0:0:0:0:
136,144,6605,1,8,0:0:0:0:
136,144,6899,1,8,0:0:0:0:
136,144,7193,1,0,0:0:0:0:
156,148,7487,1,8,0:0:0:0:
156,148,7634,1,8,0:0:0:0:
64,176,7781,1,0,0:0:0:0:
64,176,8075,1,8,0:0:0:0:
64,176,8369,1,0,0:0:0:0:
120,136,8946,1,8,0:0:0:0:
120,136,9229,1,8,0:0:0:0:
212,96,9512,1,0,0:0:0:0:
212,96,9653,1,0,0:0:0:0:
268,128,9795,1,8,0:0:0:0:
268,128,10078,1,0,0:0:0:0:
268,128,10361,1,8,0:0:0:0:
268,128,10644,1,0,0:0:0:0:
168,144,10927,5,4,0:0:0:0:
152,224,11199,1,0,0:0:0:0:
152,224,11472,1,8,0:0:0:0:
152,224,11745,1,0,0:0:0:0:
152,224,12017,1,0,0:0:0:0:
152,224,12154,1,0,0:0:0:0:
152,224,12290,1,0,0:0:0:0:
152,224,12563,1,8,0:0:0:0:
152,224,12836,1,0,0:0:0:0:
96,136,13371,1,8,0:0:0:0:
96,136,13502,1,0,0:0:0:0:
176,232,13634,1,8,0:0:0:0:
192,208,13897,1,0,0:0:0:0:
192,208,14029,1,0,0:0:0:0:
192,208,14160,1,8,0:0:0:0:
192,208,14423,1,0,0:0:0:0:
281,266,14686,1,8,0:0:0:0:
305,102,14950,1,0,0:0:0:0:
96,160,15213,1,0,0:0:0:0:
80,180,15467,1,0,0:0:0:0:
8,188,15721,1,8,0:0:0:0:
222,311,15975,1,0,0:0:0:0:
88,188,16229,1,8,0:0:0:0:
88,188,16357,1,8,0:0:0:0:
144,180,16484,1,0,0:0:0:0:
144,180,16738,1,8,0:0:0:0:
144,180,16992,1,0,0:0:0:0:
214,232,17491,1,8,0:0:0:0:
196,144,17614,1,0,0:0:0:0:
116,184,17737,1,8,0:0:0:0:
207,222,17983,1,0,0:0:0:0:
398,108,18106,1,0,0:0:0:0:
88,152,18229,1,8,0:0:0:0:
88,152,18352,1,8,0:0:0:0:
88,152,18475,1,0,0:0:0:0:
88,152,18721,1,8,0:0:0:0:
88,152,18967,1,0,0:0:0:0:
228,244,19213,5,4,0:0:0:0:
112,176,19451,1,0,0:0:0:0:
172,156,19689,1,8,0:0:0:0:
172,156,19927,1,0,0:0:0:0:
88,128,20046,1,8,0:0:0:0:
88,128,20165,1,0,0:0:0:0:
227,156,20403,1,0,0:0:0:0:
172,156,20641,1,8,0:0:0:0:
331,268,20879,1,8,0:0:0:0:
148,152,20998,1,8,0:0:0:0:
295,109,21117,1,0,0:0:0:0:
172,156,21355,1,0,0:0:0:0:
172,156,21593,1,8,0:0:0:0:
172,156,21713,1,0,0:0:0:0:
152,176,21951,1,0,0:0:0:0:
323,237,22070,1,8,0:0:0:0:
152,176,22308,1,0,0:0:0:0:
180,148,22546,1,8,0:0:0:0:
186,244,23022,1,0,0:0:0:0:
180,120,23260,1,0,0:0:0:0:
118,171,23498,1,8,0:0:0:0:
180,120,23736,1,0,0:0:0:0:
204,140,23855,1,8,0:0:0:0:
438,89,23974,1,0,0:0:0:0:
180,120,24213,1,0,0:0:0:0:
180,120,24451,1,8,0:0:0:0:
48,136,24689,1,0,0:0:0:0:
59,263,24927,1,8,0:0:0:0:
48,136,25046,1,8,0:0:0:0:
180,120,25165,1,0,0:0:0:0:
180,120,25403,1,8,0:0:0:0:
355,64,25641,1,0,0:0:0:0:
128,176,25879,1,0,0:0:0:0:
320,172,25998,1,8,0:0:0:0:
320,172,26117,1,8,0:0:0:0:
419,207,26355,1,8,0:0:0:0:
312,180,26593,1,8,0:0:0:0:
312,180,26712,1,8,0:0:0:0:
312,180,26832,1,0,0:0:0:0:
60,156,27070,1,0,0:0:0:0:
60,156,27308,1,8,0:0:0:0:
266,215,27546,1,8,0:0:0:0:
164,140,27665,1,0,0:0:0:0:
136,176,27784,1,0,0:0:0:0:
136,176,28022,1,8,0:0:0:0:
219,273,28260,1,0,0:0:0:0:
136,176,28498,1,8,0:0:0:0:
385,130,29212,1,8,0:0:0:0:
100,176,29451,1,0,0:0:0:0:
216,152,29689,1,8,0:0:0:0:
216,152,29927,1,8,0:0:0:0:
370,228,30046,1,8,0:0:0:0:
124,176,30165,1,0,0:0:0:0:
88,176,30403,1,8,0:0:0:0:
124,176,30641,1,0,0:0:0:0:
124,176,30879,1,0,0:0:0:0:
92,156,31117,1,8,0:0:0:0:
184,124,31355,1,8,0:0:0:0:
184,124,31474,1,0,0:0:0:0:
483,68,31593,1,0,0:0:0:0:
184,124,31832,1,8,0:0:0:0:
220,100,32070,1,0,0:0:0:0:
498,261,32308,1,8,0:0:0:0:
140,160,33022,1,8,0:0:0:0:
383,299,33260,1,0,0:0:0:0:
144,248,33498,1,8,0:0:0:0:
180,196,33736,1,8,0:0:0:0:
283,270,33855,1,8,0:0:0:0:
104,124,33974,1,0,0:0:0:0:
104,124,34212,1,8,0:0:0:0:
128,68,34451,1,0,0:0:0:0:
60,156,34689,1,0,0:0:0:0:
318,305,34927,1,8,0:0:0:0:
164,140,35165,1,8,0:0:0:0:
164,140,35284,1,0,0:0:0:0:
136,176,35403,1,0,0:0:0:0:
136,176,35641,1,8,0:0:0:0:
364,165,35879,1,0,0:0:0:0:
195,261,36117,1,8,0:0:0:0:
260,132,36832,1,8,0:0:0:0:
100,176,37070,1,0,0:0:0:0:
293,278,37308,1,8,0:0:0:0:
216,152,37546,1,8,0:0:0:0:
216,152,37665,1,8,0:0:0:0:
286,50,37784,1,0,0:0:0:0:
88,176,38022,1,8,0:0:0:0:
124,176,38260,1,0,0:0:0:0:
252,136,38736,1,8,0:0:0:0:
512,231,38974,1,0,0:0:0:0:
96,168,39093,1,0,0:0:0:0:
140,156,39212,1,0,0:0:0:0:
252,136,39451,1,8,0:0:0:0:
120,168,39689,1,0,0:0:0:0:
372,100,39927,1,8,0:0:0:0:
252,144,40165,1,8,0:0:0:0:
120,168,40284,1,8,0:0:0:0:
120,168,40403,1,0,0:0:0:0:
374,216,40641,1,8,0:0:0:0:
232,140,40879,1,0,0:0:0:0:
208,80,41117,1,12,0:0:0:0:
258,221,41593,1,12,0:0:0:0:
208,80,42070,1,4,0:0:0:0:
16,192,42308,1,0,0:0:0:0:
24,196,42546,1,8,0:0:0:0:
144,148,42784,1,0,0:0:0:0:
262,258,43022,1,0,0:0:0:0:
136,176,43141,1,0,0:0:0:0:
302,120,43260,1,0,0:0:0:0:
136,176,43498,1,8,0:0:0:0:
136,176,43736,1,0,0:0:0:0:
358,202,44208,1,8,0:0:0:0:
96,168,44325,1,0,0:0:0:0:
136,176,44442,1,8,0:0:0:0:
136,176,44677,1,0,0:0:0:0:
136,176,44794,1,0,0:0:0:0:
292,232,44911,1,8,0:0:0:0:
200,136,45145,1,0,0:0:0:0:
200,136,45380,1,8,0:0:0:0:
324,152,45614,1,8,0:0:0:0:
235,250,45849,1,0,0:0:0:0:
76,132,46079,1,0,0:0:0:0:
76,132,46310,1,8,0:0:0:0:
172,104,46541,1,0,0:0:0:0:
172,104,46772,1,8,0:0:0:0:
172,104,46887,1,8,0:0:0:0:
172,104,47002,1,0,0:0:0:0:
172,104,47233,1,8,0:0:0:0:
384,91,47464,1,0,0:0:0:0:
88,152,47922,1,8,0:0:0:0:
88,152,48035,1,0,0:0:0:0:
88,152,48149,1,8,0:0:0:0:
456,104,48376,1,0,0:0:0:0:
220,208,48490,1,0,0:0:0:0:
220,208,48604,1,8,0:0:0:0:
220,208,48717,1,8,0:0:0:0:
220,208,48831,1,0,0:0:0:0:
220,208,49058,1,8,0:0:0:0:
220,208,49285,1,0,0:0:0:0:
220,208,49513,1,0,0:0:0:0:
224,148,49736,1,0,0:0:0:0:
402,133,49960,1,8,0:0:0:0:
260,136,50184,1,0,0:0:0:0:
260,136,50408,1,0,0:0:0:0:
48,136,50520,1,0,0:0:0:0:
48,136,50632,1,0,0:0:0:0:
247,212,50856,1,8,0:0:0:0:
48,136,51080,1,0,0:0:0:0:
232,160,51524,1,8,0:0:0:0:
232,160,51634,1,0,0:0:0:0:
232,160,51745,1,8,0:0:0:0:
426,123,51965,1,0,0:0:0:0:
462,123,52076,1,0,0:0:0:0:
224,116,52186,1,8,0:0:0:0:
224,116,52406,1,0,0:0:0:0:
224,116,52627,1,8,0:0:0:0:
423,162,52848,1,8,0:0:0:0:
144,206,53068,1,0,0:0:0:0:
441,195,53285,1,0,0:0:0:0:
205,229,53502,1,8,0:0:0:0:
76,133,53720,1,0,0:0:0:0:
205,229,53937,1,8,0:0:0:0:
205,229,54046,1,8,0:0:0:0:
344,112,54154,1,0,0:0:0:0:
123,131,54372,1,8,0:0:0:0:
306,113,54589,1,0,0:0:0:0:
110,144,55021,1,8,0:0:0:0:
110,144,55128,1,0,0:0:0:0:
329,74,55235,1,8,0:0:0:0:
246,139,55449,1,0,0:0:0:0:
246,139,55557,1,0,0:0:0:0:
246,139,55664,1,8,0:0:0:0:
424,144,55771,1,0,0:0:0:0:
246,139,55878,1,8,0:0:0:0:
246,139,56092,1,8,0:0:0:0:
405,208,56307,1,0,0:0:0:0:
244,164,56521,1,4,0:0:0:0:
115,168,56732,1,0,0:0:0:0:
115,168,56943,1,8,0:0:0:0:
139,149,57154,1,0,0:0:0:0:
320,228,57260,1,8,0:0:0:0:
340,200,57366,1,0,0:0:0:0:
79,150,57577,1,0,0:0:0:0:
79,150,57788,1,8,0:0:0:0:
366,93,57999,1,8,0:0:0:0:
151,186,58105,1,8,0:0:0:0:
184,128,58211,1,0,0:0:0:0:
184,128,58422,1,0,0:0:0:0:
105,146,58633,1,8,0:0:0:0:
130,144,58739,1,0,0:0:0:0:
138,122,58950,1,0,0:0:0:0:
184,128,59056,1,8,0:0:0:0:
313,223,59267,1,0,0:0:0:0:
184,128,59478,1,8,0:0:0:0:
233,261,59901,1,0,0:0:0:0:
115,168,60112,1,0,0:0:0:0:
115,168,60323,1,8,0:0:0:0:
139,149,60534,1,0,0:0:0:0:
402,140,60640,1,8,0:0:0:0:
139,149,60746,1,0,0:0:0:0:
79,150,60957,1,0,0:0:0:0:
79,150,61168,1,8,0:0:0:0:
191,111,61274,1,0,0:0:0:0:
146,124,61380,1,0,0:0:0:0:
252,195,61591,1,0,0:0:0:0:
175,140,61802,1,0,0:0:0:0:
319,151,61908,1,0,0:0:0:0:
175,140,62013,1,8,0:0:0:0:
175,140,62225,1,0,0:0:0:0:
389,88,62436,1,0,0:0:0:0:
215,90,62542,1,8,0:0:0:0:
215,90,62647,1,8,0:0:0:0:
215,90,62859,1,8,0:0:0:0:
215,90,63070,1,8,0:0:0:0:
215,90,63175,1,8,0:0:0:0:
362,120,63281,1,0,0:0:0:0:
175,211,63492,1,0,0:0:0:0:
175,211,63704,1,8,0:0:0:0:
181,209,63915,1,0,0:0:0:0:
356,260,64337,1,0,0:0:0:0:
181,209,64549,1,8,0:0:0:0:
108,138,64760,1,8,0:0:0:0:
108,138,65605,1,8,0:0:0:0:
108,138,65816,1,0,0:0:0:0:
108,138,66239,1,8,0:0:0:0:
298,112,66661,1,0,0:0:0:0:
183,190,66873,1,0,0:0:0:0:
183,190,67084,1,8,0:0:0:0:
339,324,67295,1,0,0:0:0:0:
214,114,67718,1,0,0:0:0:0:
214,114,67929,1,8,0:0:0:0:
153,108,68140,1,8,0:0:0:0:
493,181,68985,1,8,0:0:0:0:
163,152,69197,1,0,0:0:0:0:
188,280,69619,1,8,0:0:0:0:
166,157,70042,1,4,0:0:0:0:
279,112,70253,1,0,0:0:0:0:
177,146,70464,1,8,0:0:0:0:
82,164,70675,1,0,0:0:0:0:
179,280,70781,1,8,0:0:0:0:
88,166,70887,1,0,0:0:0:0:
89,166,71098,1,0,0:0:0:0:
303,162,71309,1,8,0:0:0:0:
125,169,71521,1,0,0:0:0:0:
316,98,71943,1,0,0:0:0:0:
154,153,72154,1,8,0:0:0:0:
206,62,72366,1,8,0:0:0:0:
206,62,72471,1,8,0:0:0:0:
206,62,72577,1,0,0:0:0:0:
206,62,72788,1,0,0:0:0:0:
206,62,72999,1,8,0:0:0:0:
367,149,73211,1,0,0:0:0:0:
173,140,73422,1,0,0:0:0:0:
406,183,73844,1,8,0:0:0:0:
93,180,74056,1,0,0:0:0:0:
93,180,74161,1,8,0:0:0:0:
330,237,74267,1,0,0:0:0:0:
171,124,74478,1,0,0:0:0:0:
126,134,74690,1,8,0:0:0:0:
192,184,74901,1,0,0:0:0:0:
156,77,75112,1,8,0:0:0:0:
386,137,75218,1,8,0:0:0:0:
127,164,75323,1,0,0:0:0:0:
266,152,75535,5,8,0:0:0:0:
266,152,75746,1,0,0:0:0:0:
6,155,75957,5,12,0:0:0:0:
15,156,76380,1,12,0:0:0:0:
132,163,76802,1,4,0:0:0:0:
128,169,77022,1,0,0:0:0:0:
128,169,77243,1,8,0:0:0:0:
128,170,77463,1,0,0:0:0:0:
128,170,77684,1,0,0:0:0:0:
155,138,77794,1,0,0:0:0:0:
156,149,77904,1,0,0:0:0:0:
156,149,78125,1,8,0:0:0:0:
146,162,78346,1,0,0:0:0:0:
276,103,78796,1,8,0:0:0:0:
276,103,78912,1,0,0:0:0:0:
348,141,79027,1,8,0:0:0:0:
296,212,79258,1,0,0:0:0:0:
296,212,79489,1,8,0:0:0:0:
296,212,79604,1,8,0:0:0:0:
296,212,79719,1,0,0:0:0:0:
296,212,79950,1,8,0:0:0:0:
296,212,80181,1,0,0:0:0:0:
237,170,80412,1,0,0:0:0:0:
160,149,80653,1,0,0:0:0:0:
160,149,80895,1,8,0:0:0:0:
160,149,81137,1,0,0:0:0:0:
154,149,81379,1,8,0:0:0:0:
154,149,81500,1,8,0:0:0:0:
198,148,81621,1,0,0:0:0:0:
198,148,81863,1,8,0:0:0:0:
44,169,82105,1,0,0:0:0:0:
149,119,82601,1,8,0:0:0:0:
149,119,82728,1,0,0:0:0:0:
149,119,82855,1,8,0:0:0:0:
145,162,83109,1,0,0:0:0:0:
208,140,83363,1,8,0:0:0:0:
208,140,83491,1,0,0:0:0:0:
208,140,83618,1,0,0:0:0:0:
149,158,83872,1,8,0:0:0:0:
149,158,84126,1,0,0:0:0:0:
246,221,84380,1,0,0:0:0:0:
46,145,84647,1,8,0:0:0:0:
46,145,84915,1,0,0:0:0:0:
46,145,85183,1,8,0:0:0:0:
70,126,85451,1,0,0:0:0:0:
70,126,85585,1,0,0:0:0:0:
70,126,85719,1,8,0:0:0:0:
82,126,85987,1,0,0:0:0:0:
82,126,86255,1,8,0:0:0:0:
154,137,86805,1,8,0:0:0:0:
154,137,87088,1,8,0:0:0:0:
154,137,87371,1,0,0:0:0:0:
154,137,87512,1,0,0:0:0:0:
164,135,87654,1,8,0:0:0:0:
164,137,87937,1,0,0:0:0:0:
226,123,88220,1,8,0:0:0:0:
207,150,88503,1,0,0:0:0:0:
200,136,88786,1,0,0:0:0:0:
162,148,89086,1,8,0:0:0:0:
162,148,89386,1,8,0:0:0:0:
162,148,89686,1,0,0:0:0:0:
162,148,89986,1,8,0:0:0:0:
162,148,90136,1,8,0:0:0:0:
212,114,90286,1,0,0:0:0:0:
212,114,90586,1,8,0:0:0:0:
212,114,90886,1,0,0:0:0:0:
194,144,91505,1,8,0:0:0:0:
194,144,91824,1,8,0:0:0:0:
195,153,92143,1,0,0:0:0:0:
195,153,92303,1,0,0:0:0:0:
195,153,92462,1,8,0:0:0:0:
232,162,92781,1,0,0:0:0:0:
241,156,93100,5,8,0:0:0:0:
241,156,93420,1,0,0:0:0:0:
300,166,93739,1,4,0:0:0:0:
256,192,94079,12,0,96125,0:0:0:0:
234,126,96466,5,8,0:0:0:0:
234,126,96934,1,8,0:0:0:0:
301,164,97403,1,0,0:0:0:0:
272,94,97637,1,0,0:0:0:0:
148,76,97755,1,0,0:0:0:0:
68,128,97872,1,8,0:0:0:0:
68,128,97989,1,8,0:0:0:0:
68,128,98106,1,8,0:0:0:0:
68,128,98223,1,8,0:0:0:0:
169,198,98341,1,0,0:0:0:0:
127,161,98575,1,0,0:0:0:0:
127,161,98809,1,8,0:0:0:0:
163,166,98926,1,8,0:0:0:0:
163,166,99044,1,0,0:0:0:0:
90,146,99278,1,0,0:0:0:0:
163,129,99395,1,8,0:0:0:0:
163,129,99512,1,0,0:0:0:0:
151,92,99630,1,0,0:0:0:0:
151,92,99747,1,8,0:0:0:0:
151,92,99981,1,0,0:0:0:0:
153,98,100216,1,0,0:0:0:0:
153,98,100443,1,8,0:0:0:0:
153,98,100556,1,0,0:0:0:0:
153,98,100670,1,8,0:0:0:0:
179,168,100897,1,0,0:0:0:0:
179,168,101011,1,0,0:0:0:0:
179,168,101125,1,8,0:0:0:0:
179,160,101238,1,8,0:0:0:0:
181,160,101352,1,0,0:0:0:0:
181,160,101579,1,8,0:0:0:0:
181,160,101806,1,0,0:0:0:0:
208,128,102034,1,0,0:0:0:0:
188,96,102254,1,8,0:0:0:0:
188,96,102475,1,8,0:0:0:0:
188,96,102585,1,8,0:0:0:0:
94,128,102695,1,0,0:0:0:0:
149,119,102916,1,0,0:0:0:0:
274,167,103026,1,0,0:0:0:0:
274,167,103136,1,8,0:0:0:0:
274,167,103247,1,0,0:0:0:0:
274,167,103357,1,8,0:0:0:0:
174,87,103578,1,0,0:0:0:0:
172,211,104012,1,0,0:0:0:0:
84,149,104226,1,8,0:0:0:0:
143,157,104440,1,8,0:0:0:0:
185,124,104548,1,0,0:0:0:0:
279,135,104655,1,8,0:0:0:0:
279,135,104762,1,8,0:0:0:0:
279,135,104869,1,0,0:0:0:0:
263,180,105083,1,8,0:0:0:0:
263,180,105298,1,0,0:0:0:0:
156,125,105512,1,0,0:0:0:0:
156,125,105720,1,0,0:0:0:0:
156,125,105928,1,8,0:0:0:0:
148,123,106032,1,8,0:0:0:0:
258,173,106137,1,0,0:0:0:0:
86,218,106345,1,0,0:0:0:0:
208,187,106449,1,8,0:0:0:0:
208,187,106553,1,0,0:0:0:0:
168,189,106657,1,0,0:0:0:0:
168,189,106762,1,8,0:0:0:0:
53,164,106970,1,0,0:0:0:0:
102,153,107178,1,0,0:0:0:0:
75,125,107380,1,8,0:0:0:0:
17,167,107482,1,0,0:0:0:0:
75,125,107583,1,8,0:0:0:0:
261,220,107786,1,0,0:0:0:0:
261,220,107887,1,0,0:0:0:0:
261,220,107988,1,8,0:0:0:0:
261,220,108090,1,8,0:0:0:0:
252,238,108191,1,0,0:0:0:0:
253,240,108394,1,8,0:0:0:0:
253,240,108596,1,0,0:0:0:0:
130,165,108799,1,0,0:0:0:0:
78,153,108996,1,8,0:0:0:0:
106,152,109193,1,8,0:0:0:0:
135,146,109292,1,8,0:0:0:0:
135,146,109391,1,0,0:0:0:0:
204,135,109588,1,0,0:0:0:0:
204,135,109687,1,0,0:0:0:0:
204,135,109785,1,8,0:0:0:0:
204,135,109884,1,0,0:0:0:0:
204,135,109983,1,8,0:0:0:0:
204,135,110180,1,0,0:0:0:0:
165,167,110569,1,0,0:0:0:0:
165,167,110761,1,8,0:0:0:0:
303,116,110953,1,8,0:0:0:0:
8,191,111050,1,0,0:0:0:0:
23,198,111146,1,0,0:0:0:0:
150,153,111242,1,8,0:0:0:0:
150,153,111338,1,8,0:0:0:0:
268,116,111530,1,8,0:0:0:0:
350,180,111723,1,0,0:0:0:0:
124,162,111915,1,4,0:0:0:0:
226,120,112102,1,0,0:0:0:0:
214,145,112290,1,8,0:0:0:0:
226,120,112477,1,0,0:0:0:0:
184,145,112571,1,8,0:0:0:0:
184,145,112665,1,0,0:0:0:0:
226,120,112852,1,0,0:0:0:0:
105,155,113040,1,8,0:0:0:0:
197,93,113133,1,0,0:0:0:0:
226,120,113227,1,8,0:0:0:0:
174,118,113321,1,8,0:0:0:0:
176,121,113415,1,0,0:0:0:0:
176,121,113602,1,0,0:0:0:0:
259,206,113790,1,8,0:0:0:0:
259,206,113883,1,0,0:0:0:0:
259,206,114071,1,0,0:0:0:0:
404,105,114165,1,8,0:0:0:0:
259,206,114258,1,8,0:0:0:0:
243,133,114352,1,0,0:0:0:0:
226,120,114540,1,8,0:0:0:0:
226,120,114915,1,0,0:0:0:0:
279,152,115102,1,0,0:0:0:0:
279,152,115290,1,8,0:0:0:0:
279,152,115477,1,0,0:0:0:0:
350,88,115571,1,8,0:0:0:0:
350,88,115665,1,0,0:0:0:0:
21,183,115852,1,0,0:0:0:0:
213,113,116040,1,8,0:0:0:0:
206,137,116133,1,0,0:0:0:0:
206,137,116227,1,8,0:0:0:0:
206,137,116321,1,8,0:0:0:0:
206,137,116415,1,0,0:0:0:0:
206,137,116602,1,0,0:0:0:0:
243,131,116790,1,8,0:0:0:0:
136,139,116883,1,0,0:0:0:0:
195,109,117071,1,0,0:0:0:0:
311,200,117165,1,8,0:0:0:0:
311,200,117258,1,0,0:0:0:0:
136,139,117352,1,0,0:0:0:0:
265,149,117540,1,8,0:0:0:0:
110,129,117915,1,0,0:0:0:0:
172,147,118008,1,0,0:0:0:0:
208,191,118102,1,8,0:0:0:0:
274,158,118290,1,8,0:0:0:0:
208,191,118383,1,8,0:0:0:0:
208,191,118477,1,0,0:0:0:0:
208,191,118665,1,0,0:0:0:0:
208,191,118758,1,8,0:0:0:0:
274,158,118852,1,0,0:0:0:0:
274,158,119040,1,8,0:0:0:0:
71,132,119227,1,0,0:0:0:0:
274,158,119415,5,0,0:0:0:0:
119,131,119508,1,0,0:0:0:0:
208,191,119602,1,0,0:0:0:0:
274,158,119790,1,8,0:0:0:0:
159,135,119883,1,0,0:0:0:0:
208,191,119977,1,8,0:0:0:0:
97,120,120071,1,8,0:0:0:0:
274,158,120165,1,0,0:0:0:0:
208,191,120352,1,0,0:0:0:0:
91,128,120540,1,8,0:0:0:0:
170,142,120915,1,0,0:0:0:0:
223,109,121008,1,0,0:0:0:0:
208,191,121102,1,8,0:0:0:0:
274,158,121290,1,8,0:0:0:0:
208,191,121383,1,8,0:0:0:0:
208,191,121477,1,0,0:0:0:0:
274,158,121665,1,0,0:0:0:0:
208,191,121758,1,8,0:0:0:0:
208,191,121852,1,0,0:0:0:0:
110,170,122040,1,8,0:0:0:0:
154,99,122227,1,0,0:0:0:0:
201,97,122415,5,0,0:0:0:0:
187,161,122515,1,0,0:0:0:0:
45,157,122615,1,0,0:0:0:0:
201,97,122815,1,8,0:0:0:0:
201,97,123029,1,0,0:0:0:0:
62,160,123136,1,0,0:0:0:0:
261,175,123243,1,8,0:0:0:0:
274,175,123358,1,8,0:0:0:0:
261,175,123473,1,8,0:0:0:0:
163,136,123589,1,0,0:0:0:0:
274,175,123704,1,8,0:0:0:0:
274,175,123954,1,8,0:0:0:0:
274,175,124079,1,8,0:0:0:0:
261,160,124204,1,0,0:0:0:0:
261,160,124454,1,8,0:0:0:0:
261,160,124704,1,0,0:0:0:0:
210,126,124954,1,8,0:0:0:0:
261,160,125204,1,0,0:0:0:0:
210,126,125329,1,0,0:0:0:0:
210,126,125454,1,8,0:0:0:0:
261,160,125704,1,0,0:0:0:0:
230,186,125954,1,8,0:0:0:0:
235,155,126467,1,8,0:0:0:0:
235,155,126730,1,8,0:0:0:0:
230,178,126993,1,0,0:0:0:0:
230,178,127125,5,0,0:0:0:0:
183,124,127256,1,8,0:0:0:0:
183,124,127519,1,0,0:0:0:0:
183,124,127782,1,8,0:0:0:0:
183,124,128046,1,0,0:0:0:0:
235,149,128309,5,0,0:0:0:0:
183,124,128586,1,8,0:0:0:0:
235,149,128864,1,8,0:0:0:0:
183,124,129142,1,0,0:0:0:0:
235,149,129420,1,8,0:0:0:0:
166,149,129559,1,8,0:0:0:0:
159,146,129697,1,0,0:0:0:0:
235,149,129975,1,8,0:0:0:0:
176,105,130253,1,0,0:0:0:0:
155,116,130825,1,8,0:0:0:0:
155,116,131119,1,8,0:0:0:0:
155,116,131413,1,0,0:0:0:0:
155,116,131560,1,0,0:0:0:0:
216,117,131707,1,8,0:0:0:0:
216,117,132019,1,0,0:0:0:0:
216,117,132332,1,8,0:0:0:0:
216,117,132665,1,0,0:0:0:0:
256,192,132998,12,0,135664,0:0:0:0:
