osu file format v14

[General]
AudioFilename: audio.mp3
AudioLeadIn: 0
PreviewTime: 25090
Countdown: 0
SampleSet: Normal
StackLeniency: 0.7
Mode: 1
LetterboxInBreaks: 0
WidescreenStoryboard: 1

[Editor]
DistanceSpacing: 1
BeatDivisor: 4
GridSize: 32
TimelineZoom: 1

[Metadata]
Title:Southern Cross
TitleUnicode:Southern Cross
Artist:403 Forbiddena
ArtistUnicode:403 Forbiddena
Creator:404 AccNotFound
Version:A+Oni
Source:
Tags:Hanataka Inaba Shinobi 鳳蘇芳 썩던콩 applerss DDM Akemi_Homura
BeatmapID:1343003
BeatmapSetID:632591

[Difficulty]
HPDrainRate:5
CircleSize:5
OverallDifficulty:6
ApproachRate:6
SliderMultiplier:1.4
SliderTickRate:1

[Events]
//Background and Video events
0,0,"suck the cone.png",0,0
//Break Periods
//Storyboard Layer 0 (Background)
//Storyboard Layer 1 (Fail)
//Storyboard Layer 2 (Pass)
//Storyboard Layer 3 (Foreground)
//Storyboard Sound Samples

[TimingPoints]
190,350.631136044881,4,1,0,80,1,0
1241,-100,4,1,0,0,0,0
2940,468.01872074883,3,1,0,80,1,0
2940,-100,3,1,0,30,0,0
24039,350.631136044881,4,1,0,80,1,0
24039,-100,4,1,0,30,0,0
25090,-75.187969924812,4,1,0,80,0,0
25442,350.631136044881,4,1,0,80,1,0
25442,-76.9230769230769,4,1,0,80,0,0
38064,-76.9230769230769,4,1,0,80,0,1
60505,-76.9230769230769,4,1,0,80,0,0
60680,-100,4,1,0,80,0,0
75582,-76.9230769230769,4,1,0,80,0,0
75932,-76.9230769230769,4,1,0,80,0,0
88555,-76.9230769230769,4,1,0,80,0,1
110995,-76.9230769230769,4,1,0,80,0,0
111171,-100,4,1,0,80,0,0
113801,-76.9230769230769,4,1,0,80,0,0
126423,-71.4285714285714,4,1,0,80,0,0
127475,-76.9230769230769,4,1,0,80,0,0
129228,-71.4285714285714,4,1,0,80,0,0
130456,-76.9230769230769,4,1,0,80,0,0
134838,-83.3333333333333,4,1,0,80,0,0
135364,-90.9090909090909,4,1,0,80,0,0
135890,-100,4,1,0,80,0,0
136206,468.01872074883,3,1,0,30,1,0
158670,350.631136044881,4,1,0,80,1,0
158670,-76.9230769230769,4,1,0,80,0,0
160072,350.631136044881,4,1,0,80,1,1
160072,-76.9230769230769,4,1,0,80,0,1
182512,-76.9230769230769,4,1,0,80,0,0
183914,-40,4,1,0,80,0,0
185142,-76.9230769230769,4,1,0,80,0,0
185317,-76.9230769230769,4,1,0,80,0,1
204952,-76.9230769230769,4,1,0,80,0,0
205128,-100,4,1,0,50,0,0
209861,-76.9230769230769,4,1,0,80,0,0
213543,-74.0740740740741,4,1,0,80,0,0
213718,-71.4285714285714,4,1,0,80,0,0
213893,-68.9655172413793,4,1,0,80,0,0
214069,-66.6666666666667,4,1,0,80,0,0
214244,-64.5161290322581,4,1,0,80,0,0
214419,-62.5,4,1,0,80,0,0
216172,-60.6060606060606,4,1,0,80,0,0
216874,-58.8235294117647,4,1,0,80,0,0
217400,-57.1428571428571,4,1,0,80,0,0
218978,-6.25,4,1,0,80,0,0

[HitObjects]
256,192,190,5,12,0:0:0:0:
256,192,540,1,4,0:0:0:0:
256,192,891,1,12,0:0:0:0:
256,192,1241,1,0,0:0:0:0:
256,192,1417,1,0,0:0:0:0:
256,192,1592,1,8,0:0:0:0:
256,192,1767,1,8,0:0:0:0:
256,192,1943,1,8,0:0:0:0:
256,192,2118,1,0,0:0:0:0:
256,192,2293,1,8,0:0:0:0:
256,192,2940,1,8,0:0:0:0:
256,192,3174,1,0,0:0:0:0:
256,192,3408,1,0,0:0:0:0:
256,192,3642,1,8,0:0:0:0:
256,192,3876,1,0,0:0:0:0:
256,192,4110,1,8,0:0:0:0:
256,192,4344,1,8,0:0:0:0:
256,192,4578,1,8,0:0:0:0:
256,192,4812,1,0,0:0:0:0:
256,192,5046,1,8,0:0:0:0:
256,192,5280,1,0,0:0:0:0:
256,192,5514,1,8,0:0:0:0:
256,192,5748,1,0,0:0:0:0:
256,192,5982,1,0,0:0:0:0:
256,192,6216,1,0,0:0:0:0:
256,192,6450,1,8,0:0:0:0:
256,192,6684,1,8,0:0:0:0:
256,192,6918,1,0,0:0:0:0:
256,192,7152,1,8,0:0:0:0:
256,192,7386,1,0,0:0:0:0:
256,192,7620,1,0,0:0:0:0:
256,192,8322,1,0,0:0:0:0:
256,192,8556,1,8,0:0:0:0:
256,192,8790,1,0,0:0:0:0:
256,192,9024,1,0,0:0:0:0:
256,192,9258,1,0,0:0:0:0:
256,192,9492,1,8,0:0:0:0:
256,192,9726,1,0,0:0:0:0:
256,192,9960,1,8,0:0:0:0:
256,192,10194,1,0,0:0:0:0:
256,192,10428,1,0,0:0:0:0:
256,192,10662,1,8,0:0:0:0:
256,192,10896,1,0,0:0:0:0:
256,192,11130,1,8,0:0:0:0:
256,192,11364,1,0,0:0:0:0:
256,192,11598,1,0,0:0:0:0:
256,192,11832,1,0,0:0:0:0:
256,192,12066,1,0,0:0:0:0:
256,192,12300,1,8,0:0:0:0:
256,192,12534,1,0,0:0:0:0:
256,192,12768,1,8,0:0:0:0:
256,192,13002,1,0,0:0:0:0:
256,192,13236,1,0,0:0:0:0:
256,192,13938,1,0,0:0:0:0:
256,192,14172,1,8,0:0:0:0:
256,192,14406,1,0,0:0:0:0:
256,192,14640,1,0,0:0:0:0:
224,192,14874,1,0,0:0:0:0:
224,192,15108,1,8,0:0:0:0:
224,192,15225,1,0,0:0:0:0:
224,192,15342,1,8,0:0:0:0:
224,192,15576,1,8,0:0:0:0:
224,192,15810,1,0,0:0:0:0:
224,192,16044,1,0,0:0:0:0:
224,192,16278,1,8,0:0:0:0:
224,192,16395,1,0,0:0:0:0:
224,192,16512,1,0,0:0:0:0:
224,192,16746,1,8,0:0:0:0:
224,192,16980,1,8,0:0:0:0:
224,192,17214,1,0,0:0:0:0:
224,192,17448,1,0,0:0:0:0:
224,192,17682,1,8,0:0:0:0:
224,192,17916,1,0,0:0:0:0:
224,192,18150,1,0,0:0:0:0:
224,192,18384,1,8,0:0:0:0:
224,192,18618,1,0,0:0:0:0:
224,192,18852,1,0,0:0:0:0:
256,192,19554,1,0,0:0:0:0:
256,192,19788,1,0,0:0:0:0:
256,192,20022,1,0,0:0:0:0:
256,192,20256,1,0,0:0:0:0:
256,192,20490,1,8,0:0:0:0:
256,192,20724,1,8,0:0:0:0:
256,192,20958,1,0,0:0:0:0:
256,192,21192,1,8,0:0:0:0:
256,192,21426,1,0,0:0:0:0:
256,192,21660,1,0,0:0:0:0:
256,192,21894,1,0,0:0:0:0:
256,192,22128,1,8,0:0:0:0:
256,192,22245,1,0,0:0:0:0:
256,192,22362,1,8,0:0:0:0:
256,192,22596,1,8,0:0:0:0:
256,192,22830,1,8,0:0:0:0:
256,192,22947,1,8,0:0:0:0:
256,192,23064,1,0,0:0:0:0:
256,192,23298,1,0,0:0:0:0:
256,192,23415,1,0,0:0:0:0:
256,192,23532,1,8,0:0:0:0:
256,192,23649,1,0,0:0:0:0:
256,192,23766,1,0,0:0:0:0:
256,192,24039,1,8,0:0:0:0:
256,192,25090,1,0,0:0:0:0:
256,192,25178,1,0,0:0:0:0:
256,192,25266,1,0,0:0:0:0:
256,192,25353,1,0,0:0:0:0:
256,192,25441,1,8,0:0:0:0:
256,192,25485,1,0,0:0:0:0:
256,192,25792,1,0,0:0:0:0:
256,192,25836,1,0,0:0:0:0:
256,192,26143,1,8,0:0:0:0:
256,192,26187,1,8,0:0:0:0:
256,192,26493,1,0,0:0:0:0:
32,256,26669,1,8,0:0:0:0:
256,192,26756,1,0,0:0:0:0:
256,192,26844,1,8,0:0:0:0:
256,192,26932,1,8,0:0:0:0:
256,192,27019,1,0,0:0:0:0:
256,192,27107,1,0,0:0:0:0:
256,192,27195,1,8,0:0:0:0:
256,192,27282,1,0,0:0:0:0:
256,192,27370,1,8,0:0:0:0:
256,192,27458,1,8,0:0:0:0:
256,192,27545,1,0,0:0:0:0:
256,192,27633,1,0,0:0:0:0:
256,192,27721,1,8,0:0:0:0:
256,192,27779,1,8,0:0:0:0:
256,192,27837,1,8,0:0:0:0:
256,192,27896,1,0,0:0:0:0:
256,192,27984,1,0,0:0:0:0:
256,192,28071,1,0,0:0:0:0:
256,192,28159,1,0,0:0:0:0:
256,192,28247,1,8,0:0:0:0:
256,192,28290,1,0,0:0:0:0:
256,192,28597,1,0,0:0:0:0:
256,192,28641,1,0,0:0:0:0:
256,192,28948,1,0,0:0:0:0:
256,192,28992,1,8,0:0:0:0:
256,192,29298,1,0,0:0:0:0:
256,192,29474,1,0,0:0:0:0:
256,192,29561,1,0,0:0:0:0:
256,192,29649,1,8,0:0:0:0:
256,192,29737,1,8,0:0:0:0:
256,192,29824,1,8,0:0:0:0:
256,192,29912,1,8,0:0:0:0:
256,192,30000,1,0,0:0:0:0:
256,192,30087,1,0,0:0:0:0:
256,192,30175,1,8,0:0:0:0:
256,192,30233,1,0,0:0:0:0:
256,192,30292,1,0,0:0:0:0:
256,192,30350,1,8,0:0:0:0:
256,192,30701,1,8,0:0:0:0:
256,192,30789,1,8,0:0:0:0:
256,192,30876,1,0,0:0:0:0:
256,192,30964,1,0,0:0:0:0:
256,192,31052,1,8,0:0:0:0:
256,192,31095,1,0,0:0:0:0:
256,192,31402,1,0,0:0:0:0:
256,192,31446,1,0,0:0:0:0:
256,192,31753,1,8,0:0:0:0:
256,192,31797,1,8,0:0:0:0:
256,192,32103,1,0,0:0:0:0:
256,192,32147,1,0,0:0:0:0:
256,192,32279,1,8,0:0:0:0:
256,192,32323,1,8,0:0:0:0:
256,192,32454,1,8,0:0:0:0:
256,192,32498,1,8,0:0:0:0:
256,192,32805,1,8,0:0:0:0:
256,192,32849,1,0,0:0:0:0:
256,192,33155,1,0,0:0:0:0:
256,192,33199,1,8,0:0:0:0:
256,192,33506,1,0,0:0:0:0:
256,192,33681,1,8,0:0:0:0:
256,192,33857,1,12,0:0:0:0:
256,192,34032,1,8,0:0:0:0:
256,192,34120,1,8,0:0:0:0:
256,192,34207,1,0,0:0:0:0:
256,192,34295,1,0,0:0:0:0:
256,192,34383,1,0,0:0:0:0:
256,192,34470,1,0,0:0:0:0:
256,192,34558,1,8,0:0:0:0:
256,192,34646,1,0,0:0:0:0:
256,192,34733,1,0,0:0:0:0:
256,192,34821,1,0,0:0:0:0:
256,192,34909,1,8,0:0:0:0:
256,192,34996,1,0,0:0:0:0:
256,192,35084,1,8,0:0:0:0:
256,192,35172,1,8,0:0:0:0:
256,192,35259,1,0,0:0:0:0:
256,192,35347,1,0,0:0:0:0:
256,192,35434,1,0,0:0:0:0:
256,192,35522,1,0,0:0:0:0:
256,192,35610,1,8,0:0:0:0:
256,192,35697,1,8,0:0:0:0:
256,192,35785,1,0,0:0:0:0:
256,192,35873,1,0,0:0:0:0:
256,192,35960,1,8,0:0:0:0:
256,192,36048,1,0,0:0:0:0:
256,192,36136,1,0,0:0:0:0:
256,192,36223,1,0,0:0:0:0:
256,192,36311,1,8,0:0:0:0:
256,192,36399,1,0,0:0:0:0:
256,192,36486,1,8,0:0:0:0:
256,192,36545,1,8,0:0:0:0:
256,192,36603,1,0,0:0:0:0:
256,192,36662,1,8,0:0:0:0:
256,192,36749,1,8,0:0:0:0:
256,192,36837,1,0,0:0:0:0:
256,192,36925,1,0,0:0:0:0:
256,192,37012,1,8,0:0:0:0:
256,192,37100,1,0,0:0:0:0:
256,192,37188,1,0,0:0:0:0:
256,192,37246,1,0,0:0:0:0:
256,192,37305,1,0,0:0:0:0:
256,192,37363,1,8,0:0:0:0:
256,192,37451,1,8,0:0:0:0:
256,192,37538,1,0,0:0:0:0:
256,192,37626,1,0,0:0:0:0:
256,192,37714,1,8,0:0:0:0:
256,192,37772,1,8,0:0:0:0:
256,192,37830,1,8,0:0:0:0:
256,192,37889,1,0,0:0:0:0:
256,192,37947,1,0,0:0:0:0:
256,192,38006,1,0,0:0:0:0:
256,192,38064,1,8,0:0:0:0:
256,192,38240,1,0,0:0:0:0:
256,192,38327,1,0,0:0:0:0:
256,192,38415,1,8,0:0:0:0:
256,192,38503,1,8,0:0:0:0:
256,192,38590,1,0,0:0:0:0:
256,192,38678,1,0,0:0:0:0:
256,192,38765,1,8,0:0:0:0:
256,192,38853,1,0,0:0:0:0:
256,192,38941,1,8,0:0:0:0:
256,192,39028,1,8,0:0:0:0:
256,192,39116,1,8,0:0:0:0:
256,192,39204,1,8,0:0:0:0:
256,192,39291,1,0,0:0:0:0:
256,192,39379,1,8,0:0:0:0:
256,192,39467,1,0,0:0:0:0:
256,192,39554,1,0,0:0:0:0:
256,192,39642,1,0,0:0:0:0:
256,192,39730,1,0,0:0:0:0:
256,192,39817,1,8,0:0:0:0:
256,192,39905,1,8,0:0:0:0:
256,192,39993,1,0,0:0:0:0:
256,192,40080,1,8,0:0:0:0:
256,192,40168,1,0,0:0:0:0:
256,192,40256,1,0,0:0:0:0:
256,192,40343,1,0,0:0:0:0:
256,192,40431,1,0,0:0:0:0:
256,192,40519,1,8,0:0:0:0:
256,192,40606,1,8,0:0:0:0:
256,192,40694,1,0,0:0:0:0:
256,192,40752,1,0,0:0:0:0:
256,192,40811,1,0,0:0:0:0:
256,192,40869,1,8,0:0:0:0:
256,192,40957,1,8,0:0:0:0:
256,192,41045,1,0,0:0:0:0:
256,192,41132,1,0,0:0:0:0:
256,192,41220,1,0,0:0:0:0:
256,192,41308,1,0,0:0:0:0:
256,192,41395,1,8,0:0:0:0:
256,192,41483,1,0,0:0:0:0:
256,192,41571,1,8,0:0:0:0:
256,192,41658,1,0,0:0:0:0:
256,192,41746,1,8,0:0:0:0:
256,192,41834,1,8,0:0:0:0:
256,192,41921,1,8,0:0:0:0:
256,192,42009,1,0,0:0:0:0:
256,192,42096,1,0,0:0:0:0:
256,192,42184,1,0,0:0:0:0:
256,192,42272,1,8,0:0:0:0:
256,192,42359,1,0,0:0:0:0:
256,192,42447,1,0,0:0:0:0:
256,192,42535,1,0,0:0:0:0:
256,192,42622,1,8,0:0:0:0:
256,192,42710,1,8,0:0:0:0:
256,192,42798,1,8,0:0:0:0:
256,192,42885,1,8,0:0:0:0:
256,192,42973,1,0,0:0:0:0:
256,192,43061,1,0,0:0:0:0:
256,192,43148,1,0,0:0:0:0:
256,192,43236,1,0,0:0:0:0:
256,192,43324,1,8,0:0:0:0:
256,192,43411,1,0,0:0:0:0:
256,192,43499,1,8,0:0:0:0:
256,192,43557,1,8,0:0:0:0:
256,192,43616,1,8,0:0:0:0:
256,192,43674,1,0,0:0:0:0:
256,192,43762,1,0,0:0:0:0:
256,192,43850,1,0,0:0:0:0:
256,192,43937,1,0,0:0:0:0:
256,192,44025,1,8,0:0:0:0:
256,192,44113,1,8,0:0:0:0:
256,192,44200,1,0,0:0:0:0:
256,192,44288,1,8,0:0:0:0:
256,192,44376,1,0,0:0:0:0:
256,192,44463,1,0,0:0:0:0:
256,192,44551,1,8,0:0:0:0:
256,192,44639,1,8,0:0:0:0:
256,192,44726,1,0,0:0:0:0:
256,192,44814,1,0,0:0:0:0:
256,192,44902,1,8,0:0:0:0:
256,192,44960,1,0,0:0:0:0:
256,192,45018,1,0,0:0:0:0:
256,192,45077,1,8,0:0:0:0:
256,192,45165,1,8,0:0:0:0:
256,192,45252,1,8,0:0:0:0:
256,192,45340,1,0,0:0:0:0:
256,192,45427,1,8,0:0:0:0:
256,192,45515,1,8,0:0:0:0:
256,192,45603,1,8,0:0:0:0:
256,192,45690,1,8,0:0:0:0:
256,192,45778,1,0,0:0:0:0:
256,192,45866,1,0,0:0:0:0:
256,192,45953,1,0,0:0:0:0:
256,192,46041,1,0,0:0:0:0:
256,192,46129,1,8,0:0:0:0:
256,192,46216,1,0,0:0:0:0:
256,192,46304,1,8,0:0:0:0:
256,192,46392,1,0,0:0:0:0:
256,192,46479,1,8,0:0:0:0:
256,192,46567,1,8,0:0:0:0:
256,192,46655,1,8,0:0:0:0:
256,192,46742,1,8,0:0:0:0:
256,192,46830,1,0,0:0:0:0:
256,192,46918,1,0,0:0:0:0:
256,192,47005,1,8,0:0:0:0:
256,192,47093,1,0,0:0:0:0:
256,192,47181,1,8,0:0:0:0:
256,192,47268,1,8,0:0:0:0:
256,192,47356,1,0,0:0:0:0:
256,192,47444,1,8,0:0:0:0:
256,192,47531,1,0,0:0:0:0:
256,192,47619,1,0,0:0:0:0:
256,192,47707,1,8,0:0:0:0:
256,192,47794,1,8,0:0:0:0:
256,192,47882,1,0,0:0:0:0:
256,192,47970,1,0,0:0:0:0:
256,192,48057,1,0,0:0:0:0:
256,192,48145,1,0,0:0:0:0:
256,192,48233,1,0,0:0:0:0:
256,192,48320,1,0,0:0:0:0:
256,192,48408,1,8,0:0:0:0:
256,192,48466,1,0,0:0:0:0:
256,192,48525,1,0,0:0:0:0:
256,192,48583,1,8,0:0:0:0:
256,192,48671,1,8,0:0:0:0:
256,192,48758,1,8,0:0:0:0:
256,192,48846,1,8,0:0:0:0:
256,192,48934,1,8,0:0:0:0:
256,192,49021,1,8,0:0:0:0:
256,192,49109,1,8,0:0:0:0:
256,192,49197,1,8,0:0:0:0:
256,192,49284,1,0,0:0:0:0:
256,192,49372,1,0,0:0:0:0:
256,192,49460,1,8,0:0:0:0:
256,192,49547,1,8,0:0:0:0:
256,192,49635,1,0,0:0:0:0:
256,192,49723,1,0,0:0:0:0:
256,192,49810,1,0,0:0:0:0:
256,192,49898,1,0,0:0:0:0:
256,192,49986,1,8,0:0:0:0:
256,192,50073,1,0,0:0:0:0:
256,192,50161,1,8,0:0:0:0:
256,192,50249,1,8,0:0:0:0:
256,192,50336,1,0,0:0:0:0:
256,192,50424,1,0,0:0:0:0:
256,192,50512,1,8,0:0:0:0:
256,192,50599,1,8,0:0:0:0:
256,192,50687,1,0,0:0:0:0:
256,192,50775,1,0,0:0:0:0:
256,192,50862,1,0,0:0:0:0:
256,192,50950,1,0,0:0:0:0:
256,192,51038,1,8,0:0:0:0:
256,192,51125,1,8,0:0:0:0:
288,192,51213,1,0,0:0:0:0:
256,192,51301,1,8,0:0:0:0:
256,192,51388,1,0,0:0:0:0:
256,192,51476,1,0,0:0:0:0:
256,192,51564,1,0,0:0:0:0:
256,192,51651,1,0,0:0:0:0:
256,192,51739,1,8,0:0:0:0:
256,192,51826,1,0,0:0:0:0:
256,192,51914,1,0,0:0:0:0:
256,192,51973,1,0,0:0:0:0:
256,192,52031,1,0,0:0:0:0:
256,192,52089,1,8,0:0:0:0:
256,192,52177,1,8,0:0:0:0:
256,192,52265,1,8,0:0:0:0:
256,192,52352,1,8,0:0:0:0:
256,192,52440,1,0,0:0:0:0:
256,192,52528,1,8,0:0:0:0:
256,192,52615,1,8,0:0:0:0:
256,192,52703,1,8,0:0:0:0:
256,192,52791,1,0,0:0:0:0:
256,192,52878,1,0,0:0:0:0:
256,192,52966,1,8,0:0:0:0:
256,192,53054,1,8,0:0:0:0:
256,192,53141,1,8,0:0:0:0:
256,192,53200,1,0,0:0:0:0:
256,192,53258,1,0,0:0:0:0:
256,192,53317,1,8,0:0:0:0:
256,192,53404,1,8,0:0:0:0:
256,192,53492,1,0,0:0:0:0:
256,192,53580,1,0,0:0:0:0:
256,192,53667,1,0,0:0:0:0:
256,192,53755,1,0,0:0:0:0:
256,192,53843,1,8,0:0:0:0:
256,192,53930,1,8,0:0:0:0:
256,192,54018,1,8,0:0:0:0:
256,192,54106,1,8,0:0:0:0:
256,192,54193,1,0,0:0:0:0:
256,192,54281,1,0,0:0:0:0:
256,192,54369,1,8,0:0:0:0:
256,192,54456,1,0,0:0:0:0:
256,192,54544,1,8,0:0:0:0:
256,192,54632,1,0,0:0:0:0:
256,192,54719,1,8,0:0:0:0:
256,192,54807,1,8,0:0:0:0:
256,192,54895,1,0,0:0:0:0:
256,192,54982,1,0,0:0:0:0:
256,192,55070,1,0,0:0:0:0:
256,192,55157,1,0,0:0:0:0:
256,192,55245,1,8,0:0:0:0:
256,192,55333,1,8,0:0:0:0:
256,192,55420,1,0,0:0:0:0:
256,192,55508,1,0,0:0:0:0:
256,192,55596,1,8,0:0:0:0:
256,224,55683,1,8,0:0:0:0:
256,224,55771,1,0,0:0:0:0:
256,192,55859,1,0,0:0:0:0:
256,192,55946,1,0,0:0:0:0:
256,192,56034,1,0,0:0:0:0:
256,192,56122,1,0,0:0:0:0:
256,224,56209,1,0,0:0:0:0:
256,192,56297,1,8,0:0:0:0:
256,192,56385,1,0,0:0:0:0:
256,192,56472,1,0,0:0:0:0:
256,192,56560,1,0,0:0:0:0:
256,192,56648,1,8,0:0:0:0:
256,192,56735,1,8,0:0:0:0:
256,192,56823,1,0,0:0:0:0:
256,192,56911,1,0,0:0:0:0:
256,192,56998,1,8,0:0:0:0:
256,192,57086,1,8,0:0:0:0:
288,224,57174,1,8,0:0:0:0:
288,224,57261,1,8,0:0:0:0:
256,224,57349,1,0,0:0:0:0:
256,192,57437,1,0,0:0:0:0:
256,192,57524,1,8,0:0:0:0:
288,224,57612,1,0,0:0:0:0:
256,192,57700,1,8,0:0:0:0:
256,192,57787,1,0,0:0:0:0:
256,192,57875,1,0,0:0:0:0:
256,192,57963,1,0,0:0:0:0:
256,192,58050,1,8,0:0:0:0:
256,192,58138,1,0,0:0:0:0:
256,192,58226,1,0,0:0:0:0:
256,192,58313,1,8,0:0:0:0:
256,192,58401,1,8,0:0:0:0:
256,192,58488,1,0,0:0:0:0:
256,192,58576,1,0,0:0:0:0:
256,192,58664,1,8,0:0:0:0:
256,192,58751,1,0,0:0:0:0:
256,192,58839,1,0,0:0:0:0:
256,192,58927,1,8,0:0:0:0:
256,192,58985,1,8,0:0:0:0:
256,192,59044,1,0,0:0:0:0:
256,192,59102,1,8,0:0:0:0:
256,192,59277,1,0,0:0:0:0:
256,192,59365,1,0,0:0:0:0:
256,192,59453,1,8,0:0:0:0:
256,192,59540,1,0,0:0:0:0:
256,192,59628,1,0,0:0:0:0:
256,192,59716,1,0,0:0:0:0:
256,192,59803,1,8,0:0:0:0:
256,192,59891,1,8,0:0:0:0:
256,192,59979,1,0,0:0:0:0:
256,192,60066,1,0,0:0:0:0:
256,192,60154,1,8,0:0:0:0:
288,192,60242,1,8,0:0:0:0:
256,192,60329,1,0,0:0:0:0:
256,192,60417,1,0,0:0:0:0:
256,192,60505,1,0,0:0:0:0:
256,192,60680,1,0,0:0:0:0:
256,192,60855,1,8,0:0:0:0:
256,192,61031,1,0,0:0:0:0:
256,192,61118,1,0,0:0:0:0:
256,192,61206,1,8,0:0:0:0:
256,192,61381,1,0,0:0:0:0:
256,192,61469,1,0,0:0:0:0:
256,192,61557,1,8,0:0:0:0:
256,192,61644,1,0,0:0:0:0:
256,192,61732,1,8,0:0:0:0:
256,192,61819,1,8,0:0:0:0:
256,192,61907,1,8,0:0:0:0:
256,192,62082,1,8,0:0:0:0:
256,192,62141,1,8,0:0:0:0:
256,192,62199,1,8,0:0:0:0:
256,192,62258,1,0,0:0:0:0:
256,192,62433,1,8,0:0:0:0:
256,192,62492,1,0,0:0:0:0:
256,192,62550,1,0,0:0:0:0:
256,192,62608,1,0,0:0:0:0:
256,192,62959,1,4,0:0:0:0:
256,192,63310,1,8,0:0:0:0:
256,192,63427,1,0,0:0:0:0:
256,192,63543,1,0,0:0:0:0:
256,192,63660,1,0,0:0:0:0:
256,192,63777,1,8,0:0:0:0:
256,192,63894,1,8,0:0:0:0:
256,192,64011,1,8,0:0:0:0:
256,192,64128,1,0,0:0:0:0:
256,192,64245,1,0,0:0:0:0:
256,192,64362,1,0,0:0:0:0:
256,192,64478,1,8,0:0:0:0:
256,192,64595,1,0,0:0:0:0:
256,192,64712,1,8,0:0:0:0:
256,192,64829,1,8,0:0:0:0:
256,192,64946,1,0,0:0:0:0:
256,192,65063,1,0,0:0:0:0:
256,192,65180,1,0,0:0:0:0:
256,192,65297,1,8,0:0:0:0:
256,192,65413,1,0,0:0:0:0:
256,192,65530,1,0,0:0:0:0:
256,192,65647,1,0,0:0:0:0:
256,192,65764,1,8,0:0:0:0:
256,192,65881,1,0,0:0:0:0:
256,192,65998,1,0,0:0:0:0:
256,192,66115,1,8,0:0:0:0:
256,192,66232,1,0,0:0:0:0:
256,192,66348,1,0,0:0:0:0:
256,192,66465,1,8,0:0:0:0:
256,192,66582,1,8,0:0:0:0:
256,192,66699,1,0,0:0:0:0:
256,192,66816,1,8,0:0:0:0:
256,192,66933,1,0,0:0:0:0:
256,192,67050,1,0,0:0:0:0:
256,192,67167,1,8,0:0:0:0:
256,192,67283,1,0,0:0:0:0:
256,192,67400,1,8,0:0:0:0:
256,192,67517,1,8,0:0:0:0:
256,192,67634,1,8,0:0:0:0:
256,192,67751,1,0,0:0:0:0:
256,192,67868,1,8,0:0:0:0:
256,192,67985,1,8,0:0:0:0:
256,192,68102,1,0,0:0:0:0:
256,192,68218,1,8,0:0:0:0:
256,192,68335,1,0,0:0:0:0:
256,192,68452,1,0,0:0:0:0:
256,192,68569,1,8,0:0:0:0:
256,192,68686,1,0,0:0:0:0:
256,192,68803,1,0,0:0:0:0:
256,192,68920,1,8,0:0:0:0:
256,192,69037,1,0,0:0:0:0:
256,192,69154,1,0,0:0:0:0:
256,192,69270,1,0,0:0:0:0:
256,192,69387,1,8,0:0:0:0:
256,192,69504,1,8,0:0:0:0:
256,192,69621,1,8,0:0:0:0:
256,192,69738,1,0,0:0:0:0:
256,192,69855,1,0,0:0:0:0:
256,192,69972,1,8,0:0:0:0:
256,192,70089,1,0,0:0:0:0:
256,192,70205,1,8,0:0:0:0:
256,192,70322,1,8,0:0:0:0:
256,192,70439,1,8,0:0:0:0:
256,192,70556,1,0,0:0:0:0:
256,192,70673,1,0,0:0:0:0:
256,192,70790,1,0,0:0:0:0:
256,192,70907,1,8,0:0:0:0:
256,192,71024,1,0,0:0:0:0:
256,192,71140,1,0,0:0:0:0:
256,192,71257,1,0,0:0:0:0:
256,192,71374,1,8,0:0:0:0:
256,192,71491,1,0,0:0:0:0:
256,192,71608,1,8,0:0:0:0:
256,192,71725,1,8,0:0:0:0:
256,192,71842,1,0,0:0:0:0:
256,192,71959,1,0,0:0:0:0:
256,192,72075,1,8,0:0:0:0:
256,192,72192,1,8,0:0:0:0:
256,192,72309,1,0,0:0:0:0:
256,192,72426,1,8,0:0:0:0:
256,192,72543,1,0,0:0:0:0:
256,192,72660,1,0,0:0:0:0:
256,192,72777,1,8,0:0:0:0:
256,192,72894,1,0,0:0:0:0:
256,192,73010,1,8,0:0:0:0:
256,192,73127,1,8,0:0:0:0:
256,192,73244,1,0,0:0:0:0:
256,192,73303,1,0,0:0:0:0:
256,192,73361,1,0,0:0:0:0:
256,192,73478,1,0,0:0:0:0:
256,192,73595,1,8,0:0:0:0:
256,192,73653,1,8,0:0:0:0:
256,192,73712,1,8,0:0:0:0:
256,192,73829,1,0,0:0:0:0:
256,192,73945,1,0,0:0:0:0:
256,192,74062,1,0,0:0:0:0:
256,192,74179,1,0,0:0:0:0:
256,192,74296,1,8,0:0:0:0:
256,192,74413,1,8,0:0:0:0:
256,192,74530,1,0,0:0:0:0:
256,192,74647,1,0,0:0:0:0:
256,192,74764,1,0,0:0:0:0:
256,192,74880,1,8,0:0:0:0:
256,192,74997,1,8,0:0:0:0:
256,192,75056,1,8,0:0:0:0:
256,192,75114,1,8,0:0:0:0:
256,192,75231,1,12,0:0:0:0:
256,192,75582,1,8,0:0:0:0:
256,192,75669,1,8,0:0:0:0:
256,192,75757,1,0,0:0:0:0:
256,192,75845,1,0,0:0:0:0:
256,192,75932,1,8,0:0:0:0:
256,192,75976,1,0,0:0:0:0:
256,192,76283,1,0,0:0:0:0:
256,192,76327,1,0,0:0:0:0:
256,192,76634,1,8,0:0:0:0:
256,192,76677,1,8,0:0:0:0:
256,192,76984,1,0,0:0:0:0:
256,192,77160,1,0,0:0:0:0:
256,192,77247,1,0,0:0:0:0:
256,192,77335,1,8,0:0:0:0:
256,192,77423,1,0,0:0:0:0:
256,192,77510,1,8,0:0:0:0:
256,192,77598,1,8,0:0:0:0:
256,192,77686,1,0,0:0:0:0:
256,192,77773,1,0,0:0:0:0:
256,192,77861,1,8,0:0:0:0:
256,192,77949,1,8,0:0:0:0:
256,192,78036,1,0,0:0:0:0:
256,192,78124,1,0,0:0:0:0:
256,192,78211,1,8,0:0:0:0:
256,192,78270,1,8,0:0:0:0:
256,192,78328,1,8,0:0:0:0:
256,192,78387,1,0,0:0:0:0:
256,192,78474,1,0,0:0:0:0:
256,192,78562,1,0,0:0:0:0:
256,192,78650,1,0,0:0:0:0:
256,192,78738,1,8,0:0:0:0:
256,192,78781,1,0,0:0:0:0:
256,192,79088,1,0,0:0:0:0:
256,192,79132,1,0,0:0:0:0:
256,192,79439,1,0,0:0:0:0:
256,192,79483,1,8,0:0:0:0:
256,192,79789,1,0,0:0:0:0:
256,192,79965,1,0,0:0:0:0:
256,192,80052,1,0,0:0:0:0:
256,192,80140,1,8,0:0:0:0:
256,192,80228,1,8,0:0:0:0:
256,192,80315,1,8,0:0:0:0:
256,192,80403,1,8,0:0:0:0:
256,192,80491,1,0,0:0:0:0:
256,192,80578,1,0,0:0:0:0:
256,192,80666,1,8,0:0:0:0:
256,192,80724,1,0,0:0:0:0:
256,192,80783,1,0,0:0:0:0:
256,192,80841,1,8,0:0:0:0:
256,192,81192,1,8,0:0:0:0:
256,192,81280,1,8,0:0:0:0:
256,192,81367,1,0,0:0:0:0:
256,192,81455,1,0,0:0:0:0:
256,192,81543,1,8,0:0:0:0:
256,192,81586,1,0,0:0:0:0:
256,192,81893,1,0,0:0:0:0:
256,192,81937,1,0,0:0:0:0:
256,192,82244,1,8,0:0:0:0:
256,192,82288,1,8,0:0:0:0:
256,192,82594,1,0,0:0:0:0:
256,192,82638,1,0,0:0:0:0:
256,192,82770,1,8,0:0:0:0:
256,192,82814,1,8,0:0:0:0:
256,192,82945,1,8,0:0:0:0:
256,192,82989,1,8,0:0:0:0:
256,192,83296,1,8,0:0:0:0:
256,192,83340,1,0,0:0:0:0:
256,192,83646,1,0,0:0:0:0:
256,192,83690,1,8,0:0:0:0:
256,192,83997,1,0,0:0:0:0:
256,192,84172,1,8,0:0:0:0:
256,192,84348,1,12,0:0:0:0:
256,192,84523,1,8,0:0:0:0:
256,192,84611,1,8,0:0:0:0:
256,192,84698,1,0,0:0:0:0:
256,192,84786,1,0,0:0:0:0:
256,192,84874,1,0,0:0:0:0:
256,192,84961,1,0,0:0:0:0:
256,192,85049,1,8,0:0:0:0:
256,192,85137,1,0,0:0:0:0:
256,192,85224,1,0,0:0:0:0:
256,192,85312,1,0,0:0:0:0:
256,192,85400,1,8,0:0:0:0:
256,192,85487,1,0,0:0:0:0:
256,192,85575,1,8,0:0:0:0:
256,192,85663,1,8,0:0:0:0:
256,192,85750,1,0,0:0:0:0:
256,192,85838,1,0,0:0:0:0:
256,192,85925,1,0,0:0:0:0:
256,192,86013,1,0,0:0:0:0:
256,192,86101,1,8,0:0:0:0:
256,192,86188,1,8,0:0:0:0:
256,192,86276,1,0,0:0:0:0:
256,192,86364,1,0,0:0:0:0:
256,192,86451,1,8,0:0:0:0:
256,192,86539,1,0,0:0:0:0:
256,192,86627,1,0,0:0:0:0:
256,192,86714,1,0,0:0:0:0:
256,192,86802,1,8,0:0:0:0:
256,192,86890,1,0,0:0:0:0:
256,192,86977,1,8,0:0:0:0:
256,192,87036,1,8,0:0:0:0:
256,192,87094,1,0,0:0:0:0:
256,192,87153,1,8,0:0:0:0:
256,192,87240,1,8,0:0:0:0:
256,192,87328,1,0,0:0:0:0:
256,192,87416,1,0,0:0:0:0:
256,192,87503,1,8,0:0:0:0:
256,192,87591,1,0,0:0:0:0:
256,192,87679,1,0,0:0:0:0:
256,192,87737,1,0,0:0:0:0:
256,192,87796,1,0,0:0:0:0:
256,192,87854,1,8,0:0:0:0:
256,192,87942,1,8,0:0:0:0:
256,192,88029,1,0,0:0:0:0:
256,192,88117,1,0,0:0:0:0:
256,192,88205,1,8,0:0:0:0:
256,192,88263,1,8,0:0:0:0:
256,192,88321,1,8,0:0:0:0:
256,192,88380,1,0,0:0:0:0:
256,192,88438,1,0,0:0:0:0:
256,192,88497,1,0,0:0:0:0:
192,32,88555,1,8,0:0:0:0:
256,192,88643,1,0,0:0:0:0:
256,192,88730,1,0,0:0:0:0:
256,192,88817,1,0,0:0:0:0:
256,192,88905,1,8,0:0:0:0:
256,192,88993,1,8,0:0:0:0:
256,192,89080,1,0,0:0:0:0:
256,192,89168,1,0,0:0:0:0:
256,192,89255,1,8,0:0:0:0:
256,192,89343,1,0,0:0:0:0:
256,192,89431,1,8,0:0:0:0:
256,192,89518,1,8,0:0:0:0:
256,192,89606,1,8,0:0:0:0:
256,192,89694,1,8,0:0:0:0:
256,192,89781,1,0,0:0:0:0:
256,192,89869,1,8,0:0:0:0:
256,192,89957,1,0,0:0:0:0:
256,192,90044,1,0,0:0:0:0:
256,192,90132,1,0,0:0:0:0:
256,192,90220,1,0,0:0:0:0:
256,192,90307,1,8,0:0:0:0:
256,192,90395,1,8,0:0:0:0:
256,192,90483,1,0,0:0:0:0:
256,192,90570,1,8,0:0:0:0:
256,192,90658,1,0,0:0:0:0:
256,192,90746,1,0,0:0:0:0:
256,192,90833,1,0,0:0:0:0:
256,192,90921,1,0,0:0:0:0:
256,192,91009,1,8,0:0:0:0:
256,192,91096,1,8,0:0:0:0:
256,192,91184,1,0,0:0:0:0:
256,192,91242,1,0,0:0:0:0:
256,192,91301,1,0,0:0:0:0:
256,192,91359,1,8,0:0:0:0:
256,192,91447,1,8,0:0:0:0:
256,192,91535,1,0,0:0:0:0:
256,192,91622,1,0,0:0:0:0:
256,192,91710,1,0,0:0:0:0:
256,192,91798,1,0,0:0:0:0:
256,192,91885,1,8,0:0:0:0:
256,192,91973,1,0,0:0:0:0:
256,192,92061,1,8,0:0:0:0:
256,192,92148,1,0,0:0:0:0:
256,192,92236,1,8,0:0:0:0:
256,192,92324,1,8,0:0:0:0:
256,192,92411,1,8,0:0:0:0:
256,192,92499,1,0,0:0:0:0:
256,192,92586,1,0,0:0:0:0:
256,192,92674,1,0,0:0:0:0:
256,192,92762,1,8,0:0:0:0:
256,192,92849,1,0,0:0:0:0:
256,192,92937,1,0,0:0:0:0:
256,192,93025,1,0,0:0:0:0:
256,192,93112,1,8,0:0:0:0:
256,192,93200,1,8,0:0:0:0:
256,192,93288,1,8,0:0:0:0:
256,192,93375,1,8,0:0:0:0:
256,192,93463,1,0,0:0:0:0:
256,192,93551,1,0,0:0:0:0:
256,192,93638,1,0,0:0:0:0:
256,192,93726,1,0,0:0:0:0:
256,192,93814,1,8,0:0:0:0:
256,192,93901,1,0,0:0:0:0:
256,192,93989,1,8,0:0:0:0:
256,192,94047,1,8,0:0:0:0:
256,192,94106,1,8,0:0:0:0:
256,192,94164,1,0,0:0:0:0:
256,192,94252,1,0,0:0:0:0:
256,192,94340,1,0,0:0:0:0:
256,192,94427,1,0,0:0:0:0:
256,192,94515,1,8,0:0:0:0:
256,192,94603,1,8,0:0:0:0:
256,192,94690,1,0,0:0:0:0:
256,192,94778,1,8,0:0:0:0:
256,192,94866,1,0,0:0:0:0:
256,192,94953,1,0,0:0:0:0:
256,192,95041,1,8,0:0:0:0:
256,192,95129,1,8,0:0:0:0:
256,192,95216,1,0,0:0:0:0:
256,192,95304,1,0,0:0:0:0:
256,192,95392,1,8,0:0:0:0:
256,192,95450,1,0,0:0:0:0:
256,192,95508,1,0,0:0:0:0:
256,192,95567,1,8,0:0:0:0:
256,192,95655,1,8,0:0:0:0:
256,192,95742,1,8,0:0:0:0:
256,192,95830,1,0,0:0:0:0:
256,192,95917,1,8,0:0:0:0:
256,192,96005,1,8,0:0:0:0:
256,192,96093,1,8,0:0:0:0:
256,192,96180,1,8,0:0:0:0:
256,192,96268,1,0,0:0:0:0:
256,192,96356,1,0,0:0:0:0:
256,192,96443,1,0,0:0:0:0:
256,192,96531,1,0,0:0:0:0:
256,192,96619,1,8,0:0:0:0:
256,192,96706,1,0,0:0:0:0:
256,192,96794,1,8,0:0:0:0:
256,192,96882,1,0,0:0:0:0:
256,192,96969,1,8,0:0:0:0:
256,192,97057,1,8,0:0:0:0:
256,192,97145,1,8,0:0:0:0:
256,192,97232,1,8,0:0:0:0:
256,192,97320,1,0,0:0:0:0:
256,192,97408,1,0,0:0:0:0:
256,192,97495,1,8,0:0:0:0:
256,192,97583,1,0,0:0:0:0:
256,192,97671,1,8,0:0:0:0:
256,192,97758,1,8,0:0:0:0:
256,192,97846,1,0,0:0:0:0:
256,192,97934,1,8,0:0:0:0:
256,192,98021,1,0,0:0:0:0:
256,192,98109,1,0,0:0:0:0:
256,192,98197,1,8,0:0:0:0:
256,192,98284,1,8,0:0:0:0:
256,192,98372,1,0,0:0:0:0:
256,192,98460,1,0,0:0:0:0:
256,192,98547,1,0,0:0:0:0:
256,192,98635,1,0,0:0:0:0:
256,192,98723,1,0,0:0:0:0:
256,192,98810,1,0,0:0:0:0:
256,192,98898,1,8,0:0:0:0:
256,192,98956,1,0,0:0:0:0:
256,192,99015,1,0,0:0:0:0:
256,192,99073,1,8,0:0:0:0:
256,192,99161,1,8,0:0:0:0:
256,192,99248,1,8,0:0:0:0:
256,192,99336,1,8,0:0:0:0:
256,192,99424,1,8,0:0:0:0:
256,192,99511,1,8,0:0:0:0:
256,192,99599,1,8,0:0:0:0:
256,192,99687,1,8,0:0:0:0:
256,192,99774,1,0,0:0:0:0:
256,192,99862,1,0,0:0:0:0:
256,192,99950,1,8,0:0:0:0:
256,192,100037,1,8,0:0:0:0:
256,192,100125,1,0,0:0:0:0:
256,192,100213,1,0,0:0:0:0:
256,192,100300,1,0,0:0:0:0:
256,192,100388,1,0,0:0:0:0:
256,192,100476,1,8,0:0:0:0:
256,192,100563,1,0,0:0:0:0:
256,192,100651,1,8,0:0:0:0:
256,192,100739,1,8,0:0:0:0:
256,192,100826,1,0,0:0:0:0:
256,192,100914,1,0,0:0:0:0:
256,192,101002,1,8,0:0:0:0:
256,192,101089,1,8,0:0:0:0:
256,192,101177,1,0,0:0:0:0:
256,192,101265,1,0,0:0:0:0:
256,192,101352,1,0,0:0:0:0:
256,192,101440,1,0,0:0:0:0:
256,192,101528,1,8,0:0:0:0:
256,192,101615,1,8,0:0:0:0:
288,192,101703,1,0,0:0:0:0:
256,192,101791,1,8,0:0:0:0:
256,192,101878,1,0,0:0:0:0:
256,192,101966,1,0,0:0:0:0:
256,192,102054,1,0,0:0:0:0:
256,192,102141,1,0,0:0:0:0:
256,192,102229,1,8,0:0:0:0:
256,192,102316,1,0,0:0:0:0:
256,192,102404,1,0,0:0:0:0:
256,192,102463,1,0,0:0:0:0:
256,192,102521,1,0,0:0:0:0:
256,192,102579,1,8,0:0:0:0:
256,192,102667,1,8,0:0:0:0:
256,192,102755,1,8,0:0:0:0:
256,192,102842,1,8,0:0:0:0:
256,192,102930,1,0,0:0:0:0:
256,192,103018,1,8,0:0:0:0:
256,192,103105,1,8,0:0:0:0:
256,192,103193,1,8,0:0:0:0:
256,192,103281,1,0,0:0:0:0:
256,192,103368,1,0,0:0:0:0:
256,192,103456,1,8,0:0:0:0:
256,192,103544,1,8,0:0:0:0:
256,192,103631,1,8,0:0:0:0:
256,192,103690,1,0,0:0:0:0:
256,192,103748,1,0,0:0:0:0:
256,192,103807,1,8,0:0:0:0:
256,192,103894,1,8,0:0:0:0:
256,192,103982,1,0,0:0:0:0:
256,192,104070,1,0,0:0:0:0:
256,192,104157,1,0,0:0:0:0:
256,192,104245,1,0,0:0:0:0:
256,192,104333,1,8,0:0:0:0:
256,192,104420,1,8,0:0:0:0:
256,192,104508,1,8,0:0:0:0:
256,192,104596,1,8,0:0:0:0:
256,192,104683,1,0,0:0:0:0:
256,192,104771,1,0,0:0:0:0:
256,192,104859,1,8,0:0:0:0:
256,192,104946,1,0,0:0:0:0:
256,192,105034,1,8,0:0:0:0:
256,192,105122,1,0,0:0:0:0:
256,192,105209,1,8,0:0:0:0:
256,192,105297,1,8,0:0:0:0:
256,192,105385,1,0,0:0:0:0:
256,192,105472,1,0,0:0:0:0:
256,192,105560,1,0,0:0:0:0:
256,192,105647,1,0,0:0:0:0:
256,192,105735,1,8,0:0:0:0:
256,192,105823,1,8,0:0:0:0:
256,192,105910,1,0,0:0:0:0:
256,192,105998,1,0,0:0:0:0:
256,192,106086,1,8,0:0:0:0:
256,224,106173,1,8,0:0:0:0:
256,224,106261,1,0,0:0:0:0:
256,192,106349,1,0,0:0:0:0:
256,192,106436,1,0,0:0:0:0:
256,192,106524,1,0,0:0:0:0:
256,192,106612,1,0,0:0:0:0:
256,224,106699,1,0,0:0:0:0:
256,192,106787,1,8,0:0:0:0:
256,192,106875,1,0,0:0:0:0:
256,192,106962,1,0,0:0:0:0:
256,192,107050,1,0,0:0:0:0:
256,192,107138,1,8,0:0:0:0:
256,192,107225,1,8,0:0:0:0:
256,192,107313,1,0,0:0:0:0:
256,192,107401,1,0,0:0:0:0:
256,192,107488,1,8,0:0:0:0:
256,192,107576,1,8,0:0:0:0:
288,224,107664,1,8,0:0:0:0:
288,224,107751,1,8,0:0:0:0:
256,224,107839,1,0,0:0:0:0:
256,192,107927,1,0,0:0:0:0:
256,192,108014,1,8,0:0:0:0:
288,224,108102,1,0,0:0:0:0:
256,192,108190,1,8,0:0:0:0:
256,192,108277,1,0,0:0:0:0:
256,192,108365,1,0,0:0:0:0:
256,192,108453,1,0,0:0:0:0:
256,192,108540,1,8,0:0:0:0:
256,192,108628,1,0,0:0:0:0:
256,192,108716,1,0,0:0:0:0:
256,192,108803,1,8,0:0:0:0:
256,192,108891,1,8,0:0:0:0:
256,192,108978,1,0,0:0:0:0:
256,192,109066,1,0,0:0:0:0:
256,192,109154,1,8,0:0:0:0:
256,192,109241,1,0,0:0:0:0:
256,192,109329,1,0,0:0:0:0:
256,192,109417,1,8,0:0:0:0:
256,192,109475,1,8,0:0:0:0:
256,192,109534,1,0,0:0:0:0:
256,192,109592,1,8,0:0:0:0:
256,192,109681,1,0,0:0:0:0:
256,192,109768,1,0,0:0:0:0:
256,192,109856,1,0,0:0:0:0:
256,192,109943,1,8,0:0:0:0:
256,192,110031,1,0,0:0:0:0:
256,192,110118,1,0,0:0:0:0:
256,192,110206,1,0,0:0:0:0:
256,192,110293,1,8,0:0:0:0:
256,192,110381,1,8,0:0:0:0:
256,192,110469,1,0,0:0:0:0:
256,192,110556,1,0,0:0:0:0:
256,192,110644,1,8,0:0:0:0:
288,192,110732,1,0,0:0:0:0:
256,192,110819,1,0,0:0:0:0:
256,192,110907,1,0,0:0:0:0:
256,192,110995,1,0,0:0:0:0:
256,192,111171,1,0,0:0:0:0:
256,192,111346,1,8,0:0:0:0:
256,192,111521,1,8,0:0:0:0:
256,192,111609,1,0,0:0:0:0:
256,192,111697,1,8,0:0:0:0:
256,192,111872,1,0,0:0:0:0:
256,192,111960,1,0,0:0:0:0:
256,192,112047,1,8,0:0:0:0:
256,192,112135,1,0,0:0:0:0:
256,192,112223,1,8,0:0:0:0:
256,192,112310,1,8,0:0:0:0:
256,192,112398,1,8,0:0:0:0:
256,192,112573,1,8,0:0:0:0:
256,192,112632,1,8,0:0:0:0:
256,192,112690,1,8,0:0:0:0:
256,192,112749,1,0,0:0:0:0:
256,192,112924,1,8,0:0:0:0:
256,192,112982,1,0,0:0:0:0:
256,192,113041,1,0,0:0:0:0:
256,192,113099,1,0,0:0:0:0:
256,192,113450,1,4,0:0:0:0:
256,192,113801,1,0,0:0:0:0:
256,192,113888,1,0,0:0:0:0:
256,192,113976,1,0,0:0:0:0:
256,192,114064,1,0,0:0:0:0:
256,192,114151,1,8,0:0:0:0:
256,192,114239,1,0,0:0:0:0:
256,192,114326,1,8,0:0:0:0:
256,192,114414,1,0,0:0:0:0:
256,192,114502,1,8,0:0:0:0:
256,192,114589,1,0,0:0:0:0:
256,192,114677,1,0,0:0:0:0:
256,192,114765,1,0,0:0:0:0:
256,192,114852,1,8,0:0:0:0:
256,192,114940,1,0,0:0:0:0:
256,192,115028,1,8,0:0:0:0:
256,192,115115,1,0,0:0:0:0:
256,192,115203,1,8,0:0:0:0:
256,192,115291,1,8,0:0:0:0:
256,192,115378,1,0,0:0:0:0:
256,192,115466,1,0,0:0:0:0:
256,192,115554,1,0,0:0:0:0:
256,192,115641,1,0,0:0:0:0:
256,192,115729,1,8,0:0:0:0:
256,192,115817,1,0,0:0:0:0:
256,192,115904,1,8,0:0:0:0:
256,192,115992,1,0,0:0:0:0:
256,192,116080,1,8,0:0:0:0:
256,192,116167,1,8,0:0:0:0:
256,192,116255,1,8,0:0:0:0:
256,192,116343,1,0,0:0:0:0:
256,192,116430,1,0,0:0:0:0:
256,192,116518,1,8,0:0:0:0:
256,192,116606,1,0,0:0:0:0:
256,192,116693,1,8,0:0:0:0:
256,192,116781,1,0,0:0:0:0:
256,192,116869,1,0,0:0:0:0:
256,192,116956,1,8,0:0:0:0:
256,192,117044,1,0,0:0:0:0:
256,192,117132,1,8,0:0:0:0:
256,192,117219,1,0,0:0:0:0:
256,192,117307,1,8,0:0:0:0:
256,192,117395,1,8,0:0:0:0:
256,192,117482,1,0,0:0:0:0:
256,192,117570,1,0,0:0:0:0:
256,192,117657,1,0,0:0:0:0:
256,192,117745,1,0,0:0:0:0:
256,192,117833,1,8,0:0:0:0:
256,192,117920,1,8,0:0:0:0:
256,192,118008,1,0,0:0:0:0:
256,192,118096,1,8,0:0:0:0:
256,192,118183,1,0,0:0:0:0:
256,192,118271,1,0,0:0:0:0:
256,192,118359,1,8,0:0:0:0:
256,192,118446,1,8,0:0:0:0:
256,192,118534,1,0,0:0:0:0:
256,192,118622,1,0,0:0:0:0:
256,192,118709,1,8,0:0:0:0:
256,192,118753,1,8,0:0:0:0:
256,192,118797,1,0,0:0:0:0:
256,192,119060,1,8,0:0:0:0:
224,192,119104,1,8,0:0:0:0:
256,192,119148,1,0,0:0:0:0:
256,192,119411,1,0,0:0:0:0:
256,192,119498,1,0,0:0:0:0:
256,192,119586,1,0,0:0:0:0:
256,192,119674,1,0,0:0:0:0:
256,192,119761,1,8,0:0:0:0:
256,192,119849,1,0,0:0:0:0:
256,192,119936,1,8,0:0:0:0:
256,192,120024,1,0,0:0:0:0:
256,192,120112,1,8,0:0:0:0:
256,192,120199,1,0,0:0:0:0:
256,192,120287,1,0,0:0:0:0:
256,192,120375,1,0,0:0:0:0:
256,192,120462,1,8,0:0:0:0:
256,192,120550,1,0,0:0:0:0:
256,192,120638,1,8,0:0:0:0:
256,192,120725,1,0,0:0:0:0:
256,192,120813,1,8,0:0:0:0:
256,192,120901,1,8,0:0:0:0:
256,192,120988,1,0,0:0:0:0:
256,192,121076,1,0,0:0:0:0:
256,192,121164,1,0,0:0:0:0:
256,192,121251,1,0,0:0:0:0:
256,192,121339,1,8,0:0:0:0:
256,192,121427,1,0,0:0:0:0:
256,192,121514,1,8,0:0:0:0:
256,192,121602,1,0,0:0:0:0:
256,192,121690,1,8,0:0:0:0:
256,192,121777,1,8,0:0:0:0:
256,192,121865,1,8,0:0:0:0:
256,192,121953,1,0,0:0:0:0:
256,192,122040,1,0,0:0:0:0:
256,192,122128,1,8,0:0:0:0:
256,192,122216,1,0,0:0:0:0:
256,192,122303,1,8,0:0:0:0:
256,192,122391,1,0,0:0:0:0:
256,192,122479,1,0,0:0:0:0:
256,192,122566,1,8,0:0:0:0:
256,192,122654,1,0,0:0:0:0:
256,192,122742,1,8,0:0:0:0:
256,192,122829,1,0,0:0:0:0:
256,192,122917,1,8,0:0:0:0:
256,192,123005,1,8,0:0:0:0:
256,192,123092,1,0,0:0:0:0:
256,192,123180,1,0,0:0:0:0:
256,192,123267,1,0,0:0:0:0:
256,192,123355,1,0,0:0:0:0:
256,192,123443,1,8,0:0:0:0:
256,192,123530,1,8,0:0:0:0:
256,192,123618,1,0,0:0:0:0:
256,192,123706,1,8,0:0:0:0:
256,192,123793,1,0,0:0:0:0:
256,192,123881,1,0,0:0:0:0:
256,192,123969,1,8,0:0:0:0:
256,192,124056,1,8,0:0:0:0:
256,192,124144,1,0,0:0:0:0:
256,192,124232,1,0,0:0:0:0:
256,192,124319,1,8,0:0:0:0:
256,192,124363,1,0,0:0:0:0:
256,192,124407,1,0,0:0:0:0:
256,192,124670,1,8,0:0:0:0:
256,192,124758,1,8,0:0:0:0:
256,192,124845,1,0,0:0:0:0:
256,192,124933,1,0,0:0:0:0:
256,192,125021,1,8,0:0:0:0:
256,192,125108,1,0,0:0:0:0:
256,192,125196,1,0,0:0:0:0:
256,192,125284,1,0,0:0:0:0:
256,192,125371,1,8,0:0:0:0:
256,192,125459,1,8,0:0:0:0:
256,192,125547,1,0,0:0:0:0:
256,192,125634,1,0,0:0:0:0:
256,192,125722,1,8,0:0:0:0:
256,192,125810,1,0,0:0:0:0:
256,192,125897,1,0,0:0:0:0:
256,192,125985,1,0,0:0:0:0:
256,192,126073,1,8,0:0:0:0:
256,192,126160,1,0,0:0:0:0:
256,192,126248,1,8,0:0:0:0:
256,192,126336,1,0,0:0:0:0:
256,192,126423,1,8,0:0:0:0:
256,192,126482,1,0,0:0:0:0:
256,192,126540,1,0,0:0:0:0:
256,192,126599,1,8,0:0:0:0:
256,192,126657,1,0,0:0:0:0:
256,192,126715,1,0,0:0:0:0:
256,192,126774,1,8,0:0:0:0:
256,192,126832,1,0,0:0:0:0:
256,192,126891,1,0,0:0:0:0:
256,192,126949,1,8,0:0:0:0:
256,192,127008,1,0,0:0:0:0:
256,192,127066,1,0,0:0:0:0:
256,192,127125,1,8,0:0:0:0:
256,192,127475,1,0,0:0:0:0:
256,192,127826,1,8,0:0:0:0:
256,192,127913,1,8,0:0:0:0:
256,192,128001,1,0,0:0:0:0:
256,192,128089,1,0,0:0:0:0:
256,192,128176,1,8,0:0:0:0:
256,192,128264,1,8,0:0:0:0:
256,192,128352,1,8,0:0:0:0:
256,192,128439,1,8,0:0:0:0:
256,192,128527,1,0,0:0:0:0:
256,192,128615,1,0,0:0:0:0:
256,192,128702,1,0,0:0:0:0:
256,192,128790,1,0,0:0:0:0:
256,192,128878,1,8,0:0:0:0:
256,192,128965,1,0,0:0:0:0:
256,192,129053,1,8,0:0:0:0:
256,192,129141,1,0,0:0:0:0:
256,192,129228,1,8,0:0:0:0:
256,192,129287,1,8,0:0:0:0:
256,192,129345,1,0,0:0:0:0:
256,192,129404,1,8,0:0:0:0:
256,192,129462,1,8,0:0:0:0:
256,192,129521,1,0,0:0:0:0:
256,192,129579,1,8,0:0:0:0:
256,192,129637,1,8,0:0:0:0:
256,192,129696,1,0,0:0:0:0:
256,192,129754,1,8,0:0:0:0:
256,192,129813,1,8,0:0:0:0:
256,192,129871,1,0,0:0:0:0:
256,192,129930,1,8,0:0:0:0:
256,192,130456,1,8,0:0:0:0:
256,192,130543,1,8,0:0:0:0:
256,192,130631,1,0,0:0:0:0:
256,192,130718,1,0,0:0:0:0:
256,192,130806,1,0,0:0:0:0:
256,192,130894,1,0,0:0:0:0:
256,192,130981,1,8,0:0:0:0:
256,192,131040,1,0,0:0:0:0:
256,192,131098,1,0,0:0:0:0:
256,192,131157,1,0,0:0:0:0:
256,192,131244,1,0,0:0:0:0:
256,192,131332,1,8,0:0:0:0:
256,192,131420,1,0,0:0:0:0:
256,192,131507,1,0,0:0:0:0:
256,192,131595,1,0,0:0:0:0:
256,192,131683,1,8,0:0:0:0:
256,192,131741,1,8,0:0:0:0:
256,192,131800,1,0,0:0:0:0:
256,192,131858,1,0,0:0:0:0:
256,192,131946,1,0,0:0:0:0:
256,192,132033,1,8,0:0:0:0:
256,192,132121,1,8,0:0:0:0:
256,192,132209,1,0,0:0:0:0:
256,192,132296,1,0,0:0:0:0:
256,192,132384,1,8,0:0:0:0:
256,192,132442,1,8,0:0:0:0:
256,192,132501,1,8,0:0:0:0:
256,192,132559,1,0,0:0:0:0:
256,192,132647,1,0,0:0:0:0:
256,192,132735,1,8,0:0:0:0:
256,192,132822,1,8,0:0:0:0:
256,192,132910,1,8,0:0:0:0:
256,192,132998,1,0,0:0:0:0:
256,192,133085,1,8,0:0:0:0:
256,192,133144,1,8,0:0:0:0:
256,192,133202,1,8,0:0:0:0:
256,192,133261,1,8,0:0:0:0:
256,192,133348,1,0,0:0:0:0:
256,192,133436,1,8,0:0:0:0:
256,192,133611,2,0,L|352:192,7,70
256,160,136206,1,8,0:0:0:0:
256,160,136440,1,0,0:0:0:0:
256,160,136674,1,0,0:0:0:0:
256,160,136908,1,8,0:0:0:0:
256,160,137142,1,0,0:0:0:0:
256,160,137376,1,8,0:0:0:0:
256,160,137610,1,8,0:0:0:0:
256,160,137844,1,8,0:0:0:0:
256,160,138078,1,0,0:0:0:0:
256,160,138312,1,8,0:0:0:0:
256,160,138546,1,0,0:0:0:0:
256,160,138780,1,8,0:0:0:0:
256,160,139014,1,8,0:0:0:0:
256,160,139248,1,0,0:0:0:0:
256,160,139482,1,0,0:0:0:0:
256,160,139716,1,8,0:0:0:0:
256,160,139950,1,8,0:0:0:0:
256,160,140184,1,0,0:0:0:0:
256,160,140418,1,8,0:0:0:0:
256,160,140652,1,0,0:0:0:0:
256,160,140886,1,0,0:0:0:0:
256,160,141588,1,0,0:0:0:0:
256,160,141822,1,8,0:0:0:0:
256,160,142056,1,0,0:0:0:0:
256,160,142290,1,0,0:0:0:0:
256,192,142524,1,0,0:0:0:0:
256,192,142758,1,8,0:0:0:0:
256,192,142992,1,0,0:0:0:0:
256,192,143226,1,8,0:0:0:0:
256,192,143460,1,0,0:0:0:0:
256,192,143694,1,0,0:0:0:0:
256,192,143928,1,8,0:0:0:0:
256,192,144162,1,8,0:0:0:0:
256,192,144279,1,0,0:0:0:0:
256,192,144396,1,8,0:0:0:0:
256,192,144630,1,8,0:0:0:0:
256,192,144864,1,8,0:0:0:0:
256,192,144981,1,8,0:0:0:0:
256,192,145098,1,0,0:0:0:0:
256,192,145332,1,8,0:0:0:0:
256,192,145449,1,8,0:0:0:0:
256,192,145566,1,0,0:0:0:0:
256,192,145683,1,0,0:0:0:0:
256,192,145800,1,0,0:0:0:0:
256,192,146034,1,8,0:0:0:0:
256,192,146268,1,8,0:0:0:0:
256,192,146502,1,0,0:0:0:0:
256,192,146619,1,0,0:0:0:0:
256,192,146736,1,0,0:0:0:0:
256,192,147204,1,0,0:0:0:0:
256,192,147438,1,8,0:0:0:0:
256,192,147672,1,0,0:0:0:0:
256,192,147906,1,8,0:0:0:0:
256,192,148140,1,8,0:0:0:0:
256,192,148257,1,0,0:0:0:0:
256,192,148374,1,8,0:0:0:0:
256,192,148608,1,0,0:0:0:0:
256,192,148842,1,8,0:0:0:0:
256,192,149076,1,0,0:0:0:0:
256,192,149310,1,0,0:0:0:0:
256,192,149544,1,0,0:0:0:0:
256,192,149661,1,8,0:0:0:0:
256,192,149778,1,8,0:0:0:0:
256,192,150012,1,0,0:0:0:0:
256,192,150246,1,8,0:0:0:0:
256,192,150480,1,0,0:0:0:0:
256,192,150597,1,0,0:0:0:0:
256,192,150714,1,0,0:0:0:0:
256,192,150948,1,8,0:0:0:0:
256,192,151065,1,0,0:0:0:0:
256,192,151182,1,0,0:0:0:0:
256,192,151299,1,8,0:0:0:0:
256,192,151416,1,8,0:0:0:0:
256,192,151650,1,8,0:0:0:0:
256,192,151884,1,0,0:0:0:0:
256,192,152118,1,0,0:0:0:0:
256,192,152820,1,0,0:0:0:0:
256,192,153054,1,8,0:0:0:0:
256,192,153288,1,0,0:0:0:0:
256,192,153522,1,0,0:0:0:0:
256,192,153756,1,8,0:0:0:0:
256,192,153990,1,8,0:0:0:0:
256,192,154224,1,0,0:0:0:0:
256,192,154458,1,8,0:0:0:0:
256,192,154692,1,0,0:0:0:0:
256,192,154809,1,0,0:0:0:0:
256,192,154926,1,8,0:0:0:0:
256,192,155160,1,8,0:0:0:0:
256,192,155394,1,8,0:0:0:0:
256,192,155511,1,0,0:0:0:0:
256,192,155628,1,8,0:0:0:0:
256,192,155862,1,8,0:0:0:0:
256,192,156096,1,0,0:0:0:0:
256,192,156213,1,0,0:0:0:0:
256,192,156330,1,0,0:0:0:0:
256,192,156564,1,0,0:0:0:0:
256,192,156681,1,0,0:0:0:0:
256,192,156798,1,8,0:0:0:0:
256,192,156915,1,0,0:0:0:0:
256,192,157032,1,8,0:0:0:0:
256,192,157149,1,8,0:0:0:0:
256,192,157266,1,0,0:0:0:0:
256,160,157344,1,0,0:0:0:0:
256,192,157422,1,0,0:0:0:0:
256,192,157500,1,8,0:0:0:0:
256,192,158670,1,8,0:0:0:0:
256,192,158757,1,8,0:0:0:0:
256,192,158845,1,8,0:0:0:0:
256,192,158932,1,8,0:0:0:0:
256,192,159020,1,0,0:0:0:0:
256,192,159108,1,0,0:0:0:0:
256,192,159195,1,0,0:0:0:0:
256,192,159283,1,0,0:0:0:0:
256,192,159371,1,8,0:0:0:0:
256,192,159458,1,8,0:0:0:0:
256,192,159546,1,0,0:0:0:0:
256,192,159634,1,0,0:0:0:0:
256,192,159721,1,8,0:0:0:0:
256,192,159809,1,0,0:0:0:0:
256,192,159897,1,8,0:0:0:0:
256,192,159984,1,0,0:0:0:0:
192,32,160072,1,8,0:0:0:0:
256,192,160160,1,8,0:0:0:0:
256,192,160247,1,8,0:0:0:0:
256,192,160334,1,8,0:0:0:0:
256,192,160422,1,0,0:0:0:0:
256,192,160510,1,0,0:0:0:0:
256,192,160597,1,0,0:0:0:0:
256,192,160685,1,0,0:0:0:0:
256,192,160772,1,8,0:0:0:0:
256,192,160860,1,0,0:0:0:0:
256,192,160948,1,8,0:0:0:0:
256,192,161035,1,8,0:0:0:0:
256,192,161123,1,0,0:0:0:0:
256,192,161211,1,0,0:0:0:0:
256,192,161298,1,8,0:0:0:0:
256,192,161386,1,8,0:0:0:0:
256,192,161474,1,0,0:0:0:0:
256,192,161561,1,0,0:0:0:0:
256,192,161649,1,0,0:0:0:0:
256,192,161737,1,0,0:0:0:0:
256,192,161824,1,8,0:0:0:0:
256,192,161912,1,0,0:0:0:0:
256,192,162000,1,8,0:0:0:0:
256,192,162087,1,8,0:0:0:0:
256,192,162175,1,0,0:0:0:0:
256,192,162263,1,0,0:0:0:0:
256,192,162350,1,0,0:0:0:0:
256,192,162438,1,0,0:0:0:0:
256,192,162526,1,8,0:0:0:0:
256,192,162613,1,8,0:0:0:0:
256,192,162701,1,0,0:0:0:0:
256,192,162759,1,0,0:0:0:0:
256,192,162818,1,0,0:0:0:0:
256,192,162876,1,8,0:0:0:0:
256,192,162964,1,8,0:0:0:0:
256,192,163052,1,0,0:0:0:0:
256,192,163139,1,0,0:0:0:0:
256,192,163227,1,0,0:0:0:0:
256,192,163315,1,0,0:0:0:0:
256,192,163402,1,8,0:0:0:0:
256,192,163490,1,0,0:0:0:0:
256,192,163578,1,8,0:0:0:0:
256,192,163665,1,0,0:0:0:0:
256,192,163753,1,8,0:0:0:0:
256,192,163841,1,8,0:0:0:0:
256,192,163928,1,8,0:0:0:0:
256,192,164016,1,0,0:0:0:0:
256,192,164103,1,0,0:0:0:0:
256,192,164191,1,0,0:0:0:0:
256,192,164279,1,8,0:0:0:0:
256,192,164366,1,0,0:0:0:0:
256,192,164454,1,0,0:0:0:0:
256,192,164542,1,0,0:0:0:0:
256,192,164629,1,8,0:0:0:0:
256,192,164717,1,8,0:0:0:0:
256,192,164805,1,8,0:0:0:0:
256,192,164892,1,8,0:0:0:0:
256,192,164980,1,0,0:0:0:0:
256,192,165068,1,0,0:0:0:0:
256,192,165155,1,8,0:0:0:0:
256,192,165243,1,0,0:0:0:0:
256,192,165331,1,8,0:0:0:0:
256,192,165418,1,0,0:0:0:0:
256,192,165506,1,8,0:0:0:0:
256,192,165564,1,8,0:0:0:0:
256,192,165623,1,8,0:0:0:0:
256,192,165681,1,0,0:0:0:0:
256,192,165769,1,0,0:0:0:0:
256,192,165857,1,0,0:0:0:0:
256,192,165944,1,0,0:0:0:0:
256,192,166032,1,8,0:0:0:0:
256,192,166120,1,8,0:0:0:0:
256,192,166207,1,8,0:0:0:0:
256,192,166295,1,8,0:0:0:0:
256,192,166383,1,0,0:0:0:0:
256,192,166470,1,0,0:0:0:0:
256,192,166558,1,8,0:0:0:0:
256,192,166646,1,8,0:0:0:0:
256,192,166733,1,0,0:0:0:0:
256,192,166821,1,0,0:0:0:0:
256,192,166909,1,8,0:0:0:0:
256,192,166967,1,0,0:0:0:0:
256,192,167025,1,0,0:0:0:0:
256,192,167084,1,8,0:0:0:0:
256,192,167172,1,8,0:0:0:0:
256,192,167259,1,0,0:0:0:0:
256,192,167347,1,0,0:0:0:0:
256,192,167434,1,8,0:0:0:0:
256,192,167522,1,0,0:0:0:0:
256,192,167610,1,8,0:0:0:0:
256,192,167697,1,8,0:0:0:0:
256,192,167785,1,0,0:0:0:0:
256,192,167873,1,0,0:0:0:0:
256,192,167960,1,0,0:0:0:0:
256,192,168048,1,0,0:0:0:0:
256,192,168136,1,8,0:0:0:0:
256,192,168223,1,0,0:0:0:0:
256,192,168311,1,8,0:0:0:0:
256,192,168399,1,8,0:0:0:0:
256,192,168486,1,8,0:0:0:0:
256,192,168574,1,0,0:0:0:0:
256,192,168662,1,0,0:0:0:0:
256,192,168749,1,0,0:0:0:0:
256,192,168837,1,8,0:0:0:0:
256,192,168925,1,8,0:0:0:0:
256,192,169012,1,0,0:0:0:0:
256,192,169100,1,0,0:0:0:0:
256,192,169188,1,8,0:0:0:0:
256,192,169275,1,8,0:0:0:0:
256,192,169363,1,0,0:0:0:0:
256,192,169451,1,8,0:0:0:0:
256,192,169538,1,0,0:0:0:0:
256,192,169626,1,0,0:0:0:0:
256,192,169714,1,8,0:0:0:0:
256,192,169801,1,8,0:0:0:0:
256,192,169889,1,0,0:0:0:0:
256,192,169977,1,8,0:0:0:0:
256,192,170064,1,0,0:0:0:0:
256,192,170152,1,0,0:0:0:0:
256,192,170240,1,0,0:0:0:0:
256,192,170327,1,0,0:0:0:0:
256,192,170415,1,8,0:0:0:0:
256,192,170473,1,0,0:0:0:0:
256,192,170532,1,0,0:0:0:0:
256,192,170590,1,8,0:0:0:0:
256,192,170678,1,8,0:0:0:0:
256,192,170765,1,8,0:0:0:0:
256,192,170853,1,8,0:0:0:0:
256,192,170941,1,0,0:0:0:0:
256,192,171028,1,8,0:0:0:0:
256,192,171116,1,8,0:0:0:0:
256,192,171204,1,8,0:0:0:0:
256,192,171291,1,0,0:0:0:0:
256,192,171379,1,0,0:0:0:0:
256,192,171467,1,8,0:0:0:0:
256,192,171554,1,8,0:0:0:0:
256,192,171642,1,0,0:0:0:0:
256,192,171730,1,0,0:0:0:0:
256,192,171817,1,0,0:0:0:0:
256,192,171905,1,0,0:0:0:0:
256,192,171993,1,8,0:0:0:0:
256,192,172080,1,0,0:0:0:0:
256,192,172168,1,8,0:0:0:0:
256,192,172256,1,8,0:0:0:0:
256,192,172343,1,0,0:0:0:0:
256,192,172431,1,0,0:0:0:0:
256,192,172519,1,8,0:0:0:0:
256,192,172606,1,8,0:0:0:0:
256,192,172694,1,0,0:0:0:0:
256,192,172782,1,0,0:0:0:0:
256,192,172869,1,0,0:0:0:0:
256,192,172957,1,0,0:0:0:0:
256,192,173045,1,8,0:0:0:0:
256,192,173132,1,8,0:0:0:0:
288,192,173220,1,0,0:0:0:0:
256,192,173308,1,8,0:0:0:0:
256,192,173395,1,0,0:0:0:0:
256,192,173483,1,0,0:0:0:0:
256,192,173571,1,0,0:0:0:0:
256,192,173658,1,0,0:0:0:0:
256,192,173746,1,8,0:0:0:0:
256,192,173833,1,0,0:0:0:0:
256,192,173921,1,0,0:0:0:0:
256,192,173980,1,0,0:0:0:0:
256,192,174038,1,0,0:0:0:0:
256,192,174096,1,8,0:0:0:0:
256,192,174184,1,8,0:0:0:0:
256,192,174272,1,8,0:0:0:0:
256,192,174359,1,8,0:0:0:0:
256,192,174447,1,0,0:0:0:0:
256,192,174535,1,8,0:0:0:0:
256,192,174622,1,8,0:0:0:0:
256,192,174710,1,8,0:0:0:0:
256,192,174798,1,0,0:0:0:0:
256,192,174885,1,0,0:0:0:0:
256,192,174973,1,8,0:0:0:0:
256,192,175061,1,8,0:0:0:0:
256,192,175148,1,8,0:0:0:0:
256,192,175207,1,0,0:0:0:0:
256,192,175265,1,0,0:0:0:0:
256,192,175324,1,8,0:0:0:0:
256,192,175411,1,8,0:0:0:0:
256,192,175499,1,0,0:0:0:0:
256,192,175587,1,0,0:0:0:0:
256,192,175674,1,0,0:0:0:0:
256,192,175762,1,0,0:0:0:0:
256,192,175850,1,8,0:0:0:0:
256,192,175937,1,0,0:0:0:0:
256,192,176025,1,8,0:0:0:0:
256,192,176113,1,8,0:0:0:0:
256,192,176200,1,0,0:0:0:0:
256,192,176288,1,0,0:0:0:0:
256,192,176376,1,8,0:0:0:0:
256,192,176463,1,0,0:0:0:0:
256,192,176551,1,8,0:0:0:0:
256,192,176639,1,8,0:0:0:0:
256,192,176726,1,8,0:0:0:0:
256,192,176814,1,8,0:0:0:0:
256,192,176902,1,0,0:0:0:0:
256,192,176989,1,0,0:0:0:0:
256,192,177077,1,0,0:0:0:0:
256,192,177164,1,0,0:0:0:0:
256,192,177252,1,8,0:0:0:0:
256,192,177340,1,8,0:0:0:0:
256,192,177427,1,0,0:0:0:0:
256,192,177515,1,0,0:0:0:0:
256,192,177603,1,8,0:0:0:0:
256,224,177690,1,8,0:0:0:0:
256,224,177778,1,0,0:0:0:0:
256,192,177866,1,0,0:0:0:0:
256,192,177953,1,0,0:0:0:0:
256,192,178041,1,0,0:0:0:0:
256,192,178129,1,0,0:0:0:0:
256,224,178216,1,0,0:0:0:0:
256,192,178304,1,8,0:0:0:0:
256,192,178392,1,0,0:0:0:0:
256,192,178479,1,0,0:0:0:0:
256,192,178567,1,0,0:0:0:0:
256,192,178655,1,8,0:0:0:0:
256,192,178742,1,8,0:0:0:0:
256,192,178830,1,0,0:0:0:0:
256,192,178918,1,0,0:0:0:0:
256,192,179005,1,8,0:0:0:0:
256,192,179093,1,8,0:0:0:0:
288,224,179181,1,8,0:0:0:0:
288,224,179268,1,8,0:0:0:0:
256,224,179356,1,0,0:0:0:0:
256,192,179444,1,0,0:0:0:0:
256,192,179531,1,8,0:0:0:0:
288,224,179619,1,0,0:0:0:0:
256,192,179707,1,8,0:0:0:0:
256,192,179794,1,8,0:0:0:0:
256,192,179882,1,0,0:0:0:0:
256,192,179970,1,0,0:0:0:0:
256,192,180057,1,8,0:0:0:0:
256,192,180145,1,0,0:0:0:0:
256,192,180233,1,0,0:0:0:0:
256,192,180320,1,0,0:0:0:0:
256,192,180408,1,8,0:0:0:0:
256,192,180495,1,0,0:0:0:0:
256,192,180583,1,0,0:0:0:0:
256,192,180671,1,8,0:0:0:0:
256,192,180758,1,0,0:0:0:0:
256,192,180846,1,0,0:0:0:0:
256,192,180934,1,8,0:0:0:0:
256,192,180992,1,8,0:0:0:0:
256,192,181051,1,0,0:0:0:0:
256,192,181109,1,8,0:0:0:0:
256,192,181198,1,0,0:0:0:0:
256,192,181285,1,0,0:0:0:0:
256,192,181373,1,0,0:0:0:0:
256,192,181460,1,8,0:0:0:0:
256,192,181548,1,0,0:0:0:0:
256,192,181635,1,0,0:0:0:0:
256,192,181723,1,0,0:0:0:0:
256,192,181810,1,8,0:0:0:0:
256,192,181898,1,8,0:0:0:0:
256,192,181986,1,0,0:0:0:0:
256,192,182073,1,0,0:0:0:0:
256,192,182161,1,8,0:0:0:0:
288,192,182249,1,0,0:0:0:0:
256,192,182336,1,0,0:0:0:0:
256,192,182424,1,0,0:0:0:0:
256,192,182512,1,8,0:0:0:0:
256,192,182600,1,8,0:0:0:0:
256,192,182687,1,0,0:0:0:0:
256,192,182775,1,0,0:0:0:0:
256,192,182863,1,0,0:0:0:0:
256,192,182950,1,0,0:0:0:0:
256,192,183038,1,8,0:0:0:0:
256,192,183125,1,0,0:0:0:0:
256,192,183213,1,8,0:0:0:0:
256,192,183301,1,0,0:0:0:0:
256,192,183388,1,8,0:0:0:0:
256,192,183476,1,8,0:0:0:0:
256,192,183564,1,0,0:0:0:0:
256,192,183651,1,0,0:0:0:0:
256,192,183739,1,8,0:0:0:0:
256,192,183827,1,8,0:0:0:0:
256,192,183914,1,0,0:0:0:0:
256,192,183958,1,0,0:0:0:0:
256,192,184265,1,8,0:0:0:0:
256,192,184309,1,8,0:0:0:0:
256,192,184616,1,8,0:0:0:0:
256,192,184660,1,8,0:0:0:0:
256,192,184966,1,8,0:0:0:0:
256,192,185010,1,8,0:0:0:0:
256,192,185142,1,0,0:0:0:0:
256,192,185229,1,0,0:0:0:0:
256,192,185317,1,8,0:0:0:0:
256,192,185405,1,8,0:0:0:0:
256,192,185492,1,0,0:0:0:0:
256,192,185580,1,0,0:0:0:0:
256,192,185668,1,0,0:0:0:0:
256,192,185755,1,0,0:0:0:0:
256,192,185843,1,8,0:0:0:0:
256,192,185931,1,0,0:0:0:0:
256,192,186018,1,8,0:0:0:0:
256,192,186106,1,0,0:0:0:0:
256,192,186194,1,0,0:0:0:0:
256,192,186281,1,8,0:0:0:0:
256,192,186369,1,0,0:0:0:0:
256,192,186456,1,0,0:0:0:0:
256,192,186544,1,8,0:0:0:0:
256,192,186632,1,8,0:0:0:0:
256,192,186719,1,0,0:0:0:0:
256,192,186807,1,0,0:0:0:0:
256,192,186895,1,0,0:0:0:0:
256,192,186982,1,0,0:0:0:0:
256,192,187070,1,8,0:0:0:0:
256,192,187158,1,0,0:0:0:0:
256,192,187245,1,0,0:0:0:0:
256,192,187333,1,0,0:0:0:0:
256,192,187421,1,8,0:0:0:0:
256,192,187508,1,8,0:0:0:0:
256,192,187596,1,0,0:0:0:0:
256,192,187684,1,0,0:0:0:0:
256,192,187771,1,8,0:0:0:0:
256,192,187859,1,0,0:0:0:0:
256,192,187947,1,0,0:0:0:0:
256,192,188005,1,0,0:0:0:0:
256,192,188064,1,0,0:0:0:0:
256,192,188122,1,8,0:0:0:0:
256,192,188210,1,8,0:0:0:0:
256,192,188297,1,0,0:0:0:0:
256,192,188385,1,0,0:0:0:0:
256,192,188473,1,0,0:0:0:0:
256,192,188560,1,0,0:0:0:0:
256,192,188648,1,8,0:0:0:0:
256,192,188736,1,0,0:0:0:0:
256,192,188823,1,8,0:0:0:0:
256,192,188911,1,0,0:0:0:0:
256,192,188999,1,0,0:0:0:0:
256,192,189086,1,8,0:0:0:0:
256,192,189174,1,8,0:0:0:0:
256,192,189262,1,0,0:0:0:0:
256,192,189349,1,0,0:0:0:0:
256,192,189437,1,0,0:0:0:0:
256,192,189525,1,8,0:0:0:0:
256,192,189583,1,8,0:0:0:0:
256,192,189641,1,8,0:0:0:0:
256,192,189700,1,0,0:0:0:0:
256,192,189787,1,0,0:0:0:0:
256,192,189875,1,8,0:0:0:0:
256,192,189934,1,8,0:0:0:0:
256,192,189992,1,0,0:0:0:0:
256,192,190050,1,0,0:0:0:0:
256,192,190138,1,0,0:0:0:0:
256,192,190226,1,8,0:0:0:0:
256,192,190313,1,0,0:0:0:0:
256,192,190401,1,0,0:0:0:0:
256,192,190489,1,0,0:0:0:0:
256,192,190576,1,8,0:0:0:0:
256,192,190664,1,0,0:0:0:0:
256,192,190752,1,8,0:0:0:0:
256,192,190810,1,0,0:0:0:0:
256,192,190869,1,0,0:0:0:0:
256,192,190927,1,8,0:0:0:0:
256,192,191015,1,8,0:0:0:0:
256,192,191102,1,8,0:0:0:0:
256,192,191190,1,8,0:0:0:0:
256,192,191278,1,0,0:0:0:0:
256,192,191365,1,0,0:0:0:0:
256,192,191453,1,8,0:0:0:0:
256,192,191541,1,0,0:0:0:0:
256,192,191628,1,8,0:0:0:0:
256,192,191716,1,0,0:0:0:0:
256,192,191804,1,0,0:0:0:0:
256,192,191891,1,0,0:0:0:0:
256,192,191979,1,8,0:0:0:0:
256,192,192037,1,0,0:0:0:0:
256,192,192096,1,0,0:0:0:0:
256,192,192154,1,8,0:0:0:0:
256,192,192213,1,0,0:0:0:0:
256,192,192271,1,0,0:0:0:0:
256,192,192330,1,8,0:0:0:0:
256,192,192417,1,8,0:0:0:0:
256,192,192505,1,0,0:0:0:0:
256,192,192593,1,0,0:0:0:0:
256,192,192680,1,8,0:0:0:0:
256,192,192768,1,8,0:0:0:0:
256,192,192856,1,0,0:0:0:0:
256,192,192943,1,0,0:0:0:0:
256,192,193031,1,8,0:0:0:0:
256,192,193118,1,0,0:0:0:0:
256,192,193206,1,0,0:0:0:0:
256,192,193294,1,0,0:0:0:0:
256,192,193381,1,8,0:0:0:0:
256,192,193469,1,0,0:0:0:0:
256,192,193557,1,8,0:0:0:0:
256,192,193615,1,8,0:0:0:0:
256,192,193674,1,0,0:0:0:0:
256,192,193732,1,8,0:0:0:0:
256,192,193820,1,8,0:0:0:0:
256,192,193907,1,8,0:0:0:0:
256,192,193995,1,8,0:0:0:0:
256,192,194083,1,0,0:0:0:0:
256,192,194170,1,0,0:0:0:0:
256,192,194258,1,8,0:0:0:0:
256,192,194346,1,8,0:0:0:0:
256,192,194433,1,0,0:0:0:0:
256,192,194521,1,0,0:0:0:0:
256,192,194609,1,8,0:0:0:0:
256,192,194696,1,0,0:0:0:0:
256,192,194784,1,8,0:0:0:0:
256,192,194872,1,8,0:0:0:0:
256,192,194959,1,0,0:0:0:0:
256,192,195018,1,0,0:0:0:0:
256,192,195076,1,0,0:0:0:0:
256,192,195135,1,8,0:0:0:0:
256,192,195222,1,0,0:0:0:0:
256,192,195310,1,0,0:0:0:0:
256,192,195398,1,0,0:0:0:0:
256,192,195485,1,8,0:0:0:0:
256,192,195573,1,8,0:0:0:0:
256,192,195661,1,0,0:0:0:0:
256,192,195748,1,0,0:0:0:0:
256,192,195836,1,8,0:0:0:0:
256,192,195924,1,0,0:0:0:0:
256,192,196011,1,0,0:0:0:0:
256,192,196099,1,0,0:0:0:0:
256,192,196187,1,8,0:0:0:0:
256,192,196274,1,0,0:0:0:0:
256,192,196362,1,8,0:0:0:0:
256,192,196420,1,8,0:0:0:0:
256,192,196479,1,8,0:0:0:0:
256,192,196537,1,0,0:0:0:0:
256,192,196625,1,0,0:0:0:0:
256,192,196712,1,0,0:0:0:0:
256,192,196800,1,0,0:0:0:0:
256,192,196888,1,8,0:0:0:0:
256,192,196975,1,0,0:0:0:0:
256,192,197063,1,8,0:0:0:0:
256,192,197151,1,8,0:0:0:0:
256,192,197238,1,0,0:0:0:0:
256,192,197326,1,0,0:0:0:0:
256,192,197414,1,8,0:0:0:0:
256,192,197501,1,0,0:0:0:0:
256,192,197589,1,8,0:0:0:0:
256,192,197677,1,8,0:0:0:0:
256,192,197764,1,0,0:0:0:0:
256,192,197852,1,8,0:0:0:0:
256,192,197940,1,0,0:0:0:0:
256,192,198027,1,0,0:0:0:0:
256,192,198115,1,0,0:0:0:0:
256,192,198203,1,0,0:0:0:0:
256,192,198290,1,8,0:0:0:0:
256,192,198378,1,8,0:0:0:0:
256,192,198466,1,8,0:0:0:0:
256,192,198553,1,8,0:0:0:0:
256,192,198641,1,0,0:0:0:0:
256,192,198729,1,0,0:0:0:0:
256,192,198816,1,8,0:0:0:0:
256,192,198904,1,0,0:0:0:0:
256,192,198992,1,8,0:0:0:0:
256,192,199079,1,8,0:0:0:0:
256,192,199167,1,0,0:0:0:0:
224,192,199225,1,8,0:0:0:0:
256,192,199284,1,8,0:0:0:0:
256,192,199342,1,0,0:0:0:0:
224,192,199430,1,0,0:0:0:0:
224,192,199518,1,0,0:0:0:0:
224,192,199605,1,0,0:0:0:0:
224,192,199693,1,8,0:0:0:0:
224,192,199780,1,8,0:0:0:0:
224,192,199868,1,0,0:0:0:0:
224,192,199956,1,0,0:0:0:0:
224,192,200043,1,8,0:0:0:0:
224,192,200131,1,0,0:0:0:0:
224,192,200219,1,0,0:0:0:0:
224,192,200306,1,0,0:0:0:0:
224,192,200394,1,8,0:0:0:0:
224,192,200482,1,0,0:0:0:0:
224,192,200569,1,8,0:0:0:0:
224,192,200657,1,8,0:0:0:0:
224,192,200745,1,0,0:0:0:0:
224,192,200832,1,0,0:0:0:0:
224,192,200920,1,8,0:0:0:0:
224,192,201008,1,0,0:0:0:0:
224,192,201095,1,8,0:0:0:0:
224,192,201183,1,8,0:0:0:0:
224,192,201271,1,0,0:0:0:0:
224,192,201358,1,8,0:0:0:0:
224,192,201446,1,8,0:0:0:0:
224,192,201534,1,8,0:0:0:0:
224,192,201621,1,0,0:0:0:0:
224,192,201709,1,0,0:0:0:0:
224,192,201797,1,8,0:0:0:0:
224,192,201884,1,0,0:0:0:0:
224,192,201972,1,0,0:0:0:0:
224,192,202030,1,0,0:0:0:0:
224,192,202089,1,0,0:0:0:0:
224,192,202147,1,8,0:0:0:0:
224,192,202235,1,0,0:0:0:0:
224,192,202323,1,0,0:0:0:0:
224,192,202410,1,0,0:0:0:0:
224,192,202498,1,8,0:0:0:0:
224,192,202586,1,8,0:0:0:0:
224,192,202673,1,0,0:0:0:0:
224,192,202761,1,0,0:0:0:0:
224,192,202848,1,8,0:0:0:0:
224,192,202907,1,0,0:0:0:0:
224,192,202965,1,0,0:0:0:0:
224,192,203024,1,8,0:0:0:0:
224,192,203111,1,0,0:0:0:0:
224,192,203199,1,8,0:0:0:0:
224,192,203287,1,0,0:0:0:0:
224,192,203374,1,8,0:0:0:0:
224,192,203433,1,8,0:0:0:0:
224,192,203491,1,0,0:0:0:0:
224,192,203550,1,8,0:0:0:0:
224,192,203637,1,8,0:0:0:0:
224,192,203725,1,0,0:0:0:0:
224,192,203813,1,0,0:0:0:0:
224,192,203900,1,8,0:0:0:0:
224,192,203988,1,0,0:0:0:0:
224,192,204076,1,0,0:0:0:0:
224,192,204163,1,0,0:0:0:0:
224,192,204251,1,8,0:0:0:0:
224,192,204339,1,0,0:0:0:0:
224,192,204426,1,8,0:0:0:0:
224,192,204514,1,0,0:0:0:0:
224,192,204602,1,8,0:0:0:0:
224,192,204689,1,8,0:0:0:0:
224,192,204777,1,0,0:0:0:0:
224,192,204865,1,0,0:0:0:0:
224,192,204952,1,0,0:0:0:0:
224,192,205478,1,0,0:0:0:0:
224,192,205654,1,8,0:0:0:0:
224,192,205917,1,8,0:0:0:0:
224,192,206179,1,0,0:0:0:0:
224,192,206355,1,4,0:0:0:0:
224,192,206881,1,8,0:0:0:0:
224,192,207056,1,0,0:0:0:0:
224,192,207757,1,4,0:0:0:0:
224,192,208283,1,0,0:0:0:0:
224,192,208459,1,12,0:0:0:0:
224,192,208722,1,0,0:0:0:0:
224,192,208985,1,0,0:0:0:0:
224,192,209160,1,12,0:0:0:0:
224,192,209686,1,0,0:0:0:0:
224,192,209861,1,8,0:0:0:0:
224,192,209949,1,8,0:0:0:0:
224,192,210036,1,0,0:0:0:0:
224,192,210124,1,0,0:0:0:0:
224,192,210212,1,8,0:0:0:0:
224,192,210299,1,0,0:0:0:0:
224,192,210387,1,0,0:0:0:0:
224,192,210475,1,0,0:0:0:0:
224,192,210562,1,8,0:0:0:0:
224,192,210650,1,8,0:0:0:0:
224,192,210738,1,0,0:0:0:0:
224,192,210825,1,0,0:0:0:0:
224,192,210913,1,8,0:0:0:0:
224,192,211001,1,0,0:0:0:0:
224,192,211088,1,0,0:0:0:0:
224,192,211176,1,0,0:0:0:0:
224,192,211264,1,8,0:0:0:0:
224,192,211351,1,0,0:0:0:0:
224,192,211439,1,0,0:0:0:0:
224,192,211527,1,8,0:0:0:0:
224,192,211614,1,0,0:0:0:0:
224,192,211702,1,0,0:0:0:0:
224,192,211790,1,8,0:0:0:0:
224,192,211877,1,0,0:0:0:0:
224,192,211965,1,8,0:0:0:0:
224,192,212053,1,8,0:0:0:0:
224,192,212140,1,0,0:0:0:0:
224,192,212228,1,0,0:0:0:0:
224,192,212316,1,8,0:0:0:0:
224,192,212403,1,0,0:0:0:0:
224,192,212491,1,8,0:0:0:0:
224,160,212549,1,8,0:0:0:0:
224,192,212608,1,0,0:0:0:0:
224,192,212666,1,8,0:0:0:0:
224,192,212754,1,0,0:0:0:0:
224,192,212841,1,0,0:0:0:0:
224,192,212929,1,0,0:0:0:0:
224,192,213017,1,8,0:0:0:0:
224,192,213104,1,8,0:0:0:0:
224,192,213192,1,0,0:0:0:0:
224,192,213280,1,0,0:0:0:0:
224,192,213367,1,8,0:0:0:0:
224,192,213543,1,4,0:0:0:0:
224,192,213718,1,4,0:0:0:0:
224,192,213893,1,4,0:0:0:0:
224,192,214069,1,12,0:0:0:0:
224,192,214244,1,4,0:0:0:0:
224,192,214419,1,0,0:0:0:0:
224,192,214507,1,0,0:0:0:0:
224,192,214595,1,8,0:0:0:0:
224,192,214682,1,0,0:0:0:0:
224,192,214770,1,8,0:0:0:0:
224,192,214858,1,8,0:0:0:0:
224,192,214945,1,8,0:0:0:0:
224,192,215033,1,8,0:0:0:0:
224,192,215121,1,0,0:0:0:0:
224,192,215208,1,0,0:0:0:0:
224,192,215296,1,8,0:0:0:0:
224,192,215384,1,8,0:0:0:0:
224,192,215471,1,0,0:0:0:0:
224,192,215559,1,0,0:0:0:0:
224,192,215647,1,0,0:0:0:0:
224,192,215734,1,0,0:0:0:0:
224,192,215822,1,8,0:0:0:0:
224,192,215910,1,0,0:0:0:0:
224,192,215997,1,0,0:0:0:0:
224,192,216085,1,0,0:0:0:0:
224,192,216172,1,8,0:0:0:0:
224,192,216260,1,8,0:0:0:0:
224,192,216348,1,8,0:0:0:0:
224,192,216435,1,0,0:0:0:0:
224,192,216523,1,8,0:0:0:0:
224,192,216611,1,8,0:0:0:0:
224,192,216698,1,0,0:0:0:0:
224,192,216786,1,0,0:0:0:0:
224,192,216874,1,8,0:0:0:0:
224,192,216961,1,0,0:0:0:0:
224,192,217049,1,0,0:0:0:0:
224,192,217137,1,0,0:0:0:0:
224,192,217224,1,8,0:0:0:0:
224,192,217312,1,0,0:0:0:0:
224,192,217400,1,8,0:0:0:0:
224,192,217458,1,0,0:0:0:0:
224,192,217517,1,0,0:0:0:0:
224,192,217575,1,8,0:0:0:0:
224,160,217619,1,8,0:0:0:0:
224,160,217663,1,8,0:0:0:0:
256,192,218627,2,0,L|416:160,1,122.500001168251
256,192,218978,1,12,0:0:0:0:
