osu file format v14

[General]
AudioFilename: audio.mp3
AudioLeadIn: 0
PreviewTime: 76111
Countdown: 1
SampleSet: None
StackLeniency: 0.7
Mode: 0
LetterboxInBreaks: 0
WidescreenStoryboard: 0

[Editor]
DistanceSpacing: 1
BeatDivisor: 4
GridSize: 32
TimelineZoom: 2.699999

[Metadata]
Title:Southern Cross
TitleUnicode:Southern Cross
Artist:403 Forbiddena
ArtistUnicode:403 Forbiddena
Creator:-Snivy3000-
Version:Defy me!
Source:N.E.W.S.
Tags:news metal melodic vocal english
BeatmapID:1916223
BeatmapSetID:917597

[Difficulty]
HPDrainRate:6
CircleSize:4.5
OverallDifficulty:8
ApproachRate:9
SliderMultiplier:1.8
SliderTickRate:1

[Events]
//Background and Video events
0,0,"conquer_the_world__wallpaper__by_hardii_dcad9rr.png",0,0
//Break Periods
//Storyboard Layer 0 (Background)
//Storyboard Layer 1 (Fail)
//Storyboard Layer 2 (Pass)
//Storyboard Layer 3 (Foreground)
//Storyboard Sound Samples

[TimingPoints]
321,350.56967572305,4,1,0,60,1,0
1372,-100,4,2,0,60,0,0
2424,-200,4,2,1,60,0,0
3125,701.1393514461,4,2,1,30,1,0
25279,350.56967572305,4,1,0,50,1,0
25629,350.56967572305,4,3,1,80,1,0
25629,-66.6666666666667,4,3,1,80,0,0
26330,-133.333333333333,4,3,1,80,0,0
26681,-66.6666666666667,4,3,1,80,0,0
27031,-100,4,3,1,60,0,0
28434,-66.6666666666667,4,3,1,80,0,0
29135,-133.333333333333,4,3,1,80,0,0
29485,-66.6666666666667,4,3,1,80,0,0
29836,-100,4,3,1,60,0,0
33692,-66.6666666666667,4,3,1,60,0,0
34043,-100,4,2,1,60,0,0
35445,-100,4,3,1,60,0,0
38249,-100,4,3,1,60,0,1
49380,-100,4,3,1,60,0,0
49467,-100,4,3,1,60,0,1
59984,-100,4,3,3,60,0,1
60685,-100,4,2,1,60,0,0
62789,-303.030303030303,4,2,1,60,0,0
63139,-66.6666666666667,4,2,1,60,0,0
75760,-66.6666666666667,4,1,0,50,0,0
76111,-66.6666666666667,4,3,1,80,0,0
77513,-100,4,3,1,60,0,0
78915,-66.6666666666667,4,3,1,80,0,0
80317,-100,4,3,1,60,0,0
81720,-66.6666666666667,4,3,1,80,0,0
82421,-400,4,3,1,80,0,0
82771,-66.6666666666667,4,3,1,80,0,0
83823,-400,4,3,1,80,0,0
84174,-66.6666666666667,4,3,1,80,0,0
84524,-100,4,2,1,60,0,0
85926,-100,4,3,1,60,0,0
88731,-100,4,3,1,60,0,1
99862,-100,4,3,1,60,0,0
99949,-100,4,3,1,60,0,1
109765,-66.6666666666667,4,3,1,60,0,1
111168,-100,4,3,1,60,0,0
113621,-303.030303030303,4,3,1,60,0,0
118880,-50,4,3,1,60,0,0
124489,-303.030303030303,4,3,1,60,0,0
130799,-50,4,3,1,60,0,0
133604,-833.333333333333,4,2,1,60,0,0
133692,-833.333333333333,4,2,1,5,0,0
136409,701.1393514461,4,2,1,30,1,0
158845,350.56967572305,4,3,1,50,1,0
160247,-66.6666666666667,4,3,1,60,0,1
171377,-66.6666666666667,4,3,1,60,0,0
171465,-66.6666666666667,4,3,1,60,0,1
182683,-100,4,2,2,60,0,0
182771,-100,4,3,1,60,0,0
183209,-100,4,2,2,60,0,0
183297,-100,4,3,1,60,0,0
183560,-100,4,2,2,60,0,0
183647,-100,4,3,1,60,0,0
183910,-100,4,2,2,60,0,0
183998,-100,4,3,1,60,0,0
184086,-133.333333333333,4,3,1,60,0,0
185488,-100,4,3,1,60,0,1
186014,-100,4,3,2,60,0,1
186101,-100,4,3,1,60,0,1
187416,-100,4,3,2,60,0,1
187504,-100,4,3,1,60,0,1
191097,-66.6666666666667,4,3,1,60,0,1
193814,-66.6666666666667,4,3,1,60,0,0
193901,-100,4,3,2,60,0,1
193989,-100,4,3,1,60,0,1
194603,-66.6666666666667,4,3,1,60,0,1
196706,-100,4,2,2,60,0,1
196794,-100,4,3,1,60,0,1
197407,-66.6666666666667,4,3,1,60,0,1
199511,-100,4,2,2,60,0,1
199598,-100,4,3,1,60,0,1
200212,-100,4,2,2,60,0,1
200299,-100,4,3,1,60,0,1
200913,-100,4,2,2,60,0,1
201001,-100,4,3,1,60,0,1
201614,-100,4,2,2,60,0,1
201702,-100,4,3,1,60,0,1
202315,-100,4,2,2,60,0,1
202403,-100,4,3,1,60,0,1
203717,-66.6666666666667,4,2,2,60,0,1
203805,-66.6666666666667,4,3,1,60,0,1
205120,-133.333333333333,4,2,1,60,0,0
206522,-200,4,2,1,60,0,0
207924,-133.333333333333,4,2,1,60,0,0
209327,-200,4,2,1,60,0,0
210378,-66.6666666666667,4,3,1,60,0,0
210729,-100,4,3,2,60,0,0
210816,-100,4,3,1,60,0,0
211430,-100,4,3,2,60,0,0
211518,-100,4,3,1,60,0,0
212832,-100,4,3,2,60,0,0
212920,-100,4,3,1,60,0,0
213533,-50,4,3,2,60,0,0
213621,-50,4,3,1,60,0,0
214059,-50,4,3,2,60,0,0
214147,-50,4,3,1,60,0,0
214235,-50,4,3,2,60,0,0
214322,-50,4,3,1,60,0,0
214497,-50,4,3,2,60,0,0
214585,-50,4,3,1,60,0,0
214760,-50,4,3,2,60,0,0
214848,-50,4,3,1,60,0,0
214936,-100,4,3,1,60,0,0
217740,-400,4,3,1,60,0,0
218792,-50,4,3,1,60,0,0

[HitObjects]
57,73,321,6,0,B|123:42|123:42|198:58,1,135,0|0,0:0|2:0,0:0:0:0:
348,116,671,2,0,B|285:140|285:140|209:123,1,135
132,128,1022,2,0,P|135:176|200:232,1,135,0|0,0:0|2:0,0:0:0:0:
462,259,1372,1,0,0:0:0:0:
375,233,1547,1,0,0:0:0:0:
286,249,1723,1,0,0:0:0:0:
215,304,1898,1,0,0:0:0:0:
125,291,2073,1,0,0:0:0:0:
89,208,2249,1,0,0:0:0:0:
123,124,2424,2,0,P|177:84|263:91,1,157.5,2|0,0:0|0:0,0:0:0:0:
359,131,3125,6,0,P|392:122|427:89,2,60,6|0|0,0:0|0:0|0:0,0:0:0:0:
212,145,3826,1,2,0:0:0:0:
182,260,4059,2,0,P|184:292|195:321,1,60
285,278,4527,2,0,P|290:244|280:216,1,60,2|0,0:0|0:0,0:0:0:0:
212,145,4994,1,0,0:0:0:0:
108,94,5228,2,0,P|71:89|34:98,2,60,2|2|2,0:0|0:0|0:0,0:0:0:0:
179,168,5929,6,0,L|239:151,1,60,2|0,0:0|0:0,0:0:0:0:
315,97,6396,2,0,L|381:104,1,60,0|2,0:0|0:0,0:0:0:0:
430,168,6864,1,0,0:0:0:0:
394,216,7098,1,0,0:0:0:0:
337,236,7331,1,2,0:0:0:0:
244,228,7565,1,2,0:0:0:0:
188,311,7799,2,0,P|232:333|337:260,1,180,2|0,0:0|0:0,0:0:0:0:
416,213,8734,6,0,L|406:146,1,60,6|0,0:0|0:0,0:0:0:0:
320,36,9201,2,0,L|329:99,1,60
304,177,9668,1,2,0:0:0:0:
228,217,9902,1,2,0:0:0:0:
115,166,10136,2,0,L|131:236,1,60,2|0,0:0|0:0,0:0:0:0:
240,331,10603,2,0,L|219:265,1,60,0|2,0:0|0:0,0:0:0:0:
249,194,11071,1,2,0:0:0:0:
321,148,11304,1,2,0:0:0:0:
392,193,11538,6,0,P|443:191|466:173,2,60,2|0|0,0:0|0:0|0:0,0:0:0:0:
294,177,12239,1,2,0:0:0:0:
201,199,12473,1,2,0:0:0:0:
152,279,12707,1,2,0:0:0:0:
110,197,12940,2,0,P|98:158|94:122,1,60,2|0,0:0|0:0,0:0:0:0:
110,54,13408,1,0,0:0:0:0:
110,54,14109,1,0,0:0:0:0:
205,115,14343,6,0,L|265:102,1,60,6|0,0:0|0:0,0:0:0:0:
355,131,14810,1,0,0:0:0:0:
190,275,15044,2,0,L|206:202,1,60,2|0,0:0|0:0,0:0:0:0:
284,178,15511,1,0,0:0:0:0:
347,300,15745,2,0,L|288:269,2,60,2|0|0,0:0|0:0|0:0,0:0:0:0:
423,247,16446,1,2,0:0:0:0:
366,172,16680,1,2,0:0:0:0:
276,152,16914,1,2,0:0:0:0:
166,95,17147,6,0,L|99:75,1,60,2|0,0:0|0:0,0:0:0:0:
192,173,17615,2,0,L|249:194,1,60,0|2,0:0|0:0,0:0:0:0:
72,198,18082,2,0,P|54:230|50:258,2,60,0|0|2,0:0|0:0|0:0,0:0:0:0:
141,128,18783,1,2,0:0:0:0:
233,98,19017,2,0,P|290:89|365:180,1,180,2|0,0:0|0:0,0:0:0:0:
311,270,19952,6,0,P|302:306|313:344,2,60,6|0|0,0:0|0:0|0:0,0:0:0:0:
375,195,20653,1,0,0:0:0:0:
281,182,20887,1,2,0:0:0:0:
202,215,21120,1,2,0:0:0:0:
115,166,21354,2,0,P|92:135|86:109,2,60,2|0|0,0:0|0:0|0:0,0:0:0:0:
206,216,22055,2,0,P|236:236|254:260,1,60,2|2,0:0|0:0,0:0:0:0:
78,282,22523,2,0,P|85:248|104:215,1,60,2|2,0:0|0:0,0:0:0:0:
204,161,22990,6,0,P|240:143|265:119,1,60
221,279,23458,1,2,0:0:0:0:
325,206,23691,2,0,P|344:162|350:124,1,60
435,76,24159,2,0,P|395:65|225:162,1,240,6|0,0:0|0:0,0:0:0:0:
157,221,25279,1,0,0:0:0:0:
111,217,25366,1,0,0:0:0:0:
76,188,25454,1,0,0:0:0:0:
67,143,25541,1,0,0:0:0:0:
73,98,25629,6,0,P|143:75|255:148,1,202.500007724762,8|0,1:3|0:0,0:0:0:0:
441,175,25980,2,0,B|368:184|368:184|319:224|319:224|228:237,1,202.500007724762,8|0,1:3|0:0,0:0:0:0:
175,309,26330,2,0,P|149:258|155:193,1,101.250003862381,8|0,1:3|0:0,0:0:0:0:
196,125,26681,2,0,P|201:97|186:57,1,67.5000025749208
114,111,26856,2,0,P|108:140|123:180,1,67.5000025749208
175,237,27031,5,8,1:0:0:0:
213,258,27118,1,0,0:0:0:0:
258,259,27206,1,0,0:0:0:0:
297,237,27293,1,0,0:0:0:0:
326,203,27381,1,8,1:0:0:0:
360,174,27469,1,0,0:0:0:0:
403,164,27556,1,0,0:0:0:0:
446,176,27644,1,0,0:0:0:0:
483,201,27732,5,8,1:0:0:0:
505,239,27819,1,0,0:0:0:0:
507,284,27907,1,0,0:0:0:0:
490,325,27994,1,0,0:0:0:0:
456,354,28082,1,8,1:0:0:0:
413,365,28170,1,0,0:0:0:0:
370,356,28257,1,0,0:0:0:0:
334,329,28345,1,0,0:0:0:0:
246,309,28434,6,0,B|273:248|273:248|332:215|332:215|341:142,1,202.500007724762,8|0,1:3|0:0,0:0:0:0:
165,80,28784,2,0,B|135:146|181:205|181:205|241:168,1,202.500007724762,8|0,1:3|0:0,0:0:0:0:
387,131,29135,2,0,L|369:242,1,101.250003862381,8|0,1:3|0:0,0:0:0:0:
283,293,29485,2,0,P|257:299|208:288,1,67.5000025749208
62,253,29661,2,0,P|96:245|138:255,1,67.5000025749208
229,285,29835,5,8,1:0:0:0:
269,304,29922,1,0,0:0:0:0:
314,305,30010,1,0,0:0:0:0:
356,292,30097,1,0,0:0:0:0:
390,260,30186,1,8,1:0:0:0:
399,215,30273,1,0,0:0:0:0:
408,171,30361,1,0,0:0:0:0:
417,127,30448,1,0,0:0:0:0:
356,87,30537,6,0,L|181:117,1,135,0|0,1:0|0:0,0:0:0:0:
179,95,30888,1,0,1:0:0:0:
173,109,30975,1,0,1:0:0:0:
167,123,31063,1,0,1:0:0:0:
162,137,31151,1,0,1:0:0:0:
157,151,31238,5,8,1:3:0:0:
386,257,31589,1,8,1:3:0:0:
130,306,31939,1,8,1:3:0:0:
128,304,32290,1,8,1:0:0:0:
264,250,32465,1,8,1:0:0:0:
323,137,32640,5,8,1:3:0:0:
130,53,32991,1,8,1:3:0:0:
212,230,33342,1,8,1:3:0:0:
377,134,33692,6,0,P|410:191|399:257,1,135.000005149842
307,294,34043,1,2,0:0:0:0:
208,277,34218,1,2,0:0:0:0:
119,321,34393,1,2,0:0:0:0:
217,311,34569,1,2,0:0:0:0:
301,259,34744,1,2,0:0:0:0:
346,171,34919,1,2,0:0:0:0:
311,78,35094,1,2,0:0:0:0:
220,35,35270,1,2,0:0:0:0:
129,73,35445,5,8,1:2:0:0:
130,84,35533,1,0,0:0:0:0:
131,96,35620,1,0,0:0:0:0:
134,107,35708,1,0,0:0:0:0:
138,118,35796,1,0,0:0:0:0:
143,128,35883,1,0,0:0:0:0:
148,139,35971,1,8,0:1:0:0:
154,148,36059,1,0,0:0:0:0:
161,158,36146,5,0,0:0:0:0:
169,166,36234,1,0,0:0:0:0:
177,174,36321,1,0,0:0:0:0:
186,182,36409,1,0,0:0:0:0:
196,188,36497,1,8,0:1:0:0:
206,194,36584,1,0,0:0:0:0:
217,199,36672,1,0,0:1:0:0:
227,203,36760,1,0,0:0:0:0:
239,206,36847,5,8,0:1:0:0:
250,209,36935,1,0,0:0:0:0:
262,210,37023,1,0,0:0:0:0:
273,210,37110,1,0,0:0:0:0:
285,210,37198,1,0,0:0:0:0:
296,209,37286,1,0,0:0:0:0:
308,206,37373,1,8,0:1:0:0:
319,203,37461,1,0,0:0:0:0:
330,199,37548,5,8,0:1:0:0:
340,194,37636,1,0,0:0:0:0:
350,188,37724,1,0,0:0:0:0:
360,181,37811,1,8,0:1:0:0:
369,174,37899,1,0,0:0:0:0:
377,166,37987,1,0,0:0:0:0:
385,157,38074,1,8,0:1:0:0:
392,148,38162,1,0,0:0:0:0:
412,108,38249,5,12,1:0:0:0:
403,152,38336,1,0,0:0:0:0:
394,196,38424,1,8,0:0:0:0:
386,240,38511,1,0,0:0:0:0:
352,271,38600,1,8,1:0:0:0:
312,292,38687,1,0,0:0:0:0:
268,290,38775,1,8,0:0:0:0:
231,266,38862,1,0,0:0:0:0:
208,226,38950,5,8,1:0:0:0:
182,190,39037,1,0,0:0:0:0:
139,179,39125,1,8,0:0:0:0:
101,201,39212,1,0,0:0:0:0:
86,242,39300,1,8,1:0:0:0:
103,283,39388,1,0,0:0:0:0:
142,302,39475,1,8,0:0:0:0:
185,290,39563,1,0,0:0:0:0:
227,274,39651,6,0,L|277:253,3,45,8|0|8|0,1:0|0:0|0:0|0:0,0:0:0:0:
245,181,40002,6,0,L|295:160,3,45,8|0|8|0,1:0|0:0|0:0|0:0,0:0:0:0:
154,224,40352,6,0,L|104:245,3,45,8|0|8|0,1:0|0:0|0:0|0:0,0:0:0:0:
85,167,40703,6,0,L|43:184,3,45,8|0|8|0,1:0|0:0|0:0|0:0,0:0:0:0:
126,148,41054,5,12,1:0:0:0:
167,132,41141,1,0,0:0:0:0:
210,144,41229,1,8,0:0:0:0:
237,179,41316,1,0,0:0:0:0:
239,223,41404,1,8,1:0:0:0:
215,260,41492,1,0,0:0:0:0:
174,276,41579,1,8,0:0:0:0:
131,265,41667,1,0,0:0:0:0:
101,231,41755,5,8,1:0:0:0:
139,207,41842,1,0,0:0:0:0:
183,205,41930,1,8,0:0:0:0:
223,224,42017,1,0,0:0:0:0:
259,253,42105,1,8,1:0:0:0:
297,276,42192,1,0,0:0:0:0:
341,278,42280,1,8,0:0:0:0:
381,259,42367,1,0,0:0:0:0:
412,225,42456,6,0,L|429:178,3,45,8|0|8|0,1:0|0:0|0:0|0:0,0:0:0:0:
337,170,42806,2,0,L|328:120,3,45,8|0|8|0,1:0|0:0|0:0|0:0,0:0:0:0:
251,154,43157,2,0,L|218:115,3,45,8|0|8|0,1:0|0:0|0:0|0:0,0:0:0:0:
163,184,43508,2,0,L|115:167,3,45,8|0|8|0,1:0|0:0|0:0|0:0,0:0:0:0:
208,202,43858,5,12,1:0:0:0:
250,214,43945,1,0,0:0:0:0:
295,212,44033,1,8,0:0:0:0:
337,196,44120,1,0,0:0:0:0:
358,155,44209,1,8,1:0:0:0:
347,111,44296,1,0,0:0:0:0:
323,73,44384,1,8,0:0:0:0:
288,46,44471,1,0,0:0:0:0:
243,48,44559,5,12,1:0:0:0:
210,78,44646,1,0,0:0:0:0:
189,118,44734,1,8,0:0:0:0:
183,162,44821,1,0,0:0:0:0:
195,206,44910,1,8,1:0:0:0:
194,249,44997,1,0,0:0:0:0:
164,282,45085,1,8,0:0:0:0:
120,285,45172,1,0,0:0:0:0:
88,253,45260,5,12,1:0:0:0:
85,209,45347,1,0,0:0:0:0:
113,175,45435,1,8,0:0:0:0:
157,170,45522,1,0,0:0:0:0:
191,201,45611,1,8,1:0:0:0:
199,244,45698,1,0,0:0:0:0:
231,274,45786,1,8,0:0:0:0:
275,279,45873,1,0,0:0:0:0:
320,268,45962,5,12,1:0:0:0:
336,226,46049,1,0,0:0:0:0:
372,199,46137,1,8,0:0:0:0:
416,194,46224,1,0,0:0:0:0:
460,200,46312,1,8,1:0:0:0:
415,192,46399,1,0,0:0:0:0:
371,185,46487,1,8,0:0:0:0:
326,177,46574,1,0,0:0:0:0:
281,176,46663,5,12,1:0:0:0:
246,204,46750,1,0,0:0:0:0:
203,215,46838,1,8,0:0:0:0:
159,207,46925,1,0,0:0:0:0:
127,175,47013,1,8,1:0:0:0:
123,130,47100,1,0,0:0:0:0:
144,91,47188,1,8,0:0:0:0:
182,68,47275,1,0,0:0:0:0:
226,68,47363,5,8,1:0:0:0:
264,91,47451,1,0,0:0:0:0:
284,130,47538,1,8,0:0:0:0:
281,175,47626,1,0,0:0:0:0:
253,210,47714,1,8,1:0:0:0:
228,247,47801,1,0,0:0:0:0:
223,291,47889,1,8,0:0:0:0:
240,332,47976,1,0,0:0:0:0:
217,267,48065,5,8,1:3:0:0:
197,202,48152,1,8,0:0:0:0:
178,137,48240,1,8,0:1:0:0:
159,72,48327,1,8,0:1:0:0:
225,88,48416,1,8,1:3:0:0:
290,103,48503,1,8,0:0:0:0:
356,118,48591,1,8,0:1:0:0:
422,133,48678,1,8,0:1:0:0:
378,185,48766,5,8,1:3:0:0:
331,233,48853,1,8,0:0:0:0:
284,282,48941,1,8,0:1:0:0:
238,331,49028,1,8,0:1:0:0:
217,267,49117,5,8,1:3:0:0:
197,202,49204,1,8,0:0:0:0:
178,137,49292,1,8,0:0:0:0:
159,72,49379,1,8,0:0:0:0:
206,46,49469,5,12,1:0:0:0:
248,32,49554,1,0,0:0:0:0:
292,40,49642,1,8,0:0:0:0:
327,67,49729,1,0,0:0:0:0:
351,116,49820,1,8,1:0:0:0:
393,129,49905,1,0,0:0:0:0:
437,121,49993,1,8,0:0:0:0:
472,94,50080,1,0,0:0:0:0:
442,139,50170,5,8,1:0:0:0:
414,174,50255,1,0,0:0:0:0:
386,209,50343,1,8,0:0:0:0:
358,244,50430,1,0,0:0:0:0:
330,279,50520,1,8,1:0:0:0:
297,249,50606,1,0,0:0:0:0:
257,228,50693,1,8,0:0:0:0:
213,221,50781,1,0,0:0:0:0:
161,237,50870,6,0,L|116:262,3,45,8|0|8|0,1:0|0:0|0:0|0:0,0:0:0:0:
99,170,51220,2,0,L|43:147,3,45,8|0|8|0,1:0|0:0|0:0|0:0,0:0:0:0:
249,195,51571,2,0,L|310:223,3,45,8|0|8|0,1:0|0:0|0:0|0:0,0:0:0:0:
307,124,51921,2,0,L|348:105,3,45,8|0|8|0,1:0|0:0|0:0|0:0,0:0:0:0:
257,148,52274,5,12,1:0:0:0:
213,150,52359,1,0,0:0:0:0:
181,120,52447,1,8,0:0:0:0:
182,76,52534,1,0,0:0:0:0:
215,47,52624,1,8,1:0:0:0:
258,52,52710,1,0,0:0:0:0:
284,87,52798,1,8,0:0:0:0:
276,130,52885,1,0,0:0:0:0:
242,159,52975,5,8,1:0:0:0:
201,176,53060,1,0,0:0:0:0:
175,211,53149,1,8,0:0:0:0:
172,256,53235,1,0,0:0:0:0:
192,295,53325,1,8,1:0:0:0:
231,317,53411,1,0,0:0:0:0:
275,316,53499,1,8,0:0:0:0:
312,292,53586,1,0,0:0:0:0:
335,253,53674,6,0,L|346:208,3,45,8|0|8|0,1:0|0:0|0:0|0:0,0:0:0:0:
258,327,54025,2,0,L|269:282,3,45,8|0|8|0,1:0|0:0|0:0|0:0,0:0:0:0:
166,356,54375,6,0,L|176:312,3,45,8|0|8|0,1:0|0:0|0:0|0:0,0:0:0:0:
126,254,54726,2,0,L|136:210,3,45,8|0|8|0,1:0|0:0|0:0|0:0,0:0:0:0:
157,169,55078,5,12,1:0:0:0:
198,152,55163,1,0,0:0:0:0:
242,157,55252,1,8,0:0:0:0:
280,181,55338,1,0,0:0:0:0:
310,215,55429,1,8,1:0:0:0:
347,238,55514,1,0,0:0:0:0:
392,243,55603,1,8,0:0:0:0:
433,227,55689,1,0,0:0:0:0:
458,189,55779,5,12,1:0:0:0:
461,144,55864,1,0,0:0:0:0:
465,99,55953,1,8,0:0:0:0:
468,54,56039,1,0,0:0:0:0:
447,95,56130,1,8,1:0:0:0:
411,121,56215,1,0,0:0:0:0:
367,128,56304,1,8,0:0:0:0:
325,112,56390,1,0,0:0:0:0:
279,109,56481,5,12,1:0:0:0:
234,113,56566,1,0,0:0:0:0:
195,135,56655,1,8,0:0:0:0:
168,171,56741,1,0,0:0:0:0:
155,214,56831,1,8,1:0:0:0:
157,258,56916,1,0,0:0:0:0:
176,299,57005,1,8,0:0:0:0:
210,328,57091,1,0,0:0:0:0:
253,341,57181,5,12,1:0:0:0:
297,336,57267,1,0,0:0:0:0:
335,313,57355,1,8,0:0:0:0:
362,277,57442,1,0,0:0:0:0:
371,233,57531,1,8,1:0:0:0:
362,189,57617,1,0,0:0:0:0:
336,153,57706,1,8,0:0:0:0:
298,130,57793,1,0,0:0:0:0:
256,148,57882,5,12,1:0:0:0:
216,168,57968,1,0,0:0:0:0:
171,168,58057,1,8,0:0:0:0:
132,148,58143,1,0,0:0:0:0:
99,117,58232,1,8,1:0:0:0:
129,149,58318,1,0,0:0:0:0:
143,192,58407,1,8,0:0:0:0:
138,236,58493,1,0,0:0:0:0:
178,214,58583,5,8,1:0:0:0:
221,204,58669,1,0,0:0:0:0:
262,219,58758,1,8,0:0:0:0:
288,256,58844,1,0,0:0:0:0:
310,295,58934,1,8,1:0:0:0:
344,322,59020,1,0,0:0:0:0:
388,326,59109,1,8,0:0:0:0:
427,304,59195,1,0,0:0:0:0:
411,211,59283,6,0,L|424:156,2,45,0|0|8,0:0|0:0|0:0,0:0:0:0:
316,275,59546,2,0,L|303:329,2,45,8|0|8,0:0|0:0|0:0,0:0:0:0:
265,192,59809,1,8,0:0:0:0:
227,167,59896,1,0,0:0:0:0:
183,161,59984,1,8,0:0:0:0:
141,176,60072,1,8,0:0:0:0:
92,263,60160,2,0,L|174:248,1,45,8|8,0:0|0:0,0:0:0:0:
332,269,60335,2,0,L|274:282,1,45,4|4,0:0|0:0,0:0:0:0:
62,342,60510,2,0,L|134:331,1,45,4|4,0:0|0:0,0:0:0:0:
212,302,60685,5,4,0:0:0:0:
225,288,60772,1,0,0:0:0:0:
235,271,60860,1,0,0:0:0:0:
242,253,60947,1,0,0:0:0:0:
244,234,61035,1,0,0:0:0:0:
242,215,61123,1,0,0:0:0:0:
236,197,61210,1,0,0:0:0:0:
226,180,61298,1,0,0:0:0:0:
189,153,61387,6,0,L|246:144,1,45
378,93,61562,2,0,L|325:102,1,45
201,62,61737,2,0,L|257:54,1,45
404,48,61913,5,0,0:0:0:0:
396,92,62001,1,0,0:0:0:0:
388,136,62088,1,0,0:0:0:0:
114,127,62264,5,0,0:0:0:0:
124,170,62351,1,0,0:0:0:0:
132,214,62439,1,0,0:0:0:0:
323,190,62614,5,0,0:0:0:0:
312,233,62702,1,0,0:0:0:0:
299,275,62789,2,0,L|286:321,1,44.5499998640442,4|0,0:0|0:0,0:0:0:0:
272,320,63140,6,0,P|212:320|142:195,1,202.500007724762
226,152,63491,6,0,B|267:131|267:131|288:90,2,90.0000034332277,6|0|0,0:0|1:0|1:0,0:0:0:0:
48,230,63841,1,8,1:0:0:0:
115,64,63958,1,2,0:0:0:0:
219,239,64075,1,2,0:0:0:0:
35,173,64192,2,0,B|43:122|103:69,1,90.0000034332277,2|0,0:0|1:0,0:0:0:0:
150,35,64425,1,0,1:0:0:0:
133,218,64542,2,0,B|174:188|228:195,1,90.0000034332277,8|2,1:0|0:0,0:0:0:0:
321,211,64776,1,2,0:0:0:0:
415,164,64893,6,0,P|444:123|439:82,2,90.0000034332277,2|2|2,1:2|1:2|1:2,1:2:0:0:
228,273,65243,2,0,P|199:314|204:355,2,90.0000034332277,10|2|2,1:2|1:2|1:2,1:2:0:0:
364,308,65594,1,2,1:2:0:0:
309,203,65711,1,0,0:0:0:0:
193,190,65828,1,0,0:0:0:0:
88,137,65945,1,8,0:0:0:0:
193,190,66061,1,0,0:0:0:0:
277,109,66178,1,10,0:0:0:0:
366,228,66295,6,0,P|319:255|268:254,1,90.0000034332277,6|0,0:0|1:0,0:0:0:0:
162,228,66529,1,0,1:0:0:0:
112,117,66646,2,0,P|106:69|120:23,2,90.0000034332277,10|2|2,0:0|0:0|0:0,0:0:0:0:
83,271,66996,2,0,B|129:292|172:278|170:227|215:211|271:235,1,180.000006866455,2|0,0:0|1:0,0:0:0:0:
360,198,67347,1,10,0:0:0:0:
418,96,67464,1,2,0:0:0:0:
300,89,67581,1,2,0:0:0:0:
361,188,67697,5,10,1:2:0:0:
405,64,67814,1,2,1:2:0:0:
273,79,67931,1,2,1:2:0:0:
361,178,68047,1,10,1:2:0:0:
386,33,68165,1,2,1:2:0:0:
244,76,68282,1,2,1:2:0:0:
358,168,68399,6,0,B|325:212|325:212|285:232|226:233|176:203,1,180.000006866455,10|0,1:2|1:0,0:0:0:0:
59,310,68749,2,0,P|111:293|171:303,1,90.0000034332277,10|0,0:0|1:0,0:0:0:0:
251,331,68983,1,10,0:0:0:0:
379,317,69100,6,0,L|410:213,1,90.0000034332277,6|0,0:0|1:0,0:0:0:0:
439,118,69333,1,0,1:0:0:0:
250,50,69450,2,0,L|275:140,1,90.0000034332277,8|2,1:0|0:0,0:0:0:0:
310,249,69684,1,2,0:0:0:0:
176,226,69801,2,0,P|129:219|81:250,2,90.0000034332277,2|0|0,0:0|1:0|1:0,0:0:0:0:
160,334,70151,2,0,P|207:341|255:310,2,90.0000034332277,10|2|2,0:0|0:0|0:0,0:0:0:0:
70,229,70502,5,2,1:2:0:0:
226,76,70619,1,2,1:2:0:0:
165,299,70736,1,2,1:2:0:0:
81,92,70853,1,10,1:2:0:0:
263,209,70969,1,2,1:2:0:0:
70,229,71086,1,2,1:2:0:0:
223,131,71203,6,0,B|271:111|271:111|306:123|331:141|345:167|349:199|347:227,1,180.000006866455,2|0,1:2|1:0,0:0:0:0:
292,275,71554,1,8,1:0:0:0:
203,290,71671,1,0,1:0:0:0:
115,307,71787,1,10,0:0:0:0:
31,235,71904,6,0,P|82:225|171:126,1,180.000006866455,6|0,0:0|1:0,0:0:0:0:
294,96,72255,1,10,0:0:0:0:
397,180,72372,1,2,0:0:0:0:
266,217,72489,1,2,0:0:0:0:
470,120,72605,2,0,P|488:177|401:267,1,180.000006866455,2|0,0:0|1:0,0:0:0:0:
313,182,72956,2,0,P|268:174|220:186,1,90.0000034332277,10|2,0:0|0:0,0:0:0:0:
119,220,73190,1,2,0:0:0:0:
224,322,73307,5,8,0:0:0:0:
268,194,73423,1,8,0:0:0:0:
317,68,73540,1,8,0:0:0:0:
386,224,73657,5,8,0:0:0:0:
258,180,73774,1,8,0:0:0:0:
132,131,73891,1,8,0:0:0:0:
225,280,74008,6,0,L|290:113,1,180.000006866455,8|0,0:1|0:0,0:0:0:0:
144,221,74358,1,0,0:0:0:0:
368,163,74475,1,0,0:0:0:0:
144,101,74592,1,0,0:0:0:0:
307,276,74709,1,0,0:0:0:0:
249,52,74826,1,0,0:0:0:0:
187,276,74943,1,0,0:0:0:0:
372,117,75059,5,8,0:0:0:0:
106,159,75176,1,8,0:0:0:0:
372,218,75293,1,8,0:0:0:0:
106,159,75410,1,8,0:0:0:0:
105,161,75761,5,0,0:0:0:0:
109,183,75848,1,0,0:0:0:0:
113,205,75936,1,0,0:0:0:0:
118,227,76023,1,0,0:0:0:0:
129,294,76111,5,8,1:3:0:0:
396,329,76462,1,8,1:3:0:0:
286,82,76812,1,8,1:3:0:0:
184,159,77163,2,0,L|206:237,1,67.5000025749208
330,327,77338,2,0,L|308:262,1,67.5000025749208
225,195,77513,5,8,1:0:0:0:
193,164,77601,1,0,0:0:0:0:
185,120,77689,1,0,0:0:0:0:
205,81,77776,1,0,0:0:0:0:
239,51,77864,1,8,1:0:0:0:
264,87,77952,1,0,0:0:0:0:
268,131,78039,1,0,0:0:0:0:
249,172,78127,1,0,0:0:0:0:
215,202,78215,5,8,1:0:0:0:
171,193,78302,1,0,0:0:0:0:
130,210,78390,1,0,0:0:0:0:
106,247,78477,1,0,0:0:0:0:
107,291,78565,1,8,1:0:0:0:
133,327,78653,1,0,0:0:0:0:
175,342,78740,1,0,0:0:0:0:
218,331,78828,1,0,0:0:0:0:
256,307,78916,5,8,1:3:0:0:
362,161,79266,1,8,1:3:0:0:
192,101,79617,1,8,1:3:0:0:
76,282,79967,2,0,L|159:262,1,67.5000025749208
245,181,80143,2,0,L|168:199,1,67.5000025749208
130,285,80318,5,8,1:0:0:0:
162,315,80406,1,0,0:0:0:0:
203,333,80493,1,0,0:0:0:0:
248,334,80581,1,0,0:0:0:0:
290,319,80669,1,8,1:0:0:0:
324,290,80756,1,0,0:0:0:0:
346,251,80844,1,0,0:0:0:0:
352,207,80931,1,0,0:0:0:0:
328,165,81019,6,0,P|237:181|202:157,1,135,8|0,1:0|0:0,0:0:0:0:
174,127,81370,1,8,1:0:0:0:
170,141,81457,1,0,1:0:0:0:
166,156,81545,1,0,1:0:0:0:
163,170,81633,1,0,1:0:0:0:
115,219,81720,6,0,B|215:264|215:264|307:228,1,202.500007724762,8|0,1:3|0:0,0:0:0:0:
458,55,82071,2,0,P|437:119|300:113,1,202.500007724762,8|0,1:3|0:0,0:0:0:0:
196,49,82421,2,0,L|205:92,1,33.75,8|0,1:3|0:0,0:0:0:0:
161,257,82772,2,0,B|151:225|151:225|155:189,1,67.5000025749208,8|0,1:0|0:0,0:0:0:0:
285,178,82947,2,0,B|295:210|295:210|291:246,1,67.5000025749208,8|0,1:0|0:0,0:0:0:0:
164,340,83122,6,0,B|133:330|133:330|103:308|103:308|81:271|81:271|77:231|77:231|57:290,1,202.500007724762,8|0,1:3|0:0,0:0:0:0:
219,241,83473,2,0,B|288:250|288:250|352:219|352:219|413:232,1,202.500007724762,8|0,1:3|0:0,0:0:0:0:
374,342,83824,2,0,L|363:305,1,33.75,8|0,1:3|0:0,0:0:0:0:
396,197,84174,2,0,P|395:158|369:124,1,67.5000025749208
271,100,84349,2,0,P|272:139|298:173,1,67.5000025749208
241,351,84525,6,0,L|241:301,1,45,2|0,0:0|3:0,0:0:0:0:
177,87,84700,2,0,L|178:138,1,45,2|0,0:0|3:0,0:0:0:0:
259,346,84875,2,0,L|259:296,1,45,2|0,0:0|3:0,0:0:0:0:
195,82,85051,2,0,L|196:133,1,45,2|0,0:0|3:0,0:0:0:0:
279,342,85226,2,0,L|279:292,1,45,2|0,0:0|3:0,0:0:0:0:
215,78,85401,2,0,L|216:129,1,45,2|0,0:0|3:0,0:0:0:0:
303,335,85576,1,8,1:3:0:0:
236,76,85752,1,8,1:3:0:0:
406,244,85927,5,8,1:2:0:0:
412,236,86015,1,0,0:0:0:0:
418,228,86102,1,0,0:0:0:0:
423,219,86190,1,0,0:0:0:0:
427,209,86278,1,0,0:0:0:0:
429,199,86365,1,0,0:0:0:0:
431,189,86453,1,8,0:1:0:0:
431,179,86541,1,0,0:0:0:0:
430,169,86628,5,0,0:0:0:0:
428,159,86716,1,0,0:0:0:0:
425,149,86803,1,0,0:0:0:0:
421,140,86891,1,0,0:0:0:0:
416,131,86979,1,8,0:1:0:0:
410,123,87066,1,0,0:0:0:0:
403,116,87154,1,0,0:0:0:0:
395,110,87242,1,0,0:0:0:0:
387,104,87329,5,8,0:1:0:0:
378,99,87417,1,0,0:0:0:0:
368,96,87505,1,0,0:0:0:0:
358,94,87592,1,0,0:0:0:0:
348,92,87680,1,0,0:0:0:0:
338,92,87768,1,0,0:0:0:0:
328,93,87855,1,8,0:1:0:0:
318,96,87943,1,8,0:1:0:0:
308,99,88030,5,8,0:1:0:0:
299,103,88118,1,0,0:0:0:0:
291,109,88206,1,0,0:0:0:0:
283,115,88293,1,8,0:1:0:0:
276,122,88381,1,0,0:0:0:0:
269,130,88469,1,0,0:0:0:0:
264,139,88556,1,8,0:1:0:0:
260,148,88644,1,0,0:0:0:0:
260,193,88732,5,12,1:2:0:0:
234,229,88819,1,0,0:0:0:0:
196,253,88907,1,8,0:0:0:0:
152,258,88995,1,0,0:0:0:0:
107,250,89082,1,8,1:0:0:0:
124,208,89170,1,0,0:0:0:0:
157,179,89257,1,8,0:0:0:0:
200,166,89345,1,0,0:0:0:0:
245,166,89433,5,8,1:0:0:0:
289,171,89520,1,0,0:0:0:0:
331,158,89608,1,8,0:0:0:0:
364,127,89696,1,0,0:0:0:0:
382,85,89783,1,8,1:1:0:0:
387,129,89871,1,0,0:0:0:0:
392,174,89959,1,8,0:0:0:0:
398,219,90046,1,0,0:0:0:0:
378,259,90134,6,0,L|387:304,3,45,8|0|8|0,1:0|0:0|0:0|0:0,0:0:0:0:
301,300,90484,2,0,L|288:343,3,45,8|0|8|0,1:0|0:0|0:0|0:0,0:0:0:0:
212,291,90835,6,0,L|163:317,3,45,8|0|8|0,1:0|0:0|0:0|0:0,0:0:0:0:
142,234,91186,2,0,L|100:219,3,45,8|0|8|0,1:0|0:0|0:0|0:0,0:0:0:0:
84,176,91536,5,12,1:2:0:0:
84,131,91624,1,0,0:0:0:0:
105,91,91711,1,8,0:0:0:0:
141,65,91799,1,0,0:0:0:0:
187,59,91887,1,8,1:1:0:0:
203,100,91974,1,0,0:0:0:0:
204,145,92062,1,8,0:0:0:0:
187,186,92150,1,0,0:0:0:0:
166,226,92237,5,8,1:0:0:0:
152,268,92325,1,0,0:0:0:0:
161,312,92413,1,8,0:0:0:0:
190,346,92500,1,0,0:0:0:0:
229,323,92588,1,8,1:1:0:0:
269,304,92676,1,0,0:0:0:0:
314,300,92763,1,8,0:0:0:0:
357,312,92851,1,0,0:0:0:0:
401,316,92938,6,0,L|461:331,3,45,8|0|8|0,1:0|0:0|0:0|0:0,0:0:0:0:
383,230,93288,2,0,L|446:230,3,45,8|0|8|0,1:0|0:0|0:0|0:0,0:0:0:0:
323,156,93639,2,0,L|380:143,3,45,8|0|8|0,1:0|0:0|0:0|0:0,0:0:0:0:
248,97,93990,2,0,L|313:63,3,45,8|0|8|0,1:0|0:0|0:0|0:0,0:0:0:0:
134,100,94340,5,12,1:2:0:0:
93,117,94427,1,0,0:0:0:0:
71,155,94515,1,8,0:0:0:0:
76,199,94602,1,0,0:0:0:0:
106,231,94690,1,8,1:0:0:0:
149,239,94778,1,0,0:0:0:0:
189,220,94865,1,8,0:0:0:0:
209,180,94953,1,0,0:0:0:0:
212,135,95041,5,12,1:2:0:0:
253,117,95128,1,0,0:0:0:0:
295,100,95216,1,8,0:0:0:0:
336,83,95303,1,0,0:0:0:0:
379,68,95392,1,8,1:0:0:0:
371,112,95479,1,0,0:0:0:0:
364,156,95567,1,8,0:0:0:0:
357,201,95654,1,0,0:0:0:0:
313,212,95742,5,12,1:2:0:0:
270,226,95829,1,0,0:0:0:0:
238,257,95917,1,8,0:0:0:0:
222,299,96004,1,0,0:0:0:0:
212,344,96093,1,8,1:0:0:0:
167,335,96180,1,0,0:0:0:0:
129,313,96268,1,8,0:0:0:0:
101,278,96355,1,0,0:0:0:0:
87,235,96443,5,12,1:2:0:0:
89,190,96531,1,0,0:0:0:0:
106,149,96618,1,8,0:0:0:0:
136,116,96706,1,0,0:0:0:0:
177,97,96794,1,8,1:0:0:0:
221,92,96881,1,0,0:0:0:0:
264,103,96969,1,8,0:0:0:0:
301,129,97057,1,0,0:0:0:0:
336,157,97145,5,12,1:2:0:0:
378,168,97232,1,0,0:0:0:0:
417,148,97320,1,8,0:0:0:0:
434,108,97407,1,0,0:0:0:0:
420,66,97495,1,8,1:0:0:0:
381,45,97583,1,0,0:0:0:0:
338,54,97670,1,8,0:0:0:0:
312,90,97758,1,0,0:0:0:0:
317,135,97846,5,8,1:0:0:0:
333,176,97933,1,0,0:0:0:0:
335,221,98021,1,8,0:0:0:0:
322,263,98108,1,0,0:0:0:0:
295,299,98196,1,8,1:0:0:0:
257,323,98284,1,0,0:0:0:0:
214,334,98371,1,8,0:0:0:0:
169,328,98459,1,0,0:0:0:0:
108,298,98548,5,8,1:3:0:0:
66,245,98635,1,8,0:0:0:0:
57,179,98723,1,8,0:1:0:0:
83,118,98810,1,8,0:1:0:0:
136,78,98898,1,8,1:3:0:0:
202,70,98986,1,8,0:0:0:0:
263,97,99073,1,8,0:1:0:0:
302,152,99161,1,8,0:1:0:0:
262,206,99249,5,8,1:3:0:0:
251,271,99336,1,8,0:3:0:0:
281,330,99424,1,8,0:1:0:0:
340,360,99512,1,8,0:1:0:0:
406,349,99599,1,8,1:3:0:0:
452,301,99687,1,8,1:3:0:0:
461,236,99775,1,8,1:3:0:0:
430,177,99862,1,8,1:3:0:0:
400,143,99950,5,12,1:2:0:0:
355,149,100037,1,0,0:0:0:0:
311,140,100125,1,8,0:0:0:0:
273,117,100213,1,0,0:0:0:0:
249,79,100300,1,8,1:0:0:0:
204,74,100388,1,0,0:0:0:0:
161,87,100476,1,8,0:0:0:0:
127,116,100563,1,0,0:0:0:0:
102,153,100651,5,8,1:0:0:0:
94,197,100739,1,0,0:0:0:0:
100,241,100826,1,8,0:0:0:0:
123,279,100914,1,0,0:0:0:0:
159,305,101002,1,8,1:0:0:0:
200,321,101089,1,0,0:0:0:0:
245,320,101177,1,8,0:0:0:0:
286,303,101264,1,0,0:0:0:0:
319,262,101352,5,8,1:0:0:0:
363,253,101440,1,0,0:0:0:0:
407,245,101527,1,8,0:0:0:0:
451,237,101615,1,0,0:0:0:0:
406,231,101703,1,8,1:0:0:0:
361,222,101790,1,0,0:0:0:0:
317,213,101878,1,8,0:0:0:0:
273,205,101966,1,0,0:0:0:0:
316,191,102053,5,8,1:0:0:0:
360,182,102141,1,0,0:0:0:0:
404,174,102229,1,8,0:0:0:0:
448,166,102316,1,0,0:0:0:0:
404,154,102404,1,8,1:0:0:0:
359,144,102491,1,0,0:0:0:0:
315,135,102579,1,8,0:0:0:0:
271,126,102667,1,0,0:0:0:0:
310,104,102754,5,12,1:2:0:0:
351,88,102842,1,0,0:0:0:0:
396,94,102930,1,8,0:0:0:0:
432,119,103017,1,0,0:0:0:0:
453,158,103105,1,8,1:0:0:0:
454,203,103193,1,0,0:0:0:0:
434,243,103280,1,8,0:0:0:0:
398,269,103368,1,0,0:0:0:0:
355,257,103456,5,8,1:0:0:0:
311,248,103543,1,0,0:0:0:0:
267,257,103631,1,8,0:0:0:0:
230,283,103718,1,0,0:0:0:0:
198,315,103806,1,8,1:0:0:0:
160,337,103894,1,0,0:0:0:0:
115,335,103981,1,8,0:0:0:0:
80,308,104069,1,0,0:0:0:0:
62,266,104158,5,8,1:0:0:0:
67,267,104243,1,0,0:0:0:0:
73,269,104333,1,8,0:0:0:0:
79,271,104418,1,0,0:0:0:0:
84,273,104508,1,8,1:0:0:0:
90,275,104594,1,0,0:0:0:0:
96,277,104683,1,8,0:0:0:0:
101,278,104769,1,0,0:0:0:0:
107,280,104858,5,8,1:0:0:0:
113,282,104944,1,0,0:0:0:0:
119,284,105033,1,8,0:0:0:0:
124,286,105120,1,0,0:0:0:0:
130,288,105208,1,8,1:0:0:0:
136,290,105295,1,0,0:0:0:0:
141,291,105383,1,8,0:0:0:0:
147,293,105470,1,0,0:0:0:0:
189,310,105559,5,12,1:2:0:0:
233,319,105645,1,0,0:0:0:0:
277,328,105734,1,8,0:0:0:0:
321,337,105820,1,0,0:0:0:0:
366,346,105910,1,8,1:0:0:0:
387,307,105996,1,0,0:0:0:0:
387,262,106085,1,8,0:0:0:0:
365,223,106171,1,0,0:0:0:0:
328,197,106261,5,12,1:2:0:0:
297,165,106347,1,0,0:0:0:0:
298,121,106436,1,8,0:0:0:0:
329,90,106522,1,0,0:0:0:0:
373,90,106611,1,8,1:0:0:0:
404,121,106698,1,0,0:0:0:0:
405,164,106786,1,8,0:0:0:0:
375,196,106873,1,0,0:0:0:0:
334,215,106962,5,12,1:2:0:0:
291,228,107048,1,0,0:0:0:0:
248,218,107137,1,8,0:0:0:0:
216,187,107223,1,0,0:0:0:0:
196,147,107312,1,8,1:0:0:0:
161,118,107398,1,0,0:0:0:0:
117,110,107487,1,8,0:0:0:0:
75,124,107573,1,0,0:0:0:0:
117,142,107663,5,12,1:2:0:0:
159,156,107749,1,0,0:0:0:0:
202,148,107838,1,8,0:0:0:0:
236,118,107924,1,0,0:0:0:0:
270,89,108013,1,8,1:0:0:0:
310,70,108099,1,0,0:0:0:0:
355,67,108188,1,8,0:0:0:0:
398,79,108274,1,0,0:0:0:0:
435,105,108363,5,12,1:2:0:0:
461,141,108450,1,0,0:0:0:0:
473,184,108537,1,8,0:0:0:0:
470,229,108625,1,0,0:0:0:0:
451,270,108713,1,8,1:0:0:0:
421,302,108800,1,0,0:0:0:0:
381,322,108888,1,8,0:0:0:0:
336,328,108976,1,0,0:0:0:0:
291,326,109064,5,8,1:0:0:0:
313,287,109151,1,0,0:0:0:0:
306,244,109239,1,8,0:0:0:0:
273,215,109326,1,0,0:0:0:0:
229,202,109415,1,8,1:0:0:0:
189,183,109502,1,0,0:0:0:0:
169,143,109590,1,8,0:0:0:0:
177,100,109677,1,0,0:0:0:0:
283,125,109766,6,0,L|346:100,1,67.5000025749208,8|0,1:3|0:0,0:0:0:0:
439,216,109941,2,0,L|365:241,1,67.5000025749208,8|0,1:3|0:0,0:0:0:0:
197,247,110116,2,0,L|265:220,1,67.5000025749208,8|0,1:3|0:0,0:0:0:0:
177,117,110292,2,0,L|109:141,1,67.5000025749208,8|0,1:3|0:0,0:0:0:0:
30,222,110467,5,8,1:3:0:0:
60,235,110555,1,8,0:3:0:0:
93,242,110642,1,8,0:3:0:0:
127,242,110730,1,8,0:3:0:0:
160,236,110818,1,8,0:3:0:0:
160,236,110993,1,8,1:3:0:0:
226,250,111080,1,8,1:3:0:0:
292,269,111168,1,8,1:3:0:0:
214,255,113622,6,0,L|157:235,1,45,8|0,1:3|0:0,0:0:0:0:
131,221,113972,5,8,1:0:0:0:
95,194,114059,1,0,0:0:0:0:
85,151,114147,1,8,0:0:0:0:
106,112,114234,1,0,0:0:0:0:
147,96,114322,1,8,1:0:0:0:
189,110,114410,1,0,0:0:0:0:
211,148,114497,1,8,0:0:0:0:
203,191,114585,1,0,0:0:0:0:
178,229,114673,5,8,1:0:0:0:
148,261,114760,1,0,0:0:0:0:
137,305,114848,1,8,0:0:0:0:
148,348,114935,1,0,0:0:0:0:
190,330,115024,1,8,1:0:0:0:
230,308,115111,1,0,0:0:0:0:
269,286,115199,1,8,0:0:0:0:
308,264,115286,1,0,0:0:0:0:
347,241,115374,5,8,1:0:0:0:
385,218,115461,1,0,0:0:0:0:
428,227,115549,1,8,0:0:0:0:
455,261,115636,1,0,0:0:0:0:
453,305,115724,1,8,1:0:0:0:
422,337,115812,1,0,0:0:0:0:
378,341,115899,1,8,0:0:0:0:
343,315,115987,1,0,0:0:0:0:
322,274,116075,5,8,1:0:0:0:
304,233,116162,1,0,0:0:0:0:
306,188,116250,1,8,0:0:0:0:
327,149,116337,1,0,0:0:0:0:
358,115,116426,1,8,1:0:0:0:
319,137,116513,1,0,0:0:0:0:
275,139,116601,1,8,0:0:0:0:
234,120,116688,1,0,0:0:0:0:
194,99,116777,5,8,1:0:0:0:
154,78,116864,1,0,0:0:0:0:
110,82,116952,1,8,0:0:0:0:
75,110,117039,1,0,0:0:0:0:
61,151,117127,1,8,1:0:0:0:
71,195,117215,1,0,0:0:0:0:
104,225,117302,1,8,0:0:0:0:
147,233,117390,1,0,0:0:0:0:
192,229,117478,5,8,1:0:0:0:
234,213,117565,1,0,0:0:0:0:
266,183,117653,1,8,0:0:0:0:
285,142,117740,1,0,0:0:0:0:
297,99,117828,1,8,1:0:0:0:
317,59,117915,1,0,0:0:0:0:
355,35,118003,1,8,0:0:0:0:
399,32,118090,1,0,0:0:0:0:
441,49,118179,5,8,1:0:0:0:
429,92,118266,1,0,0:0:0:0:
417,135,118354,1,8,0:0:0:0:
405,179,118441,1,0,0:0:0:0:
364,198,118529,1,8,1:0:0:0:
364,242,118616,1,0,0:0:0:0:
364,287,118704,1,8,0:0:0:0:
364,332,118791,1,0,0:0:0:0:
252,302,118881,6,0,L|138:287,1,90,8|8,0:0|0:0,0:0:0:0:
61,110,119231,2,0,L|166:121,1,90,8|8,0:0|0:0,0:0:0:0:
344,84,119582,5,8,0:1:0:0:
386,96,119669,1,0,0:0:0:0:
422,124,119757,1,8,0:0:0:0:
443,163,119845,1,0,0:0:0:0:
448,207,119932,1,8,0:1:0:0:
436,250,120020,1,0,0:0:0:0:
408,285,120108,1,8,0:0:0:0:
369,306,120195,1,0,0:0:0:0:
324,311,120283,5,8,0:1:0:0:
279,308,120371,1,0,0:0:0:0:
240,287,120458,1,8,0:0:0:0:
213,251,120546,1,0,0:0:0:0:
198,209,120633,1,8,0:1:0:0:
172,172,120721,1,0,0:0:0:0:
130,157,120809,1,8,0:0:0:0:
87,168,120896,1,0,0:0:0:0:
50,194,120984,5,8,0:1:0:0:
61,237,121072,1,0,0:0:0:0:
85,275,121159,1,8,0:0:0:0:
119,304,121247,1,0,0:0:0:0:
161,321,121335,1,8,0:1:0:0:
205,324,121422,1,0,0:0:0:0:
249,314,121510,1,8,0:0:0:0:
288,291,121598,1,0,0:0:0:0:
325,265,121685,5,8,0:1:0:0:
359,237,121773,1,0,0:0:0:0:
404,236,121860,1,8,0:0:0:0:
440,261,121948,1,0,0:0:0:0:
466,298,122036,1,8,0:1:0:0:
429,322,122123,1,0,0:0:0:0:
384,324,122211,1,8,0:0:0:0:
346,302,122299,1,0,0:0:0:0:
314,271,122386,5,8,0:1:0:0:
293,231,122474,1,0,0:0:0:0:
285,187,122562,1,8,0:0:0:0:
291,142,122649,1,0,0:0:0:0:
311,102,122737,1,8,0:1:0:0:
343,70,122825,1,0,0:0:0:0:
382,50,122912,1,8,0:0:0:0:
427,42,123000,1,0,0:0:0:0:
470,51,123087,5,8,0:1:0:0:
443,86,123174,1,0,0:0:0:0:
404,108,123262,1,8,0:0:0:0:
359,112,123349,1,0,0:0:0:0:
320,89,123437,1,8,0:1:0:0:
280,68,123524,1,0,0:0:0:0:
235,62,123612,1,8,0:0:0:0:
192,71,123699,1,0,0:0:0:0:
156,92,123789,5,8,0:1:0:0:
157,104,123876,1,0,0:0:0:0:
159,117,123964,1,8,0:0:0:0:
160,130,124052,1,0,0:0:0:0:
162,142,124139,1,8,0:1:0:0:
164,155,124227,1,0,0:0:0:0:
165,168,124314,1,8,0:0:0:0:
167,181,124402,1,0,0:0:0:0:
170,194,124490,6,0,L|177:243,1,45,8|0,0:0|0:0,0:0:0:0:
170,252,124840,5,8,0:0:0:0:
236,239,124928,1,8,0:0:0:0:
302,227,125016,1,0,0:0:0:0:
369,215,125103,1,0,0:0:0:0:
435,202,125191,5,8,0:1:0:0:
390,197,125279,1,0,0:0:0:0:
350,215,125366,1,8,0:0:0:0:
323,251,125454,1,0,0:0:0:0:
306,293,125541,1,8,0:1:0:0:
280,329,125629,1,0,0:0:0:0:
240,348,125717,1,8,0:0:0:0:
195,344,125804,1,0,0:0:0:0:
150,348,125892,5,8,0:1:0:0:
189,327,125980,1,0,0:0:0:0:
217,292,126067,1,8,0:0:0:0:
226,249,126155,1,0,0:0:0:0:
216,205,126243,1,8,0:1:0:0:
188,170,126330,1,0,0:0:0:0:
148,151,126418,5,8,0:0:0:0:
215,141,126505,1,8,0:0:0:0:
282,131,126593,1,8,0:0:0:0:
421,279,126768,1,8,0:0:0:0:
354,289,126856,1,8,0:0:0:0:
287,300,126944,1,8,0:0:0:0:
298,106,127119,1,8,0:0:0:0:
270,319,127294,1,8,0:0:0:0:
270,319,127645,5,8,0:1:0:0:
77,182,127995,5,8,0:1:0:0:
121,186,128083,1,0,0:0:0:0:
161,168,128171,1,8,0:0:0:0:
188,132,128258,1,0,0:0:0:0:
206,91,128346,1,8,0:1:0:0:
231,54,128434,1,0,0:0:0:0:
271,35,128521,1,8,0:0:0:0:
316,39,128609,1,0,0:0:0:0:
362,36,128697,5,8,0:1:0:0:
322,56,128784,1,0,0:0:0:0:
294,91,128872,1,8,0:0:0:0:
285,134,128959,1,0,0:0:0:0:
295,178,129047,1,8,0:1:0:0:
323,213,129135,1,0,0:0:0:0:
363,232,129222,5,8,0:0:0:0:
297,243,129310,1,8,0:0:0:0:
230,253,129398,1,8,0:0:0:0:
91,105,129573,1,8,0:0:0:0:
157,94,129661,1,8,0:0:0:0:
224,83,129748,1,8,0:0:0:0:
214,278,129924,1,8,0:0:0:0:
242,65,130099,1,8,0:0:0:0:
242,65,130625,5,8,0:1:0:0:
242,65,130712,1,8,0:1:0:0:
242,65,130800,6,0,P|249:142|277:185,1,90,8|0,0:1|0:0,0:0:0:0:
300,216,130975,2,0,P|363:171|386:125,1,90,8|0,0:0|0:0,0:0:0:0:
405,99,131151,2,0,P|334:66|283:69,1,90,8|0,0:1|0:0,0:0:0:0:
123,138,131326,1,8,0:0:0:0:
123,138,131413,1,8,0:1:0:0:
123,138,131501,6,0,L|216:118,1,90,0|0,0:1|0:0,0:0:0:0:
339,182,131676,2,0,L|241:203,1,90,8|0,0:0|0:0,0:0:0:0:
340,92,131852,2,0,L|440:70,1,90,8|0,0:1|0:0,0:1:0:0:
386,227,132027,1,8,0:0:0:0:
386,227,132115,1,8,0:1:0:0:
386,227,132202,6,0,P|352:194|305:178,1,90,8|0,0:1|0:0,0:0:0:0:
159,287,132378,2,0,P|204:273|242:240,1,90,8|0,0:0|0:0,0:0:0:0:
221,60,132553,2,0,P|210:106|220:155,1,90,8|0,0:1|0:0,0:0:0:0:
192,290,132728,1,8,0:0:0:0:
192,290,132816,1,8,0:1:0:0:
192,290,132903,6,0,P|194:242|175:201,1,90,8|0,0:1|0:0,0:0:0:0:
248,80,133079,2,0,P|242:124|261:174,1,90,8|0,0:0|0:0,0:0:0:0:
309,239,133254,1,8,0:0:0:0:
266,318,133342,1,8,0:0:0:0:
177,331,133429,1,8,0:0:0:0:
106,274,133517,1,8,0:0:0:0:
113,183,133605,6,0,P|164:144|260:162,1,167.400004086914,4|0,0:0|0:0,0:0:0:0:
324,218,136409,6,0,P|363:232|403:229,2,60,6|0|0,0:0|0:0|0:0,0:0:0:0:
168,109,137110,1,2,0:0:0:0:
206,304,137343,1,2,0:0:0:0:
276,115,137577,1,2,0:0:0:0:
70,238,137811,2,0,L|80:305,1,60,2|0,0:0|0:0,0:0:0:0:
166,200,138278,2,0,L|155:135,1,60,0|2,0:0|0:0,0:0:0:0:
256,42,138746,1,2,0:0:0:0:
41,127,138979,1,2,0:0:0:0:
232,162,139213,6,0,L|303:169,2,60,2|0|0,0:0|0:0|0:0,0:0:0:0:
92,208,139914,2,0,L|26:202,2,60,2|2|2,0:0|0:0|0:0,0:0:0:0:
321,250,140615,1,2,0:0:0:0:
208,318,140849,1,2,0:0:0:0:
295,180,141083,2,0,P|334:178|375:306,1,180,2|0,0:0|0:0,0:0:0:0:
302,342,142018,6,0,P|265:348|235:344,2,60,6|0|0,0:0|0:0|0:0,0:0:0:0:
394,296,142719,1,0,0:0:0:0:
190,150,142952,1,2,0:0:0:0:
391,201,143186,1,2,0:0:0:0:
190,270,143420,2,0,P|148:275|119:271,2,60,2|0|0,0:0|0:0|0:0,0:0:0:0:
328,101,144121,1,2,0:0:0:0:
257,293,144355,1,2,0:0:0:0:
172,102,144588,1,2,0:0:0:0:
306,179,144822,5,2,0:0:0:0:
272,294,145056,1,0,0:0:0:0:
183,209,145290,1,2,0:0:0:0:
351,203,145523,1,2,0:0:0:0:
244,348,145757,1,0,0:0:0:0:
162,182,145991,1,2,0:0:0:0:
373,168,146224,2,0,P|365:200|350:229,1,60,2|2,0:0|0:0,0:0:0:0:
252,292,146692,2,0,P|226:270|130:263,1,120,2|0,0:0|0:0,0:0:0:0:
57,281,147393,1,0,0:0:0:0:
164,182,147627,6,0,P|172:144|165:107,1,60,6|0,0:0|0:0,0:0:0:0:
250,249,148094,2,0,P|254:282|269:312,1,60,0|2,0:0|0:0,0:0:0:0:
461,276,148562,1,2,0:0:0:0:
427,197,148795,1,2,0:0:0:0:
333,152,149029,2,0,L|267:152,1,60,2|0,0:0|0:0,0:0:0:0:
190,152,149496,1,0,0:0:0:0:
92,266,149730,2,0,P|91:304|101:342,2,60,2|2|2,0:0|0:0|0:0,0:0:0:0:
198,178,150431,6,0,P|230:173|259:156,2,60,2|0|0,0:0|0:0|0:0,0:0:0:0:
106,89,151132,2,0,P|73:89|39:102,2,60,2|2|2,0:0|0:0|0:0,0:0:0:0:
315,142,151834,1,2,0:0:0:0:
136,239,152067,1,2,0:0:0:0:
221,322,152301,2,0,P|248:277|221:156,1,180,2|0,0:0|0:0,0:0:0:0:
83,66,153236,5,6,0:0:0:0:
145,165,153470,1,0,0:0:0:0:
270,190,153703,1,0,0:0:0:0:
270,190,153937,1,0,0:0:0:0:
266,77,154171,1,2,0:0:0:0:
165,262,154404,1,2,0:0:0:0:
360,264,154638,2,0,P|334:239|296:226,1,60,2|0,0:0|0:0,0:0:0:0:
210,196,155106,1,0,0:0:0:0:
105,211,155339,2,0,P|75:215|45:210,2,60,2|2|2,0:0|0:0|0:0,0:0:0:0:
308,102,156040,5,2,0:0:0:0:
307,282,156274,1,2,0:0:0:0:
152,191,156508,1,2,0:0:0:0:
306,132,156742,1,2,0:0:0:0:
282,265,156975,1,2,0:0:0:0:
179,178,157209,1,2,0:0:0:0:
256,192,157443,5,4,0:0:0:0:
109,301,158845,5,8,0:1:0:0:
85,262,158932,1,0,0:0:0:0:
76,219,159020,1,0,0:0:0:0:
82,174,159107,1,0,0:0:0:0:
103,135,159195,1,0,0:0:0:0:
136,105,159283,1,0,0:0:0:0:
178,88,159370,1,8,0:1:0:0:
222,86,159458,1,8,0:1:0:0:
267,88,159546,5,8,0:1:0:0:
261,132,159633,1,0,0:0:0:0:
239,171,159721,1,0,0:0:0:0:
204,198,159809,1,8,0:1:0:0:
168,226,159896,1,8,0:1:0:0:
163,270,159984,1,0,0:0:0:0:
176,313,160071,1,8,0:1:0:0:
205,347,160159,1,0,0:0:0:0:
272,360,160247,5,12,1:2:0:0:
338,355,160334,1,0,0:0:0:0:
396,320,160422,1,8,0:0:0:0:
431,264,160510,1,0,0:0:0:0:
458,200,160597,1,8,1:0:0:0:
392,185,160685,1,0,0:0:0:0:
326,198,160773,1,8,0:0:0:0:
270,235,160860,1,0,0:0:0:0:
215,275,160948,5,8,1:0:0:0:
149,286,161036,1,0,0:0:0:0:
87,262,161123,1,8,0:0:0:0:
48,208,161211,1,0,0:0:0:0:
43,142,161298,1,8,1:0:0:0:
75,83,161386,1,0,0:0:0:0:
133,50,161474,1,8,0:0:0:0:
199,53,161561,1,0,0:0:0:0:
259,86,161649,6,0,L|328:75,3,67.5000025749208,8|0|8|0,1:0|0:0|0:0|0:0,0:0:0:0:
369,128,162000,2,0,L|439:155,3,67.5000025749208,8|0|8|0,1:0|0:0|0:0|0:0,0:0:0:0:
295,161,162350,6,0,L|229:179,3,67.5000025749208,8|0|8|0,1:0|0:0|0:0|0:0,0:0:0:0:
202,241,162701,2,0,L|143:286,3,67.5000025749208,8|0|8|0,1:0|0:0|0:0|0:0,0:0:0:0:
80,283,163051,5,12,1:2:0:0:
137,316,163139,1,0,0:0:0:0:
202,306,163227,1,8,0:0:0:0:
246,256,163314,1,0,0:0:0:0:
279,196,163402,1,8,1:0:0:0:
312,138,163490,1,0,0:0:0:0:
372,110,163577,1,8,0:0:0:0:
437,123,163665,1,0,0:0:0:0:
490,166,163752,5,8,1:0:0:0:
424,169,163840,1,0,0:0:0:0:
380,218,163928,1,8,0:0:0:0:
383,283,164015,1,0,0:0:0:0:
414,345,164103,1,8,1:0:0:0:
347,349,164191,1,0,0:0:0:0:
284,326,164278,1,8,0:0:0:0:
236,279,164366,1,0,0:0:0:0:
204,218,164454,6,0,P|179:192|142:176,3,67.5000025749208,8|0|8|0,1:0|0:0|0:0|0:0,0:0:0:0:
288,244,164804,6,0,P|323:235|355:211,3,67.5000025749208,8|0|8|0,1:0|0:0|0:0|0:0,0:0:0:0:
225,292,165155,6,0,P|214:326|219:366,3,67.5000025749208,8|0|8|0,1:0|0:0|0:0|0:0,0:0:0:0:
267,173,165505,6,0,P|277:138|272:98,3,67.5000025749208,8|0|8|0,1:0|0:0|0:0|0:0,0:0:0:0:
265,318,165856,5,12,1:2:0:0:
323,284,165944,1,0,0:0:0:0:
389,275,166031,1,8,0:0:0:0:
454,291,166119,1,0,0:0:0:0:
396,257,166206,1,8,1:0:0:0:
344,213,166294,1,0,0:0:0:0:
310,155,166382,1,8,0:0:0:0:
295,90,166469,1,0,0:0:0:0:
155,37,166557,5,12,1:2:0:0:
92,60,166645,1,0,0:0:0:0:
57,116,166732,1,8,0:0:0:0:
62,182,166820,1,0,0:0:0:0:
112,228,166908,1,8,1:0:0:0:
176,212,166995,1,0,0:0:0:0:
239,234,167083,1,8,0:0:0:0:
281,286,167171,1,0,0:0:0:0:
460,197,167258,5,12,1:2:0:0:
400,168,167346,1,0,0:0:0:0:
335,183,167433,1,8,0:0:0:0:
293,234,167521,1,0,0:0:0:0:
246,283,167609,1,8,1:0:0:0:
184,306,167696,1,0,0:0:0:0:
120,287,167784,1,8,0:0:0:0:
82,233,167872,1,0,0:0:0:0:
72,64,167959,5,12,1:2:0:0:
104,122,168047,1,0,0:0:0:0:
162,155,168135,1,8,0:0:0:0:
228,152,168222,1,0,0:0:0:0:
274,203,168310,1,8,1:0:0:0:
284,268,168398,1,0,0:0:0:0:
249,324,168485,1,8,0:0:0:0:
185,341,168573,1,0,0:0:0:0:
35,263,168660,5,12,1:2:0:0:
79,214,168748,1,0,0:0:0:0:
145,210,168836,1,8,0:0:0:0:
195,252,168923,1,0,0:0:0:0:
247,296,169011,1,8,1:0:0:0:
307,321,169099,1,0,0:0:0:0:
368,296,169186,1,8,0:0:0:0:
395,236,169274,1,0,0:0:0:0:
412,169,169362,5,8,1:0:0:0:
344,171,169449,1,0,0:0:0:0:
284,200,169537,1,8,0:0:0:0:
238,249,169625,1,0,0:0:0:0:
192,298,169712,1,8,1:0:0:0:
156,240,169800,1,0,0:0:0:0:
141,175,169887,1,8,0:0:0:0:
148,108,169975,1,0,0:0:0:0:
166,81,170063,5,8,1:3:0:0:
251,108,170150,1,8,0:0:0:0:
340,98,170238,1,8,0:1:0:0:
417,52,170326,1,8,0:1:0:0:
340,98,170413,1,8,1:3:0:0:
278,162,170501,1,8,0:0:0:0:
246,245,170589,1,8,0:1:0:0:
251,334,170676,1,8,0:1:0:0:
246,245,170764,1,8,1:3:0:0:
218,160,170852,1,8,0:0:0:0:
162,90,170939,1,8,0:1:0:0:
85,45,171027,1,8,0:1:0:0:
162,90,171114,5,8,1:3:0:0:
207,167,171202,1,8,1:3:0:0:
197,254,171290,1,8,1:3:0:0:
135,318,171377,1,8,1:3:0:0:
67,328,171465,5,12,1:2:0:0:
123,291,171553,1,0,0:0:0:0:
189,279,171640,1,8,0:0:0:0:
255,293,171728,1,0,0:0:0:0:
316,324,171816,1,8,1:0:0:0:
382,330,171903,1,0,0:0:0:0:
443,303,171991,1,8,0:0:0:0:
482,249,172079,1,0,0:0:0:0:
418,228,172166,5,8,1:0:0:0:
361,191,172254,1,0,0:0:0:0:
323,136,172341,1,8,0:0:0:0:
310,70,172429,1,0,0:0:0:0:
298,138,172517,1,8,1:0:0:0:
250,184,172604,1,0,0:0:0:0:
184,195,172692,1,8,0:0:0:0:
124,167,172780,1,0,0:0:0:0:
257,80,172867,5,8,1:0:0:0:
301,74,172955,1,0,0:0:0:0:
345,84,173043,1,8,0:0:0:0:
382,108,173130,1,0,0:0:0:0:
404,273,173218,1,8,1:0:0:0:
359,278,173305,1,0,0:0:0:0:
315,268,173393,1,8,0:0:0:0:
278,244,173481,1,0,0:0:0:0:
199,146,173568,5,8,1:0:0:0:
178,106,173656,1,0,0:0:0:0:
173,61,173744,1,8,0:0:0:0:
184,18,173831,1,0,0:0:0:0:
294,94,173919,1,8,1:0:0:0:
314,133,174007,1,0,0:0:0:0:
319,178,174094,1,8,0:0:0:0:
308,221,174182,1,0,0:0:0:0:
190,281,174270,5,12,1:2:0:0:
255,269,174357,1,0,0:0:0:0:
321,284,174445,1,8,0:0:0:0:
375,324,174532,1,0,0:0:0:0:
420,272,174620,1,8,1:0:0:0:
450,212,174708,1,0,0:0:0:0:
454,145,174795,1,8,0:0:0:0:
430,83,174883,1,0,0:0:0:0:
376,41,174971,5,8,1:0:0:0:
310,24,175058,1,0,0:0:0:0:
240,30,175146,1,8,0:0:0:0:
181,56,175234,1,0,0:0:0:0:
131,100,175321,1,8,1:0:0:0:
98,159,175409,1,0,0:0:0:0:
84,225,175497,1,8,0:0:0:0:
93,291,175584,1,0,0:0:0:0:
141,337,175672,5,8,1:0:0:0:
181,355,175759,1,0,0:0:0:0:
226,355,175847,1,8,0:0:0:0:
266,335,175934,1,0,0:0:0:0:
471,280,176022,1,8,1:0:0:0:
430,261,176109,1,0,0:0:0:0:
385,261,176197,1,8,0:0:0:0:
345,281,176284,1,0,0:0:0:0:
239,348,176373,5,8,1:0:0:0:
257,306,176460,1,0,0:0:0:0:
256,262,176548,1,8,0:0:0:0:
237,221,176635,1,0,0:0:0:0:
102,69,176724,5,8,1:0:0:0:
84,110,176811,1,0,0:0:0:0:
85,154,176899,1,8,0:0:0:0:
104,195,176986,1,0,0:0:0:0:
170,137,177074,5,12,1:2:0:0:
234,120,177162,1,0,0:0:0:0:
300,133,177249,1,8,0:0:0:0:
355,171,177337,1,0,0:0:0:0:
402,220,177425,1,8,1:0:0:0:
362,274,177512,1,0,0:0:0:0:
302,303,177600,1,8,0:0:0:0:
236,302,177688,1,0,0:0:0:0:
88,304,177775,5,12,1:2:0:0:
129,252,177863,1,0,0:0:0:0:
136,185,177951,1,8,0:0:0:0:
106,126,178038,1,0,0:0:0:0:
55,81,178126,1,8,1:0:0:0:
104,36,178213,1,0,0:0:0:0:
169,21,178301,1,8,0:0:0:0:
234,38,178389,1,0,0:0:0:0:
394,94,178476,5,12,1:2:0:0:
328,103,178564,1,0,0:0:0:0:
276,145,178652,1,8,0:0:0:0:
253,208,178739,1,0,0:0:0:0:
266,273,178827,1,8,1:0:0:0:
311,323,178915,1,0,0:0:0:0:
375,342,179002,1,8,0:0:0:0:
440,325,179090,1,0,0:0:0:0:
281,320,179178,5,12,1:2:0:0:
216,302,179265,1,0,0:0:0:0:
149,310,179353,1,8,0:0:0:0:
91,343,179440,1,0,0:0:0:0:
128,298,179528,1,8,1:0:0:0:
163,241,179616,1,0,0:0:0:0:
162,174,179703,1,8,0:0:0:0:
127,118,179791,1,0,0:0:0:0:
8,51,179879,5,12,1:2:0:0:
56,96,179966,1,0,0:0:0:0:
121,112,180054,1,8,0:0:0:0:
186,94,180142,1,0,0:0:0:0:
253,99,180229,1,8,1:0:0:0:
307,137,180317,1,0,0:0:0:0:
336,197,180405,1,8,0:0:0:0:
331,264,180492,1,0,0:0:0:0:
295,319,180580,5,8,1:0:0:0:
235,350,180667,1,0,0:0:0:0:
169,347,180755,1,8,0:0:0:0:
112,312,180843,1,0,0:0:0:0:
80,254,180930,1,8,1:0:0:0:
80,187,181018,1,0,0:0:0:0:
114,129,181106,1,8,0:0:0:0:
171,95,181193,1,0,0:0:0:0:
237,84,181281,5,8,0:0:0:0:
237,88,181369,1,0,0:0:0:0:
238,92,181456,1,8,0:0:0:0:
239,97,181544,1,0,0:0:0:0:
240,101,181632,1,8,0:0:0:0:
240,106,181719,1,0,0:0:0:0:
241,110,181807,1,8,0:0:0:0:
242,115,181894,1,0,0:0:0:0:
243,119,181982,5,8,0:0:0:0:
244,123,182070,1,0,0:0:0:0:
244,128,182157,1,8,0:0:0:0:
245,132,182245,1,0,0:0:0:0:
246,137,182333,1,8,0:0:0:0:
247,141,182420,1,8,0:0:0:0:
247,146,182508,1,8,0:0:0:0:
248,150,182596,1,8,0:0:0:0:
252,195,182683,5,12,1:2:0:0:
233,235,182771,1,0,0:0:0:0:
199,263,182859,1,8,0:0:0:0:
155,272,182946,1,0,0:0:0:0:
112,260,183034,1,8,1:0:0:0:
79,230,183121,1,0,0:0:0:0:
56,191,183209,2,0,L|106:195,1,45,10|0,0:2|0:0,0:0:0:0:
398,188,183384,6,0,L|333:193,1,45,10|0,1:2|0:0,0:0:0:0:
152,352,183560,2,0,L|154:276,1,45,10|0,0:2|0:0,0:0:0:0:
219,49,183735,2,0,L|217:118,1,45,10|0,1:2|0:0,0:0:0:0:
283,353,183910,2,0,L|282:301,1,45,10|0,0:2|0:0,0:0:0:0:
146,35,184086,6,0,L|145:70,3,33.7500012874604,6|0|0|0,0:2|0:0|0:0|0:0,0:0:0:0:
171,43,184436,2,0,L|170:82,3,33.7500012874604,2|0|0|0,0:2|0:0|0:0|0:0,0:0:0:0:
191,54,184787,2,0,L|192:94,3,33.7500012874604,2|0|0|0,0:2|0:0|0:0|0:0,0:0:0:0:
215,66,185137,2,0,L|215:102,1,33.7500012874604,2|0,0:2|0:0,0:0:0:0:
215,130,185313,1,0,1:0:0:0:
189,191,185400,1,0,1:0:0:0:
134,229,185488,5,14,1:2:0:0:
157,267,185575,1,0,0:0:0:0:
191,296,185663,1,8,0:0:0:0:
233,311,185751,1,0,0:0:0:0:
278,312,185838,1,8,1:0:0:0:
320,297,185926,1,0,0:0:0:0:
355,269,186014,1,10,0:2:0:0:
378,230,186101,1,0,0:0:0:0:
386,186,186189,5,10,1:2:0:0:
380,142,186277,1,0,0:0:0:0:
358,103,186364,1,8,0:0:0:0:
325,73,186452,1,2,0:2:0:0:
283,56,186540,1,8,1:0:0:0:
239,54,186627,1,0,0:0:0:0:
196,68,186715,1,10,0:0:0:0:
160,95,186802,1,0,0:0:0:0:
132,130,186890,5,10,1:2:0:0:
116,171,186978,1,0,0:0:0:0:
116,216,187065,1,8,0:0:0:0:
132,258,187153,1,0,0:0:0:0:
161,292,187241,1,8,1:0:0:0:
201,313,187328,1,0,0:0:0:0:
245,318,187416,1,10,0:2:0:0:
289,308,187504,1,0,0:0:0:0:
331,293,187591,5,10,1:2:0:0:
305,255,187679,1,0,0:0:0:0:
271,227,187766,1,8,0:0:0:0:
230,208,187854,1,0,0:0:0:0:
185,202,187942,1,8,1:0:0:0:
141,208,188029,1,0,0:0:0:0:
100,226,188117,1,8,0:0:0:0:
65,254,188205,1,0,0:0:0:0:
95,288,188292,5,12,1:2:0:0:
130,315,188380,1,0,0:0:0:0:
171,334,188468,1,8,0:0:0:0:
215,342,188555,1,0,0:0:0:0:
260,339,188643,1,8,1:0:0:0:
303,326,188731,1,0,0:0:0:0:
341,304,188818,1,8,0:0:0:0:
374,272,188906,1,0,0:0:0:0:
398,234,188993,5,12,1:2:0:0:
412,192,189081,1,0,0:0:0:0:
416,147,189169,1,8,0:0:0:0:
409,103,189256,1,0,0:0:0:0:
380,68,189344,1,8,1:0:0:0:
336,57,189432,1,0,0:0:0:0:
291,57,189519,1,8,0:0:0:0:
247,67,189607,1,0,0:0:0:0:
212,97,189695,5,12,1:2:0:0:
182,130,189782,1,0,0:0:0:0:
141,145,189870,1,8,0:0:0:0:
97,138,189958,1,0,0:0:0:0:
58,114,190045,1,8,1:0:0:0:
97,135,190133,1,0,0:0:0:0:
121,172,190220,1,8,0:0:0:0:
125,216,190308,1,0,0:0:0:0:
114,260,190396,5,12,1:2:0:0:
130,301,190483,1,0,0:0:0:0:
159,335,190571,1,8,0:0:0:0:
198,358,190659,1,0,0:0:0:0:
241,369,190746,1,8,1:0:0:0:
286,364,190834,1,0,0:0:0:0:
327,347,190922,1,8,0:0:0:0:
361,317,191009,1,0,0:0:0:0:
379,276,191097,6,0,P|345:255|303:242,1,67.5000025749208,8|0,0:0|0:0,0:0:0:0:
250,239,191272,1,0,0:0:0:0:
183,244,191360,1,8,0:0:0:0:
6,339,191447,2,0,P|46:331|74:308,1,67.5000025749208
122,276,191623,1,8,0:0:0:0:
153,216,191710,1,0,0:0:0:0:
198,20,191798,6,0,P|177:49|169:88,1,67.5000025749208,0|8,0:0|0:0,0:0:0:0:
166,147,191973,1,0,0:0:0:0:
195,207,192061,1,0,0:0:0:0:
214,332,192149,6,0,P|225:282|216:255,1,67.5000025749208,8|0,0:0|0:0,0:0:0:0:
215,199,192324,1,8,0:0:0:0:
238,135,192412,1,0,0:0:0:0:
287,90,192499,5,8,1:3:0:0:
349,67,192587,1,8,0:0:0:0:
413,84,192674,1,8,0:1:0:0:
455,136,192762,1,8,0:0:0:0:
460,202,192850,1,8,1:3:0:0:
426,259,192937,1,8,0:1:0:0:
365,286,193025,1,8,0:0:0:0:
300,273,193113,1,8,0:0:0:0:
251,225,193200,5,8,1:0:0:0:
215,169,193288,1,8,0:0:0:0:
151,150,193376,1,8,0:0:0:0:
91,178,193463,1,8,0:1:0:0:
64,238,193551,1,8,1:3:0:0:
83,301,193639,1,8,1:3:0:0:
139,337,193726,1,8,1:3:0:0:
205,326,193814,1,8,1:3:0:0:
245,307,193901,5,12,1:2:0:0:
272,271,193989,1,0,0:0:0:0:
281,228,194077,1,0,0:0:0:0:
270,184,194164,1,0,0:0:0:0:
154,111,194252,1,8,1:3:0:0:
143,154,194340,1,0,0:0:0:0:
146,199,194427,1,0,0:0:0:0:
164,240,194515,1,0,0:0:0:0:
294,293,194603,6,0,L|363:282,1,67.5000025749208,8|0,1:3|0:0,0:0:0:0:
410,138,194778,2,0,L|342:148,1,67.5000025749208
312,278,194953,2,0,L|381:266,1,67.5000025749208,8|0,1:3|0:0,0:0:0:0:
428,123,195128,2,0,L|359:133,1,67.5000025749208
179,104,195304,5,8,1:3:0:0:
223,98,195391,1,0,0:0:0:0:
268,92,195479,1,0,0:0:0:0:
312,86,195567,1,0,0:0:0:0:
275,257,195654,1,8,1:3:0:0:
230,262,195742,1,0,0:0:0:0:
185,268,195830,1,0,0:0:0:0:
141,274,195917,1,0,0:0:0:0:
290,295,196005,5,8,1:3:0:0:
279,227,196093,1,0,0:0:0:0:
270,160,196180,1,0,0:0:0:0:
261,93,196268,1,0,0:0:0:0:
80,62,196355,1,8,1:3:0:0:
89,128,196443,1,0,0:0:0:0:
98,195,196531,1,0,0:0:0:0:
107,261,196618,1,0,0:0:0:0:
215,282,196706,6,0,L|207:333,3,45,12|0|0|0,1:2|0:0|0:0|0:0,0:0:0:0:
273,146,197057,2,0,L|264:90,3,45,8|0|0|0,1:3|0:0|0:0|0:0,0:0:0:0:
187,285,197407,2,0,L|177:351,1,67.5000025749208,8|0,1:3|0:0,0:0:0:0:
292,149,197582,2,0,L|277:83,1,67.5000025749208
176,286,197758,2,0,L|167:352,1,67.5000025749208,8|0,1:3|0:0,0:0:0:0:
306,152,197933,2,0,L|292:86,1,67.5000025749208
264,229,198108,5,8,1:3:0:0:
256,184,198196,1,0,0:0:0:0:
249,140,198284,1,0,0:0:0:0:
242,95,198371,1,0,0:0:0:0:
272,160,198459,1,8,1:3:0:0:
279,204,198547,1,0,0:0:0:0:
286,248,198634,1,0,0:0:0:0:
293,293,198722,1,0,0:0:0:0:
200,204,198809,5,8,1:3:0:0:
267,193,198897,1,0,0:0:0:0:
333,182,198985,1,0,0:0:0:0:
400,171,199072,1,0,0:0:0:0:
304,216,199160,1,8,1:3:0:0:
238,226,199248,1,0,0:0:0:0:
172,237,199335,1,0,0:0:0:0:
104,247,199423,1,0,0:0:0:0:
30,140,199511,5,12,1:2:0:0:
58,106,199598,1,0,0:0:0:0:
100,90,199686,1,0,0:0:0:0:
144,98,199774,1,0,0:0:0:0:
186,115,199861,1,8,1:3:0:0:
227,130,199949,1,0,0:0:0:0:
272,125,200036,1,0,0:0:0:0:
310,101,200124,1,0,0:0:0:0:
402,200,200212,5,12,1:2:0:0:
434,229,200299,1,0,0:0:0:0:
446,272,200387,1,0,0:0:0:0:
434,315,200474,1,0,0:0:0:0:
401,344,200562,1,8,1:3:0:0:
357,352,200650,1,0,0:0:0:0:
316,335,200737,1,0,0:0:0:0:
290,300,200825,1,0,0:0:0:0:
246,195,200913,5,12,1:2:0:0:
268,156,201000,1,0,0:0:0:0:
265,112,201088,1,0,0:0:0:0:
237,78,201175,1,0,0:0:0:0:
194,66,201263,1,8,1:2:0:0:
153,81,201351,1,0,0:0:0:0:
127,117,201438,1,0,0:0:0:0:
127,161,201526,1,0,0:0:0:0:
200,276,201614,5,8,1:2:0:0:
243,282,201701,1,0,0:0:0:0:
282,262,201789,1,0,0:0:0:0:
301,222,201876,1,0,0:0:0:0:
305,176,201965,1,8,1:3:0:0:
313,132,202052,1,0,0:0:0:0:
346,102,202140,1,0,0:0:0:0:
390,98,202227,1,0,0:0:0:0:
448,247,202315,5,12,1:2:0:0:
433,244,202403,1,0,0:0:0:0:
418,242,202490,1,0,0:0:0:0:
403,239,202578,1,0,0:0:0:0:
372,205,202666,1,8,1:3:0:0:
357,206,202753,1,0,0:0:0:0:
342,208,202841,1,0,0:0:0:0:
327,210,202929,1,0,0:0:0:0:
298,245,203016,5,8,1:3:0:0:
283,241,203104,1,0,0:0:0:0:
268,238,203192,1,0,0:0:0:0:
254,234,203279,1,0,0:0:0:0:
228,197,203367,1,8,1:3:0:0:
213,198,203454,1,0,0:0:0:0:
198,200,203542,1,0,0:0:0:0:
183,202,203630,1,0,0:0:0:0:
123,235,203717,5,12,1:2:0:0:
104,297,203805,1,0,0:0:0:0:
147,345,203893,1,0,0:0:0:0:
211,334,203980,1,8,0:0:0:0:
259,286,204068,1,8,0:0:0:0:
315,253,204156,1,0,0:0:0:0:
373,281,204243,1,8,0:0:0:0:
384,345,204331,1,8,0:0:0:0:
319,325,204419,5,0,0:0:0:0:
272,277,204506,1,8,0:0:0:0:
260,212,204594,1,8,0:0:0:0:
287,151,204681,1,0,0:0:0:0:
343,115,204769,1,8,0:0:0:0:
410,118,204857,1,8,0:0:0:0:
463,157,204944,1,8,0:0:0:0:
486,220,205032,1,8,0:0:0:0:
476,256,205120,6,0,P|434:303|294:281,1,202.500007724762,6|0,0:0|0:0,0:0:0:0:
201,235,205821,2,0,P|149:246|111:273,2,90.0000034332277,2|2|2,0:0|0:0|0:0,0:0:0:0:
344,299,206522,2,0,P|309:227|306:162,1,135,6|2,0:0|0:0,0:0:0:0:
168,100,207223,2,0,P|201:155|210:235,1,135,2|0,0:0|0:0,0:0:0:0:
74,322,207924,6,0,P|121:295|270:300,1,202.500007724762,6|0,0:0|0:0,0:0:0:0:
389,323,208625,2,0,P|421:315|461:262,2,90.0000034332277,6|2|2,0:0|0:0|0:0,0:0:0:0:
261,267,209327,2,0,P|235:206|174:160,1,135,6|0,0:0|0:0,0:0:0:0:
52,162,210028,2,0,P|63:193|81:213,1,45,6|0,0:0|0:0,0:0:0:0:
63,294,210378,5,8,0:0:0:0:
128,275,210466,1,8,0:0:0:0:
193,257,210554,1,8,0:0:0:0:
258,239,210641,1,8,0:0:0:0:
303,239,210729,5,12,1:2:0:0:
347,242,210816,1,0,0:0:0:0:
389,259,210904,1,0,0:0:0:0:
422,288,210992,1,0,0:0:0:0:
452,323,211079,1,8,1:3:0:0:
420,291,211167,1,0,0:0:0:0:
411,248,211255,1,0,0:0:0:0:
428,207,211342,1,0,0:0:0:0:
459,173,211430,5,10,1:2:0:0:
481,134,211518,1,0,0:0:0:0:
484,89,211605,1,0,0:0:0:0:
468,48,211693,1,2,0:2:0:0:
435,17,211781,1,8,1:3:0:0:
392,4,211868,1,0,0:0:0:0:
348,11,211956,1,2,0:2:0:0:
311,36,212043,1,0,0:0:0:0:
286,73,212131,5,8,0:0:0:0:
271,114,212219,1,2,0:2:0:0:
235,140,212306,1,0,0:0:0:0:
191,140,212394,1,0,0:0:0:0:
146,135,212482,1,8,0:0:0:0:
102,141,212569,1,0,0:0:0:0:
67,169,212657,1,2,0:2:0:0:
50,210,212745,1,2,0:2:0:0:
55,254,212832,5,10,0:2:0:0:
76,293,212919,1,0,0:0:0:0:
115,314,213007,1,0,0:0:0:0:
159,310,213094,1,0,0:0:0:0:
202,297,213183,1,8,0:0:0:0:
244,284,213270,1,0,0:0:0:0:
288,291,213358,1,8,0:0:0:0:
325,317,213445,1,0,0:0:0:0:
360,349,213533,6,0,P|359:297|379:254,1,90,10|0,0:2|0:0,0:0:0:0:
457,221,213709,2,0,P|458:273|438:316,1,90,8|0,0:0|0:0,0:0:0:0:
299,328,213884,2,0,L|201:294,1,90,8|0,0:0|0:0,0:0:0:0:
160,202,214059,2,0,L|255:233,1,90,10|0,0:2|0:0,0:0:0:0:
405,151,214235,2,0,P|351:164|294:149,1,90,10|0,0:2|0:0,0:0:0:0:
248,84,214410,2,0,P|302:71|359:86,1,90,8|2,0:0|0:2,0:0:0:0:
435,197,214585,5,8,0:0:0:0:
346,179,214673,1,8,0:0:0:0:
258,162,214760,1,10,0:2:0:0:
169,145,214848,1,8,0:0:0:0:
124,149,214936,5,8,0:0:0:0:
84,167,215023,1,8,0:1:0:0:
68,208,215111,1,8,0:1:0:0:
85,248,215199,1,8,0:1:0:0:
121,276,215286,1,0,0:0:0:0:
164,286,215374,1,0,0:0:0:0:
208,277,215462,1,8,0:0:0:0:
244,251,215549,1,8,0:1:0:0:
266,212,215637,5,8,0:1:0:0:
269,168,215724,1,8,0:1:0:0:
254,126,215812,1,0,0:0:0:0:
223,94,215900,1,0,0:0:0:0:
183,72,215987,1,8,0:0:0:0:
166,113,216075,1,8,0:1:0:0:
165,158,216163,1,8,0:1:0:0:
180,200,216250,1,8,0:1:0:0:
197,242,216338,5,0,0:0:0:0:
205,285,216426,1,0,0:0:0:0:
185,324,216513,1,8,0:0:0:0:
145,344,216601,1,8,0:1:0:0:
100,347,216688,1,8,0:1:0:0:
136,320,216776,1,8,0:1:0:0:
178,305,216864,1,0,0:0:0:0:
223,304,216951,1,0,0:0:0:0:
266,319,217039,5,8,0:0:0:0:
269,313,217127,1,8,0:1:0:0:
272,308,217214,1,8,0:1:0:0:
276,302,217302,1,8,0:1:0:0:
279,297,217390,1,8,0:0:0:0:
345,235,217477,1,8,0:0:0:0:
334,146,217565,1,8,0:0:0:0:
253,104,217653,1,8,0:0:0:0:
177,153,217740,6,0,L|299:124,1,123.75,4|0,1:2|0:0,0:0:0:0:
382,154,218792,5,8,0:0:0:0:
295,133,218880,1,8,0:0:0:0:
208,153,218967,1,8,0:0:0:0:
139,210,219055,1,8,0:0:0:0:
102,291,219142,1,4,0:2:0:0:
