osu file format v14

[General]
AudioFilename: audio.mp3
AudioLeadIn: 0
PreviewTime: 76111
Countdown: 0
SampleSet: None
StackLeniency: 0.7
Mode: 3
LetterboxInBreaks: 0
SpecialStyle: 0
WidescreenStoryboard: 1

[Editor]
DistanceSpacing: 1
BeatDivisor: 4
GridSize: 32
TimelineZoom: 3.599999

[Metadata]
Title:Southern Cross
TitleUnicode:Southern Cross
Artist:403 Forbiddena
ArtistUnicode:403 Forbiddena
Creator:-Snivy3000-
Version:4K
Source:N.E.W.S.
Tags:news metal melodic vocal english
BeatmapID:2118095
BeatmapSetID:917597

[Difficulty]
HPDrainRate:6
CircleSize:4
OverallDifficulty:8
ApproachRate:9
SliderMultiplier:1.8
SliderTickRate:1

[Events]
//Background and Video events
0,0,"conquer_the_world__wallpaper__by_hardii_dcad9rr.png",0,0
//Break Periods
//Storyboard Layer 0 (Background)
//Storyboard Layer 1 (Fail)
//Storyboard Layer 2 (Pass)
//Storyboard Layer 3 (Foreground)
//Storyboard Sound Samples

[TimingPoints]
321,350.56967572305,4,3,1,20,1,0
327,-25,4,3,1,20,0,0
414,-1000,4,3,1,20,0,0
671,-25,4,3,1,20,0,0
759,-1000,4,3,1,20,0,0
1022,-25,4,3,1,20,0,0
1109,-1000,4,3,1,20,0,0
1372,-100,4,3,1,20,0,0
2424,-200,4,3,1,20,0,0
3125,701.1393514461,4,3,1,20,1,0
24159,-400,4,3,1,20,0,0
25279,350.56967572305,4,3,1,20,1,0
25629,350.56967572305,4,3,1,20,1,0
25629,-25,4,3,1,20,0,0
25716,-1000,4,3,1,20,0,0
25979,-25,4,3,1,20,0,0
26067,-1000,4,3,1,20,0,0
26330,-25,4,3,1,20,0,0
26417,-1000,4,3,1,20,0,0
26680,-100,4,3,1,20,0,0
28433,-25,4,3,1,20,0,0
28521,-1000,4,3,1,20,0,0
28784,-25,4,3,1,20,0,0
28871,-1000,4,3,1,20,0,0
29134,-25,4,3,1,20,0,0
29222,-1000,4,3,1,20,0,0
29485,-100,4,3,1,20,0,0
31238,-25,4,3,1,20,0,0
31325,-1000,4,3,1,20,0,0
31588,-25,4,3,1,20,0,0
31676,-1000,4,3,1,20,0,0
31939,-25,4,3,1,20,0,0
32026,-1000,4,3,1,20,0,0
32289,-25,4,3,1,20,0,0
32377,-1000,4,3,1,20,0,0
32465,-25,4,3,1,20,0,0
32552,-1000,4,3,1,20,0,0
32640,-25,4,3,1,20,0,0
32728,-1000,4,3,1,20,0,0
32990,-25,4,3,1,20,0,0
33078,-1000,4,3,1,20,0,0
33341,-25,4,3,1,20,0,0
33429,-1000,4,3,1,20,0,0
33692,-100,4,3,1,20,0,0
38249,-100,4,3,1,20,0,1
60685,-100,4,3,1,20,0,0
63139,-25,4,3,1,20,0,0
63227,-1000,4,3,1,20,0,0
63490,-80,4,3,1,20,0,0
76111,-25,4,3,1,20,0,0
76198,-1000,4,3,1,20,0,0
76461,-25,4,3,1,20,0,0
76549,-1000,4,3,1,20,0,0
76812,-25,4,3,1,20,0,0
76899,-1000,4,3,1,20,0,0
77162,-100,4,3,1,20,0,0
78915,-25,4,3,1,20,0,0
79003,-1000,4,3,1,20,0,0
79266,-25,4,3,1,20,0,0
79353,-1000,4,3,1,20,0,0
79616,-25,4,3,1,20,0,0
79704,-1000,4,3,1,20,0,0
79967,-100,4,3,1,20,0,0
81720,-25,4,3,1,20,0,0
81807,-1000,4,3,1,20,0,0
82070,-25,4,3,1,20,0,0
82158,-1000,4,3,1,20,0,0
82421,-25,4,3,1,20,0,0
82508,-1000,4,3,1,20,0,0
82771,-25,4,3,1,20,0,0
82859,-1000,4,3,1,20,0,0
82947,-25,4,3,1,20,0,0
83034,-1000,4,3,1,20,0,0
83122,-25,4,3,1,20,0,0
83210,-1000,4,3,1,20,0,0
83472,-25,4,3,1,20,0,0
83560,-1000,4,3,1,20,0,0
83823,-25,4,3,1,20,0,0
83911,-1000,4,3,1,20,0,0
84174,-100,4,3,1,20,0,0
88731,-100,4,3,1,20,0,1
111168,-100,4,3,1,20,0,0
113621,-25,4,3,1,20,0,0
113709,-1000,4,3,1,20,0,0
113972,-100,4,3,1,20,0,0
118880,-25,4,3,1,20,0,0
118924,-1000,4,3,1,20,0,0
118968,-25,4,3,1,20,0,0
119011,-1000,4,3,1,20,0,0
119231,-25,4,3,1,20,0,0
119274,-1000,4,3,1,20,0,0
119318,-25,4,3,1,20,0,0
119362,-1000,4,3,1,20,0,0
119581,-100,4,3,1,20,0,0
124489,-25,4,3,1,20,0,0
124577,-1000,4,3,1,20,0,0
124840,-100,4,3,1,20,0,0
126593,-25,4,3,1,20,0,0
126636,-1000,4,3,1,20,0,0
126768,-100,4,3,1,20,0,0
126943,-25,4,3,1,20,0,0
126987,-1000,4,3,1,20,0,0
127118,-25,4,3,1,20,0,0
127162,-1000,4,3,1,20,0,0
127294,-25,4,3,1,20,0,0
127338,-1000,4,3,1,20,0,0
127644,-25,4,3,1,20,0,0
127688,-1000,4,3,1,20,0,0
127995,-100,4,3,1,20,0,0
129397,-25,4,3,1,20,0,0
129441,-1000,4,3,1,20,0,0
129572,-100,4,3,1,20,0,0
129748,-25,4,3,1,20,0,0
129792,-1000,4,3,1,20,0,0
129923,-25,4,3,1,20,0,0
129967,-1000,4,3,1,20,0,0
130098,-25,4,3,1,20,0,0
130142,-1000,4,3,1,20,0,0
130624,-100,4,3,1,20,0,0
130799,-90.9090909090909,4,3,1,20,0,0
131501,-83.3333333333333,4,3,1,20,0,0
132202,-76.9230769230769,4,3,1,20,0,0
132903,-71.4285714285714,4,3,1,20,0,0
133604,-25,4,3,1,20,0,0
133736,-27.7777777777778,4,3,1,20,0,0
133867,-31.25,4,3,1,20,0,0
133999,-35.7142857142857,4,3,1,20,0,0
134131,-41.6666666666667,4,3,1,20,0,0
134262,-50,4,3,1,20,0,0
134394,-55.5555555555556,4,3,1,20,0,0
134525,-62.5,4,3,1,20,0,0
134657,-71.4285714285714,4,3,1,20,0,0
134789,-83.3333333333333,4,3,1,20,0,0
134920,-100,4,3,1,20,0,0
135052,-111.111111111111,4,3,1,20,0,0
135184,-125,4,3,1,20,0,0
135315,-142.857142857143,4,3,1,20,0,0
135447,-166.666666666667,4,3,1,20,0,0
135579,-200,4,3,1,20,0,0
135710,-250,4,3,1,20,0,0
135842,-333.333333333333,4,3,1,20,0,0
135974,-500,4,3,1,20,0,0
136105,-1000,4,3,1,20,0,0
136409,701.1393514461,4,3,1,20,1,0
141083,-12.5,4,3,1,20,0,0
141200,-500,4,3,1,20,0,0
141784,-100,4,3,1,20,0,0
146692,-12.5,4,3,1,20,0,0
146809,-500,4,3,1,20,0,0
147393,-100,4,3,1,20,0,0
152301,-12.5,4,3,1,20,0,0
152418,-500,4,3,1,20,0,0
153002,-100,4,3,1,20,0,0
158845,350.56967572305,4,3,1,20,1,0
159546,-80,4,3,1,20,0,0
160247,-66.6666666666667,4,3,1,20,0,1
182683,-100,4,3,1,20,0,0
184086,-200,4,3,1,20,0,0
185488,-100,4,3,1,20,0,1
193814,-100,4,3,1,20,0,0
193901,-100,4,3,1,20,0,1
205120,-25,4,3,1,20,0,0
205207,-200,4,3,1,20,0,0
206522,-25,4,3,1,20,0,0
206610,-200,4,3,1,20,0,0
207924,-25,4,3,1,20,0,0
208012,-200,4,3,1,20,0,0
208625,-25,4,3,1,20,0,0
208713,-200,4,3,1,20,0,0
209327,-25,4,3,1,20,0,0
209414,-200,4,3,1,20,0,0
210028,-25,4,3,1,20,0,0
210115,-1000,4,3,1,20,0,0
210378,-100,4,3,1,20,0,0
217740,-25,4,3,1,20,0,0
217828,-1000,4,3,1,20,0,0
218792,-100,4,3,1,20,0,0

[HitObjects]
64,192,321,5,0,0:0:0:0:
448,192,321,1,0,0:0:0:0:
320,192,321,1,0,0:0:0:0:
192,192,671,1,0,0:0:0:0:
320,192,671,1,0,0:0:0:0:
448,192,671,1,0,0:0:0:0:
64,192,1022,1,0,0:0:0:0:
192,192,1022,1,0,0:0:0:0:
320,192,1022,1,0,0:0:0:0:
448,192,1372,1,0,0:0:0:0:
192,192,1547,1,0,0:0:0:0:
64,192,1723,1,0,0:0:0:0:
320,192,1898,1,0,0:0:0:0:
64,192,2073,1,0,0:0:0:0:
192,192,2249,1,0,0:0:0:0:
448,192,2424,1,0,0:0:0:0:
192,192,3125,1,0,0:0:0:0:
64,192,3125,1,0,0:0:0:0:
448,192,3358,1,0,0:0:0:0:
320,192,3592,1,0,0:0:0:0:
64,192,3826,1,0,0:0:0:0:
192,192,3826,1,0,0:0:0:0:
192,192,4059,1,0,0:0:0:0:
320,192,4059,1,0,0:0:0:0:
448,192,4293,1,0,0:0:0:0:
320,192,4293,1,0,0:0:0:0:
64,192,4527,1,0,0:0:0:0:
448,192,4527,1,0,0:0:0:0:
192,192,4760,1,0,0:0:0:0:
320,192,4994,1,0,0:0:0:0:
320,192,5228,1,0,0:0:0:0:
448,192,5228,1,0,0:0:0:0:
192,192,5462,1,0,0:0:0:0:
320,192,5462,1,0,0:0:0:0:
192,192,5695,1,0,0:0:0:0:
64,192,5695,1,0,0:0:0:0:
192,192,5929,1,0,0:0:0:0:
320,192,5929,1,0,0:0:0:0:
64,192,6163,1,0,0:0:0:0:
448,192,6396,1,0,0:0:0:0:
192,192,6630,1,0,0:0:0:0:
320,192,6630,1,0,0:0:0:0:
64,192,6864,1,0,0:0:0:0:
448,192,6864,1,0,0:0:0:0:
64,192,7098,1,0,0:0:0:0:
192,192,7098,1,0,0:0:0:0:
320,192,7331,1,0,0:0:0:0:
448,192,7331,1,0,0:0:0:0:
192,192,7565,1,0,0:0:0:0:
320,192,7565,1,0,0:0:0:0:
192,192,7799,1,0,0:0:0:0:
64,192,7799,128,0,8500:0:0:0:0:
448,192,8500,1,0,0:0:0:0:
192,192,8734,1,0,0:0:0:0:
320,192,8734,1,0,0:0:0:0:
448,192,8967,1,0,0:0:0:0:
64,192,9201,1,0,0:0:0:0:
320,192,9435,1,0,0:0:0:0:
64,192,9668,1,0,0:0:0:0:
192,192,9668,1,0,0:0:0:0:
320,192,9902,1,0,0:0:0:0:
448,192,9902,1,0,0:0:0:0:
64,192,10136,1,0,0:0:0:0:
192,192,10136,1,0,0:0:0:0:
320,192,10370,1,0,0:0:0:0:
64,192,10603,1,0,0:0:0:0:
448,192,10837,1,0,0:0:0:0:
320,192,10837,1,0,0:0:0:0:
64,192,11071,1,0,0:0:0:0:
192,192,11071,1,0,0:0:0:0:
320,192,11304,1,0,0:0:0:0:
448,192,11304,1,0,0:0:0:0:
64,192,11538,1,0,0:0:0:0:
448,192,11538,1,0,0:0:0:0:
192,192,11772,1,0,0:0:0:0:
320,192,12006,1,0,0:0:0:0:
64,192,12239,1,0,0:0:0:0:
192,192,12239,1,0,0:0:0:0:
448,192,12473,1,0,0:0:0:0:
64,192,12473,1,0,0:0:0:0:
320,192,12707,1,0,0:0:0:0:
448,192,12707,1,0,0:0:0:0:
192,192,12940,1,0,0:0:0:0:
320,192,12940,1,0,0:0:0:0:
64,192,13174,1,0,0:0:0:0:
448,192,13408,1,0,0:0:0:0:
192,192,14109,1,0,0:0:0:0:
64,192,14343,1,0,0:0:0:0:
192,192,14343,1,0,0:0:0:0:
320,192,14576,1,0,0:0:0:0:
448,192,14810,1,0,0:0:0:0:
64,192,15044,1,0,0:0:0:0:
192,192,15044,1,0,0:0:0:0:
64,192,15278,1,0,0:0:0:0:
192,192,15278,1,0,0:0:0:0:
192,192,15511,1,0,0:0:0:0:
64,192,15511,1,0,0:0:0:0:
320,192,15745,1,0,0:0:0:0:
448,192,15745,1,0,0:0:0:0:
192,192,15979,1,0,0:0:0:0:
64,192,16212,1,0,0:0:0:0:
320,192,16446,1,0,0:0:0:0:
448,192,16446,1,0,0:0:0:0:
320,192,16680,1,0,0:0:0:0:
448,192,16680,1,0,0:0:0:0:
320,192,16914,1,0,0:0:0:0:
448,192,16914,1,0,0:0:0:0:
64,192,17147,1,0,0:0:0:0:
448,192,17147,1,0,0:0:0:0:
320,192,17381,1,0,0:0:0:0:
64,192,17615,1,0,0:0:0:0:
64,192,17848,1,0,0:0:0:0:
192,192,17848,1,0,0:0:0:0:
320,192,18082,1,0,0:0:0:0:
448,192,18082,1,0,0:0:0:0:
320,192,18316,1,0,0:0:0:0:
448,192,18316,1,0,0:0:0:0:
64,192,18550,1,0,0:0:0:0:
192,192,18550,1,0,0:0:0:0:
448,192,18783,1,0,0:0:0:0:
320,192,19017,128,0,19718:0:0:0:0:
64,192,19718,1,0,0:0:0:0:
320,192,19952,1,0,0:0:0:0:
448,192,19952,1,0,0:0:0:0:
64,192,20186,1,0,0:0:0:0:
192,192,20419,1,0,0:0:0:0:
320,192,20653,1,0,0:0:0:0:
320,192,20887,1,0,0:0:0:0:
448,192,20887,1,0,0:0:0:0:
64,192,21120,1,0,0:0:0:0:
192,192,21120,1,0,0:0:0:0:
448,192,21354,1,0,0:0:0:0:
64,192,21354,1,0,0:0:0:0:
192,192,21588,1,0,0:0:0:0:
192,192,21822,1,0,0:0:0:0:
64,192,22055,1,0,0:0:0:0:
448,192,22055,1,0,0:0:0:0:
448,192,22289,1,0,0:0:0:0:
320,192,22289,1,0,0:0:0:0:
64,192,22523,1,0,0:0:0:0:
192,192,22523,1,0,0:0:0:0:
320,192,22756,1,0,0:0:0:0:
448,192,22756,1,0,0:0:0:0:
192,192,22990,1,0,0:0:0:0:
64,192,23224,1,0,0:0:0:0:
64,192,23458,1,0,0:0:0:0:
192,192,23458,1,0,0:0:0:0:
320,192,23691,1,0,0:0:0:0:
448,192,23925,1,0,0:0:0:0:
64,192,24159,1,0,0:0:0:0:
320,192,24159,1,0,0:0:0:0:
64,192,25279,1,0,0:0:0:0:
192,192,25366,1,0,0:0:0:0:
448,192,25454,1,0,0:0:0:0:
320,192,25541,1,0,0:0:0:0:
64,192,25629,1,0,0:0:0:0:
448,192,25629,1,0,0:0:0:0:
192,192,25629,1,0,0:0:0:0:
64,192,25979,1,0,0:0:0:0:
192,192,25979,1,0,0:0:0:0:
320,192,25979,1,0,0:0:0:0:
320,192,26330,1,0,0:0:0:0:
448,192,26330,1,0,0:0:0:0:
192,192,26330,1,0,0:0:0:0:
64,192,26680,1,0,0:0:0:0:
192,192,26680,1,0,0:0:0:0:
192,192,26855,1,0,0:0:0:0:
320,192,26855,1,0,0:0:0:0:
448,192,27031,1,0,0:0:0:0:
64,192,27031,1,0,0:0:0:0:
320,192,27118,1,0,0:0:0:0:
448,192,27206,1,0,0:0:0:0:
192,192,27206,1,0,0:0:0:0:
320,192,27294,1,0,0:0:0:0:
448,192,27381,1,0,0:0:0:0:
64,192,27381,1,0,0:0:0:0:
320,192,27469,1,0,0:0:0:0:
448,192,27557,1,0,0:0:0:0:
192,192,27557,1,0,0:0:0:0:
320,192,27644,1,0,0:0:0:0:
64,192,27732,1,0,0:0:0:0:
448,192,27732,1,0,0:0:0:0:
192,192,27820,1,0,0:0:0:0:
64,192,27907,1,0,0:0:0:0:
320,192,27907,1,0,0:0:0:0:
192,192,27995,1,0,0:0:0:0:
64,192,28082,1,0,0:0:0:0:
448,192,28082,1,0,0:0:0:0:
192,192,28170,1,0,0:0:0:0:
64,192,28258,1,0,0:0:0:0:
320,192,28258,1,0,0:0:0:0:
192,192,28345,1,0,0:0:0:0:
64,192,28433,1,0,0:0:0:0:
448,192,28433,1,0,0:0:0:0:
320,192,28433,1,0,0:0:0:0:
64,192,28784,1,0,0:0:0:0:
448,192,28784,1,0,0:0:0:0:
192,192,28784,1,0,0:0:0:0:
64,192,29134,1,0,0:0:0:0:
320,192,29134,1,0,0:0:0:0:
192,192,29134,1,0,0:0:0:0:
64,192,29485,1,0,0:0:0:0:
192,192,29485,1,0,0:0:0:0:
320,192,29660,1,0,0:0:0:0:
448,192,29660,1,0,0:0:0:0:
64,192,29835,1,0,0:0:0:0:
448,192,29835,1,0,0:0:0:0:
320,192,29923,1,0,0:0:0:0:
192,192,30011,1,0,0:0:0:0:
64,192,30011,1,0,0:0:0:0:
320,192,30098,1,0,0:0:0:0:
448,192,30186,1,0,0:0:0:0:
64,192,30186,1,0,0:0:0:0:
192,192,30274,1,0,0:0:0:0:
320,192,30361,1,0,0:0:0:0:
448,192,30361,1,0,0:0:0:0:
192,192,30449,1,0,0:0:0:0:
64,192,30536,1,0,0:0:0:0:
448,192,30536,1,0,0:0:0:0:
448,192,30887,1,0,0:0:0:0:
320,192,30975,1,0,0:0:0:0:
448,192,31062,1,0,0:0:0:0:
192,192,31150,1,0,0:0:0:0:
448,192,31238,1,0,0:0:0:0:
64,192,31238,1,0,0:0:0:0:
320,192,31238,1,0,0:0:0:0:
64,192,31588,1,0,0:0:0:0:
448,192,31588,1,0,0:0:0:0:
192,192,31588,1,0,0:0:0:0:
448,192,31939,1,0,0:0:0:0:
192,192,31939,1,0,0:0:0:0:
320,192,31939,1,0,0:0:0:0:
320,192,32289,1,0,0:0:0:0:
448,192,32289,1,0,0:0:0:0:
192,192,32465,1,0,0:0:0:0:
320,192,32465,1,0,0:0:0:0:
64,192,32640,1,0,0:0:0:0:
192,192,32640,1,0,0:0:0:0:
320,192,32640,1,0,0:0:0:0:
64,192,32990,1,0,0:0:0:0:
192,192,32990,1,0,0:0:0:0:
448,192,32990,1,0,0:0:0:0:
320,192,33341,1,0,0:0:0:0:
448,192,33341,1,0,0:0:0:0:
64,192,33341,1,0,0:0:0:0:
64,192,33692,1,0,0:0:0:0:
192,192,33692,1,0,0:0:0:0:
192,192,33867,1,0,0:0:0:0:
320,192,33867,1,0,0:0:0:0:
320,192,34042,1,0,0:0:0:0:
448,192,34042,1,0,0:0:0:0:
64,192,34217,1,0,0:0:0:0:
448,192,34393,1,0,0:0:0:0:
320,192,34568,1,0,0:0:0:0:
192,192,34743,1,0,0:0:0:0:
448,192,34919,1,0,0:0:0:0:
64,192,35094,1,0,0:0:0:0:
192,192,35269,1,0,0:0:0:0:
320,192,35444,1,0,0:0:0:0:
448,192,35444,1,0,0:0:0:0:
192,192,35532,1,0,0:0:0:0:
64,192,35620,1,0,0:0:0:0:
192,192,35707,1,0,0:0:0:0:
320,192,35795,1,0,0:0:0:0:
448,192,35795,1,0,0:0:0:0:
64,192,35883,1,0,0:0:0:0:
192,192,35970,1,0,0:0:0:0:
320,192,36058,1,0,0:0:0:0:
64,192,36146,1,0,0:0:0:0:
192,192,36146,1,0,0:0:0:0:
448,192,36233,1,0,0:0:0:0:
192,192,36321,1,0,0:0:0:0:
64,192,36409,1,0,0:0:0:0:
320,192,36496,1,0,0:0:0:0:
448,192,36496,1,0,0:0:0:0:
64,192,36584,1,0,0:0:0:0:
320,192,36671,1,0,0:0:0:0:
448,192,36759,1,0,0:0:0:0:
192,192,36847,1,0,0:0:0:0:
320,192,36847,1,0,0:0:0:0:
448,192,36934,1,0,0:0:0:0:
192,192,37022,1,0,0:0:0:0:
320,192,37110,1,0,0:0:0:0:
64,192,37197,1,0,0:0:0:0:
448,192,37197,1,0,0:0:0:0:
320,192,37285,1,0,0:0:0:0:
192,192,37373,1,0,0:0:0:0:
448,192,37460,1,0,0:0:0:0:
64,192,37548,1,0,0:0:0:0:
192,192,37548,1,0,0:0:0:0:
320,192,37636,1,0,0:0:0:0:
448,192,37723,1,0,0:0:0:0:
320,192,37811,1,0,0:0:0:0:
192,192,37898,1,0,0:0:0:0:
64,192,37898,1,0,0:0:0:0:
448,192,37986,1,0,0:0:0:0:
320,192,38074,1,0,0:0:0:0:
448,192,38161,1,0,0:0:0:0:
64,192,38249,1,0,0:0:0:0:
192,192,38249,1,0,0:0:0:0:
448,192,38337,1,0,0:0:0:0:
320,192,38424,1,0,0:0:0:0:
192,192,38512,1,0,0:0:0:0:
64,192,38600,1,0,0:0:0:0:
320,192,38687,1,0,0:0:0:0:
448,192,38775,1,0,0:0:0:0:
64,192,38863,1,0,0:0:0:0:
192,192,38950,1,0,0:0:0:0:
320,192,39038,1,0,0:0:0:0:
448,192,39125,1,0,0:0:0:0:
192,192,39213,1,0,0:0:0:0:
64,192,39301,1,0,0:0:0:0:
448,192,39388,1,0,0:0:0:0:
320,192,39476,1,0,0:0:0:0:
448,192,39564,1,0,0:0:0:0:
320,192,39651,1,0,0:0:0:0:
64,192,39651,1,0,0:0:0:0:
192,192,39739,1,0,0:0:0:0:
64,192,39827,1,0,0:0:0:0:
320,192,39914,1,0,0:0:0:0:
448,192,40002,1,0,0:0:0:0:
192,192,40002,1,0,0:0:0:0:
320,192,40089,1,0,0:0:0:0:
64,192,40177,1,0,0:0:0:0:
448,192,40265,1,0,0:0:0:0:
320,192,40352,1,0,0:0:0:0:
192,192,40352,1,0,0:0:0:0:
64,192,40440,1,0,0:0:0:0:
192,192,40528,1,0,0:0:0:0:
64,192,40615,1,0,0:0:0:0:
320,192,40703,1,0,0:0:0:0:
192,192,40703,1,0,0:0:0:0:
448,192,40791,1,0,0:0:0:0:
320,192,40878,1,0,0:0:0:0:
448,192,40966,1,0,0:0:0:0:
64,192,41054,1,0,0:0:0:0:
320,192,41054,1,0,0:0:0:0:
192,192,41141,1,0,0:0:0:0:
320,192,41229,1,0,0:0:0:0:
64,192,41316,1,0,0:0:0:0:
192,192,41404,1,0,0:0:0:0:
320,192,41492,1,0,0:0:0:0:
448,192,41579,1,0,0:0:0:0:
320,192,41667,1,0,0:0:0:0:
64,192,41755,1,0,0:0:0:0:
192,192,41842,1,0,0:0:0:0:
448,192,41930,1,0,0:0:0:0:
64,192,42018,1,0,0:0:0:0:
320,192,42105,1,0,0:0:0:0:
192,192,42193,1,0,0:0:0:0:
448,192,42281,1,0,0:0:0:0:
320,192,42368,1,0,0:0:0:0:
64,192,42456,1,0,0:0:0:0:
448,192,42456,1,0,0:0:0:0:
320,192,42543,1,0,0:0:0:0:
192,192,42631,1,0,0:0:0:0:
320,192,42719,1,0,0:0:0:0:
64,192,42806,1,0,0:0:0:0:
448,192,42806,1,0,0:0:0:0:
192,192,42894,1,0,0:0:0:0:
320,192,42982,1,0,0:0:0:0:
192,192,43069,1,0,0:0:0:0:
320,192,43157,1,0,0:0:0:0:
448,192,43157,1,0,0:0:0:0:
192,192,43245,1,0,0:0:0:0:
64,192,43332,1,0,0:0:0:0:
448,192,43420,1,0,0:0:0:0:
192,192,43508,1,0,0:0:0:0:
64,192,43508,1,0,0:0:0:0:
320,192,43595,1,0,0:0:0:0:
448,192,43683,1,0,0:0:0:0:
64,192,43770,1,0,0:0:0:0:
320,192,43858,1,0,0:0:0:0:
448,192,43858,1,0,0:0:0:0:
64,192,43946,1,0,0:0:0:0:
192,192,44033,1,0,0:0:0:0:
64,192,44121,1,0,0:0:0:0:
320,192,44209,1,0,0:0:0:0:
448,192,44209,1,0,0:0:0:0:
64,192,44296,1,0,0:0:0:0:
192,192,44384,1,0,0:0:0:0:
320,192,44472,1,0,0:0:0:0:
64,192,44559,1,0,0:0:0:0:
192,192,44559,1,0,0:0:0:0:
448,192,44647,1,0,0:0:0:0:
320,192,44735,1,0,0:0:0:0:
448,192,44822,1,0,0:0:0:0:
64,192,44910,1,0,0:0:0:0:
192,192,44910,1,0,0:0:0:0:
320,192,44997,1,0,0:0:0:0:
448,192,45085,1,0,0:0:0:0:
64,192,45173,1,0,0:0:0:0:
192,192,45260,1,0,0:0:0:0:
448,192,45260,1,0,0:0:0:0:
320,192,45348,1,0,0:0:0:0:
192,192,45436,1,0,0:0:0:0:
64,192,45523,1,0,0:0:0:0:
192,192,45611,1,0,0:0:0:0:
448,192,45611,1,0,0:0:0:0:
320,192,45699,1,0,0:0:0:0:
448,192,45786,1,0,0:0:0:0:
192,192,45874,1,0,0:0:0:0:
64,192,45962,1,0,0:0:0:0:
320,192,45962,1,0,0:0:0:0:
448,192,46049,1,0,0:0:0:0:
320,192,46137,1,0,0:0:0:0:
192,192,46224,1,0,0:0:0:0:
64,192,46312,1,0,0:0:0:0:
320,192,46312,1,0,0:0:0:0:
448,192,46400,1,0,0:0:0:0:
320,192,46487,1,0,0:0:0:0:
192,192,46575,1,0,0:0:0:0:
64,192,46663,1,0,0:0:0:0:
448,192,46663,1,0,0:0:0:0:
320,192,46750,1,0,0:0:0:0:
192,192,46838,1,0,0:0:0:0:
320,192,46926,1,0,0:0:0:0:
448,192,47013,1,0,0:0:0:0:
64,192,47101,1,0,0:0:0:0:
192,192,47189,1,0,0:0:0:0:
64,192,47276,1,0,0:0:0:0:
192,192,47364,1,0,0:0:0:0:
320,192,47451,1,0,0:0:0:0:
448,192,47539,1,0,0:0:0:0:
320,192,47627,1,0,0:0:0:0:
192,192,47714,1,0,0:0:0:0:
64,192,47802,1,0,0:0:0:0:
448,192,47890,1,0,0:0:0:0:
64,192,47977,1,0,0:0:0:0:
320,192,48065,1,0,0:0:0:0:
448,192,48065,1,0,0:0:0:0:
192,192,48153,1,0,0:0:0:0:
64,192,48240,1,0,0:0:0:0:
448,192,48328,1,0,0:0:0:0:
320,192,48416,1,0,0:0:0:0:
192,192,48503,1,0,0:0:0:0:
64,192,48591,1,0,0:0:0:0:
192,192,48678,1,0,0:0:0:0:
320,192,48766,1,0,0:0:0:0:
64,192,48766,1,0,0:0:0:0:
448,192,48854,1,0,0:0:0:0:
64,192,48941,1,0,0:0:0:0:
192,192,49029,1,0,0:0:0:0:
320,192,49117,1,0,0:0:0:0:
448,192,49204,1,0,0:0:0:0:
64,192,49292,1,0,0:0:0:0:
192,192,49380,1,0,0:0:0:0:
320,192,49467,1,0,0:0:0:0:
448,192,49467,1,0,0:0:0:0:
192,192,49555,1,0,0:0:0:0:
64,192,49643,1,0,0:0:0:0:
448,192,49730,1,0,0:0:0:0:
320,192,49818,1,0,0:0:0:0:
64,192,49905,1,0,0:0:0:0:
192,192,49993,1,0,0:0:0:0:
320,192,50081,1,0,0:0:0:0:
448,192,50168,1,0,0:0:0:0:
320,192,50256,1,0,0:0:0:0:
64,192,50344,1,0,0:0:0:0:
192,192,50431,1,0,0:0:0:0:
320,192,50519,1,0,0:0:0:0:
448,192,50607,1,0,0:0:0:0:
192,192,50694,1,0,0:0:0:0:
64,192,50782,1,0,0:0:0:0:
320,192,50870,1,0,0:0:0:0:
448,192,50870,1,0,0:0:0:0:
192,192,50957,1,0,0:0:0:0:
64,192,51045,1,0,0:0:0:0:
192,192,51132,1,0,0:0:0:0:
64,192,51220,1,0,0:0:0:0:
448,192,51220,1,0,0:0:0:0:
320,192,51308,1,0,0:0:0:0:
448,192,51395,1,0,0:0:0:0:
320,192,51483,1,0,0:0:0:0:
64,192,51571,1,0,0:0:0:0:
192,192,51571,1,0,0:0:0:0:
320,192,51658,1,0,0:0:0:0:
448,192,51746,1,0,0:0:0:0:
192,192,51834,1,0,0:0:0:0:
64,192,51921,1,0,0:0:0:0:
448,192,51921,1,0,0:0:0:0:
192,192,52009,1,0,0:0:0:0:
64,192,52097,1,0,0:0:0:0:
448,192,52184,1,0,0:0:0:0:
320,192,52272,1,0,0:0:0:0:
192,192,52272,1,0,0:0:0:0:
64,192,52359,1,0,0:0:0:0:
320,192,52447,1,0,0:0:0:0:
448,192,52535,1,0,0:0:0:0:
192,192,52622,1,0,0:0:0:0:
448,192,52710,1,0,0:0:0:0:
64,192,52798,1,0,0:0:0:0:
320,192,52885,1,0,0:0:0:0:
192,192,52973,1,0,0:0:0:0:
64,192,53061,1,0,0:0:0:0:
448,192,53148,1,0,0:0:0:0:
192,192,53236,1,0,0:0:0:0:
320,192,53324,1,0,0:0:0:0:
192,192,53411,1,0,0:0:0:0:
64,192,53499,1,0,0:0:0:0:
320,192,53586,1,0,0:0:0:0:
192,192,53674,1,0,0:0:0:0:
64,192,53674,1,0,0:0:0:0:
320,192,53762,1,0,0:0:0:0:
448,192,53849,1,0,0:0:0:0:
64,192,53937,1,0,0:0:0:0:
192,192,54025,1,0,0:0:0:0:
320,192,54025,1,0,0:0:0:0:
448,192,54112,1,0,0:0:0:0:
320,192,54200,1,0,0:0:0:0:
192,192,54288,1,0,0:0:0:0:
64,192,54375,1,0,0:0:0:0:
448,192,54375,1,0,0:0:0:0:
320,192,54463,1,0,0:0:0:0:
448,192,54550,1,0,0:0:0:0:
64,192,54638,1,0,0:0:0:0:
192,192,54726,1,0,0:0:0:0:
320,192,54726,1,0,0:0:0:0:
448,192,54813,1,0,0:0:0:0:
320,192,54901,1,0,0:0:0:0:
192,192,54989,1,0,0:0:0:0:
64,192,55076,1,0,0:0:0:0:
448,192,55076,1,0,0:0:0:0:
320,192,55164,1,0,0:0:0:0:
448,192,55252,1,0,0:0:0:0:
192,192,55339,1,0,0:0:0:0:
320,192,55427,1,0,0:0:0:0:
64,192,55515,1,0,0:0:0:0:
192,192,55602,1,0,0:0:0:0:
320,192,55690,1,0,0:0:0:0:
64,192,55777,1,0,0:0:0:0:
448,192,55777,1,0,0:0:0:0:
192,192,55865,1,0,0:0:0:0:
64,192,55953,1,0,0:0:0:0:
320,192,56040,1,0,0:0:0:0:
192,192,56128,1,0,0:0:0:0:
448,192,56216,1,0,0:0:0:0:
320,192,56303,1,0,0:0:0:0:
192,192,56391,1,0,0:0:0:0:
448,192,56479,1,0,0:0:0:0:
320,192,56479,1,0,0:0:0:0:
192,192,56566,1,0,0:0:0:0:
64,192,56654,1,0,0:0:0:0:
320,192,56742,1,0,0:0:0:0:
448,192,56829,1,0,0:0:0:0:
192,192,56917,1,0,0:0:0:0:
320,192,57004,1,0,0:0:0:0:
448,192,57092,1,0,0:0:0:0:
192,192,57180,1,0,0:0:0:0:
64,192,57180,1,0,0:0:0:0:
320,192,57267,1,0,0:0:0:0:
448,192,57355,1,0,0:0:0:0:
192,192,57443,1,0,0:0:0:0:
64,192,57530,1,0,0:0:0:0:
320,192,57618,1,0,0:0:0:0:
192,192,57706,1,0,0:0:0:0:
64,192,57793,1,0,0:0:0:0:
192,192,57881,1,0,0:0:0:0:
320,192,57881,1,0,0:0:0:0:
64,192,57969,1,0,0:0:0:0:
448,192,58056,1,0,0:0:0:0:
320,192,58144,1,0,0:0:0:0:
192,192,58231,1,0,0:0:0:0:
448,192,58319,1,0,0:0:0:0:
64,192,58407,1,0,0:0:0:0:
192,192,58494,1,0,0:0:0:0:
320,192,58582,1,0,0:0:0:0:
64,192,58670,1,0,0:0:0:0:
192,192,58757,1,0,0:0:0:0:
448,192,58845,1,0,0:0:0:0:
64,192,58933,1,0,0:0:0:0:
448,192,59020,1,0,0:0:0:0:
320,192,59108,1,0,0:0:0:0:
64,192,59196,1,0,0:0:0:0:
320,192,59283,1,0,0:0:0:0:
448,192,59283,1,0,0:0:0:0:
192,192,59371,1,0,0:0:0:0:
64,192,59458,1,0,0:0:0:0:
192,192,59546,1,0,0:0:0:0:
448,192,59546,1,0,0:0:0:0:
320,192,59634,1,0,0:0:0:0:
448,192,59721,1,0,0:0:0:0:
320,192,59809,1,0,0:0:0:0:
64,192,59809,1,0,0:0:0:0:
192,192,59897,1,0,0:0:0:0:
320,192,59984,1,0,0:0:0:0:
448,192,60072,1,0,0:0:0:0:
192,192,60160,5,0,0:0:0:0:
64,192,60247,1,0,0:0:0:0:
448,192,60335,1,0,0:0:0:0:
320,192,60423,1,0,0:0:0:0:
64,192,60510,1,0,0:0:0:0:
192,192,60598,1,0,0:0:0:0:
64,192,60685,5,0,0:0:0:0:
192,192,60773,1,0,0:0:0:0:
320,192,60861,1,0,0:0:0:0:
448,192,60948,1,0,0:0:0:0:
192,192,61036,1,0,0:0:0:0:
320,192,61124,1,0,0:0:0:0:
64,192,61211,1,0,0:0:0:0:
192,192,61299,1,0,0:0:0:0:
448,192,61387,1,0,0:0:0:0:
320,192,61474,1,0,0:0:0:0:
192,192,61562,1,0,0:0:0:0:
64,192,61650,1,0,0:0:0:0:
320,192,61737,1,0,0:0:0:0:
192,192,61825,1,0,0:0:0:0:
448,192,61912,1,0,0:0:0:0:
320,192,62000,1,0,0:0:0:0:
64,192,62088,128,0,62263:0:0:0:0:
192,192,62263,1,0,0:0:0:0:
320,192,62351,1,0,0:0:0:0:
448,192,62438,128,0,62614:0:0:0:0:
320,192,62614,1,0,0:0:0:0:
192,192,62701,1,0,0:0:0:0:
64,192,62789,128,0,63139:0:0:0:0:
320,192,63139,1,0,0:0:0:0:
448,192,63139,128,0,63490:0:0:0:0:
64,192,63490,1,0,0:0:0:0:
192,192,63490,1,0,0:0:0:0:
64,192,63607,1,0,0:0:0:0:
64,192,63724,1,0,0:0:0:0:
64,192,63841,1,0,0:0:0:0:
192,192,63957,1,0,0:0:0:0:
64,192,63957,1,0,0:0:0:0:
320,192,64074,1,0,0:0:0:0:
192,192,64074,1,0,0:0:0:0:
448,192,64191,1,0,0:0:0:0:
320,192,64191,1,0,0:0:0:0:
448,192,64308,1,0,0:0:0:0:
448,192,64425,1,0,0:0:0:0:
448,192,64542,1,0,0:0:0:0:
64,192,64659,1,0,0:0:0:0:
448,192,64659,1,0,0:0:0:0:
192,192,64775,1,0,0:0:0:0:
320,192,64775,1,0,0:0:0:0:
64,192,64892,1,0,0:0:0:0:
448,192,64892,1,0,0:0:0:0:
192,192,65009,1,0,0:0:0:0:
192,192,65126,1,0,0:0:0:0:
448,192,65243,1,0,0:0:0:0:
64,192,65243,1,0,0:0:0:0:
320,192,65360,1,0,0:0:0:0:
320,192,65477,1,0,0:0:0:0:
64,192,65593,1,0,0:0:0:0:
448,192,65593,1,0,0:0:0:0:
192,192,65710,1,0,0:0:0:0:
320,192,65827,1,0,0:0:0:0:
448,192,65944,1,0,0:0:0:0:
320,192,66061,1,0,0:0:0:0:
192,192,66178,1,0,0:0:0:0:
64,192,66295,1,0,0:0:0:0:
320,192,66295,1,0,0:0:0:0:
320,192,66411,1,0,0:0:0:0:
320,192,66528,1,0,0:0:0:0:
320,192,66645,1,0,0:0:0:0:
192,192,66762,1,0,0:0:0:0:
448,192,66762,1,0,0:0:0:0:
320,192,66879,1,0,0:0:0:0:
192,192,66879,1,0,0:0:0:0:
64,192,66996,1,0,0:0:0:0:
320,192,66996,1,0,0:0:0:0:
64,192,67113,1,0,0:0:0:0:
64,192,67229,1,0,0:0:0:0:
64,192,67346,1,0,0:0:0:0:
192,192,67346,1,0,0:0:0:0:
320,192,67463,1,0,0:0:0:0:
448,192,67463,1,0,0:0:0:0:
64,192,67580,1,0,0:0:0:0:
192,192,67580,1,0,0:0:0:0:
320,192,67697,1,0,0:0:0:0:
448,192,67697,1,0,0:0:0:0:
192,192,67814,1,0,0:0:0:0:
64,192,67931,1,0,0:0:0:0:
320,192,68047,1,0,0:0:0:0:
448,192,68047,1,0,0:0:0:0:
192,192,68164,1,0,0:0:0:0:
64,192,68281,1,0,0:0:0:0:
64,192,68398,1,0,0:0:0:0:
192,192,68398,1,0,0:0:0:0:
320,192,68515,1,0,0:0:0:0:
448,192,68632,1,0,0:0:0:0:
320,192,68749,1,0,0:0:0:0:
448,192,68749,1,0,0:0:0:0:
192,192,68865,1,0,0:0:0:0:
64,192,68982,1,0,0:0:0:0:
192,192,69099,1,0,0:0:0:0:
448,192,69099,1,0,0:0:0:0:
320,192,69216,1,0,0:0:0:0:
320,192,69333,1,0,0:0:0:0:
320,192,69450,1,0,0:0:0:0:
192,192,69567,1,0,0:0:0:0:
320,192,69567,1,0,0:0:0:0:
64,192,69683,1,0,0:0:0:0:
192,192,69683,1,0,0:0:0:0:
320,192,69800,1,0,0:0:0:0:
64,192,69800,1,0,0:0:0:0:
192,192,69917,1,0,0:0:0:0:
192,192,70034,1,0,0:0:0:0:
192,192,70151,1,0,0:0:0:0:
320,192,70151,1,0,0:0:0:0:
64,192,70268,1,0,0:0:0:0:
192,192,70268,1,0,0:0:0:0:
448,192,70385,1,0,0:0:0:0:
320,192,70385,1,0,0:0:0:0:
192,192,70501,1,0,0:0:0:0:
64,192,70618,1,0,0:0:0:0:
192,192,70735,1,0,0:0:0:0:
448,192,70735,1,0,0:0:0:0:
320,192,70852,1,0,0:0:0:0:
448,192,70969,1,0,0:0:0:0:
320,192,71086,1,0,0:0:0:0:
64,192,71086,1,0,0:0:0:0:
192,192,71203,1,0,0:0:0:0:
192,192,71319,1,0,0:0:0:0:
320,192,71436,1,0,0:0:0:0:
320,192,71553,1,0,0:0:0:0:
64,192,71670,1,0,0:0:0:0:
64,192,71787,1,0,0:0:0:0:
192,192,71904,1,0,0:0:0:0:
64,192,71904,1,0,0:0:0:0:
448,192,72021,1,0,0:0:0:0:
448,192,72137,1,0,0:0:0:0:
448,192,72254,1,0,0:0:0:0:
320,192,72254,1,0,0:0:0:0:
64,192,72371,1,0,0:0:0:0:
192,192,72371,1,0,0:0:0:0:
320,192,72488,1,0,0:0:0:0:
448,192,72488,1,0,0:0:0:0:
320,192,72605,1,0,0:0:0:0:
320,192,72722,1,0,0:0:0:0:
64,192,72839,1,0,0:0:0:0:
192,192,72839,1,0,0:0:0:0:
320,192,72955,1,0,0:0:0:0:
448,192,72955,1,0,0:0:0:0:
192,192,73072,1,0,0:0:0:0:
64,192,73072,1,0,0:0:0:0:
320,192,73189,1,0,0:0:0:0:
448,192,73189,1,0,0:0:0:0:
192,192,73306,1,0,0:0:0:0:
64,192,73306,1,0,0:0:0:0:
64,192,73423,1,0,0:0:0:0:
192,192,73423,1,0,0:0:0:0:
192,192,73540,1,0,0:0:0:0:
320,192,73540,1,0,0:0:0:0:
448,192,73657,1,0,0:0:0:0:
320,192,73657,1,0,0:0:0:0:
320,192,73773,1,0,0:0:0:0:
448,192,73773,1,0,0:0:0:0:
320,192,73890,1,0,0:0:0:0:
192,192,73890,1,0,0:0:0:0:
448,192,74007,1,0,0:0:0:0:
64,192,74007,1,0,0:0:0:0:
192,192,74124,1,0,0:0:0:0:
192,192,74241,1,0,0:0:0:0:
192,192,74358,1,0,0:0:0:0:
320,192,74358,1,0,0:0:0:0:
64,192,74475,1,0,0:0:0:0:
448,192,74591,1,0,0:0:0:0:
64,192,74708,1,0,0:0:0:0:
192,192,74825,1,0,0:0:0:0:
320,192,74942,1,0,0:0:0:0:
448,192,75059,1,0,0:0:0:0:
320,192,75059,1,0,0:0:0:0:
192,192,75176,1,0,0:0:0:0:
64,192,75176,1,0,0:0:0:0:
448,192,75293,1,0,0:0:0:0:
320,192,75293,1,0,0:0:0:0:
192,192,75409,1,0,0:0:0:0:
64,192,75409,1,0,0:0:0:0:
448,192,75760,1,0,0:0:0:0:
320,192,75848,1,0,0:0:0:0:
192,192,75935,1,0,0:0:0:0:
64,192,76023,1,0,0:0:0:0:
448,192,76111,1,0,0:0:0:0:
320,192,76111,1,0,0:0:0:0:
192,192,76111,1,0,0:0:0:0:
64,192,76461,1,0,0:0:0:0:
192,192,76461,1,0,0:0:0:0:
448,192,76461,1,0,0:0:0:0:
64,192,76812,1,0,0:0:0:0:
192,192,76812,1,0,0:0:0:0:
320,192,76812,1,0,0:0:0:0:
448,192,77162,1,0,0:0:0:0:
320,192,77162,1,0,0:0:0:0:
64,192,77338,1,0,0:0:0:0:
192,192,77338,1,0,0:0:0:0:
448,192,77513,1,0,0:0:0:0:
64,192,77513,1,0,0:0:0:0:
192,192,77600,1,0,0:0:0:0:
320,192,77688,1,0,0:0:0:0:
64,192,77688,1,0,0:0:0:0:
448,192,77776,1,0,0:0:0:0:
320,192,77863,1,0,0:0:0:0:
192,192,77863,1,0,0:0:0:0:
448,192,77951,1,0,0:0:0:0:
64,192,78039,1,0,0:0:0:0:
192,192,78039,1,0,0:0:0:0:
320,192,78126,1,0,0:0:0:0:
192,192,78214,1,0,0:0:0:0:
64,192,78214,1,0,0:0:0:0:
448,192,78302,1,0,0:0:0:0:
192,192,78389,1,0,0:0:0:0:
320,192,78389,1,0,0:0:0:0:
448,192,78477,1,0,0:0:0:0:
320,192,78565,1,0,0:0:0:0:
192,192,78565,1,0,0:0:0:0:
64,192,78652,1,0,0:0:0:0:
448,192,78740,1,0,0:0:0:0:
320,192,78740,1,0,0:0:0:0:
192,192,78827,1,0,0:0:0:0:
64,192,78915,1,0,0:0:0:0:
448,192,78915,1,0,0:0:0:0:
320,192,78915,1,0,0:0:0:0:
64,192,79266,1,0,0:0:0:0:
192,192,79266,1,0,0:0:0:0:
448,192,79266,1,0,0:0:0:0:
64,192,79616,1,0,0:0:0:0:
192,192,79616,1,0,0:0:0:0:
320,192,79616,1,0,0:0:0:0:
64,192,79967,1,0,0:0:0:0:
448,192,79967,1,0,0:0:0:0:
64,192,80142,1,0,0:0:0:0:
192,192,80142,1,0,0:0:0:0:
448,192,80317,1,0,0:0:0:0:
320,192,80317,1,0,0:0:0:0:
192,192,80405,1,0,0:0:0:0:
320,192,80493,1,0,0:0:0:0:
448,192,80493,1,0,0:0:0:0:
64,192,80580,1,0,0:0:0:0:
192,192,80668,1,0,0:0:0:0:
320,192,80668,1,0,0:0:0:0:
448,192,80756,1,0,0:0:0:0:
64,192,80843,1,0,0:0:0:0:
192,192,80843,1,0,0:0:0:0:
320,192,80931,1,0,0:0:0:0:
192,192,81019,1,0,0:0:0:0:
64,192,81019,1,0,0:0:0:0:
448,192,81019,1,0,0:0:0:0:
64,192,81369,1,0,0:0:0:0:
192,192,81369,1,0,0:0:0:0:
320,192,81457,1,0,0:0:0:0:
448,192,81544,1,0,0:0:0:0:
192,192,81632,1,0,0:0:0:0:
64,192,81720,1,0,0:0:0:0:
320,192,81720,1,0,0:0:0:0:
448,192,81720,1,0,0:0:0:0:
64,192,82070,1,0,0:0:0:0:
192,192,82070,1,0,0:0:0:0:
448,192,82070,1,0,0:0:0:0:
192,192,82421,1,0,0:0:0:0:
320,192,82421,1,0,0:0:0:0:
448,192,82421,1,0,0:0:0:0:
64,192,82771,1,0,0:0:0:0:
192,192,82771,1,0,0:0:0:0:
320,192,82947,1,0,0:0:0:0:
448,192,82947,1,0,0:0:0:0:
64,192,83122,1,0,0:0:0:0:
192,192,83122,1,0,0:0:0:0:
320,192,83122,1,0,0:0:0:0:
64,192,83472,1,0,0:0:0:0:
192,192,83472,1,0,0:0:0:0:
448,192,83472,1,0,0:0:0:0:
192,192,83823,1,0,0:0:0:0:
320,192,83823,1,0,0:0:0:0:
448,192,83823,1,0,0:0:0:0:
64,192,84174,1,0,0:0:0:0:
448,192,84174,1,0,0:0:0:0:
192,192,84349,1,0,0:0:0:0:
320,192,84349,1,0,0:0:0:0:
64,192,84524,1,0,0:0:0:0:
320,192,84699,1,0,0:0:0:0:
192,192,84875,1,0,0:0:0:0:
448,192,85050,1,0,0:0:0:0:
320,192,85225,1,0,0:0:0:0:
64,192,85401,1,0,0:0:0:0:
448,192,85576,1,0,0:0:0:0:
192,192,85751,1,0,0:0:0:0:
320,192,85926,1,0,0:0:0:0:
448,192,85926,1,0,0:0:0:0:
192,192,86014,1,0,0:0:0:0:
64,192,86102,1,0,0:0:0:0:
448,192,86189,1,0,0:0:0:0:
192,192,86277,1,0,0:0:0:0:
320,192,86277,1,0,0:0:0:0:
448,192,86365,1,0,0:0:0:0:
64,192,86452,1,0,0:0:0:0:
320,192,86540,1,0,0:0:0:0:
192,192,86628,1,0,0:0:0:0:
64,192,86628,1,0,0:0:0:0:
320,192,86715,1,0,0:0:0:0:
448,192,86803,1,0,0:0:0:0:
192,192,86891,1,0,0:0:0:0:
64,192,86978,1,0,0:0:0:0:
448,192,86978,1,0,0:0:0:0:
320,192,87066,1,0,0:0:0:0:
64,192,87153,1,0,0:0:0:0:
448,192,87241,1,0,0:0:0:0:
192,192,87329,1,0,0:0:0:0:
320,192,87329,1,0,0:0:0:0:
64,192,87416,1,0,0:0:0:0:
192,192,87504,1,0,0:0:0:0:
320,192,87592,1,0,0:0:0:0:
448,192,87679,1,0,0:0:0:0:
64,192,87679,1,0,0:0:0:0:
192,192,87767,1,0,0:0:0:0:
320,192,87855,1,0,0:0:0:0:
448,192,87942,1,0,0:0:0:0:
192,192,88030,1,0,0:0:0:0:
320,192,88030,1,0,0:0:0:0:
448,192,88118,1,0,0:0:0:0:
320,192,88205,1,0,0:0:0:0:
192,192,88293,1,0,0:0:0:0:
64,192,88380,1,0,0:0:0:0:
448,192,88380,1,0,0:0:0:0:
320,192,88468,1,0,0:0:0:0:
192,192,88556,1,0,0:0:0:0:
64,192,88643,1,0,0:0:0:0:
320,192,88731,1,0,0:0:0:0:
192,192,88731,1,0,0:0:0:0:
448,192,88819,1,0,0:0:0:0:
64,192,88906,1,0,0:0:0:0:
192,192,88994,1,0,0:0:0:0:
320,192,89082,1,0,0:0:0:0:
448,192,89082,1,0,0:0:0:0:
192,192,89169,1,0,0:0:0:0:
448,192,89257,1,0,0:0:0:0:
320,192,89345,1,0,0:0:0:0:
64,192,89432,1,0,0:0:0:0:
192,192,89432,1,0,0:0:0:0:
320,192,89520,1,0,0:0:0:0:
192,192,89607,1,0,0:0:0:0:
64,192,89695,1,0,0:0:0:0:
320,192,89783,1,0,0:0:0:0:
448,192,89783,1,0,0:0:0:0:
192,192,89870,1,0,0:0:0:0:
64,192,89958,1,0,0:0:0:0:
448,192,90046,1,0,0:0:0:0:
320,192,90133,1,0,0:0:0:0:
192,192,90133,1,0,0:0:0:0:
64,192,90221,1,0,0:0:0:0:
192,192,90309,1,0,0:0:0:0:
320,192,90396,1,0,0:0:0:0:
448,192,90484,1,0,0:0:0:0:
64,192,90484,1,0,0:0:0:0:
320,192,90572,1,0,0:0:0:0:
192,192,90659,1,0,0:0:0:0:
64,192,90747,1,0,0:0:0:0:
192,192,90834,1,0,0:0:0:0:
320,192,90834,1,0,0:0:0:0:
448,192,90922,1,0,0:0:0:0:
320,192,91010,1,0,0:0:0:0:
192,192,91097,1,0,0:0:0:0:
64,192,91185,1,0,0:0:0:0:
448,192,91185,1,0,0:0:0:0:
192,192,91273,1,0,0:0:0:0:
320,192,91360,1,0,0:0:0:0:
448,192,91448,1,0,0:0:0:0:
192,192,91536,1,0,0:0:0:0:
64,192,91536,1,0,0:0:0:0:
320,192,91623,1,0,0:0:0:0:
192,192,91711,1,0,0:0:0:0:
448,192,91799,1,0,0:0:0:0:
320,192,91886,1,0,0:0:0:0:
192,192,91886,1,0,0:0:0:0:
64,192,91974,1,0,0:0:0:0:
320,192,92061,1,0,0:0:0:0:
192,192,92149,1,0,0:0:0:0:
320,192,92237,1,0,0:0:0:0:
448,192,92237,1,0,0:0:0:0:
192,192,92324,1,0,0:0:0:0:
64,192,92412,1,0,0:0:0:0:
192,192,92500,1,0,0:0:0:0:
320,192,92587,1,0,0:0:0:0:
448,192,92587,1,0,0:0:0:0:
64,192,92675,1,0,0:0:0:0:
192,192,92763,1,0,0:0:0:0:
64,192,92850,1,0,0:0:0:0:
192,192,92938,1,0,0:0:0:0:
320,192,92938,1,0,0:0:0:0:
448,192,93026,1,0,0:0:0:0:
192,192,93113,1,0,0:0:0:0:
64,192,93201,1,0,0:0:0:0:
448,192,93288,1,0,0:0:0:0:
192,192,93288,1,0,0:0:0:0:
64,192,93376,1,0,0:0:0:0:
320,192,93464,1,0,0:0:0:0:
448,192,93551,1,0,0:0:0:0:
192,192,93639,1,0,0:0:0:0:
320,192,93639,1,0,0:0:0:0:
64,192,93727,1,0,0:0:0:0:
320,192,93814,1,0,0:0:0:0:
192,192,93902,1,0,0:0:0:0:
64,192,93990,1,0,0:0:0:0:
320,192,93990,1,0,0:0:0:0:
448,192,94077,1,0,0:0:0:0:
192,192,94165,1,0,0:0:0:0:
320,192,94253,1,0,0:0:0:0:
64,192,94340,1,0,0:0:0:0:
448,192,94340,1,0,0:0:0:0:
320,192,94428,1,0,0:0:0:0:
192,192,94515,1,0,0:0:0:0:
320,192,94603,1,0,0:0:0:0:
64,192,94691,1,0,0:0:0:0:
192,192,94691,1,0,0:0:0:0:
448,192,94778,1,0,0:0:0:0:
320,192,94866,1,0,0:0:0:0:
448,192,94954,1,0,0:0:0:0:
320,192,95041,1,0,0:0:0:0:
64,192,95041,1,0,0:0:0:0:
192,192,95129,1,0,0:0:0:0:
448,192,95217,1,0,0:0:0:0:
192,192,95304,1,0,0:0:0:0:
448,192,95392,1,0,0:0:0:0:
320,192,95392,1,0,0:0:0:0:
64,192,95480,1,0,0:0:0:0:
192,192,95567,1,0,0:0:0:0:
64,192,95655,1,0,0:0:0:0:
192,192,95742,1,0,0:0:0:0:
448,192,95742,1,0,0:0:0:0:
64,192,95830,1,0,0:0:0:0:
320,192,95918,1,0,0:0:0:0:
64,192,96005,1,0,0:0:0:0:
192,192,96093,1,0,0:0:0:0:
320,192,96093,1,0,0:0:0:0:
448,192,96181,1,0,0:0:0:0:
64,192,96268,1,0,0:0:0:0:
448,192,96356,1,0,0:0:0:0:
192,192,96444,1,0,0:0:0:0:
64,192,96444,1,0,0:0:0:0:
448,192,96531,1,0,0:0:0:0:
320,192,96619,1,0,0:0:0:0:
448,192,96707,1,0,0:0:0:0:
320,192,96794,1,0,0:0:0:0:
192,192,96794,1,0,0:0:0:0:
64,192,96882,1,0,0:0:0:0:
192,192,96969,1,0,0:0:0:0:
320,192,97057,1,0,0:0:0:0:
192,192,97145,1,0,0:0:0:0:
448,192,97145,1,0,0:0:0:0:
64,192,97232,1,0,0:0:0:0:
192,192,97320,1,0,0:0:0:0:
320,192,97408,1,0,0:0:0:0:
192,192,97495,1,0,0:0:0:0:
64,192,97495,1,0,0:0:0:0:
320,192,97583,1,0,0:0:0:0:
448,192,97671,1,0,0:0:0:0:
192,192,97758,1,0,0:0:0:0:
64,192,97846,1,0,0:0:0:0:
320,192,97846,1,0,0:0:0:0:
192,192,97933,1,0,0:0:0:0:
64,192,98021,1,0,0:0:0:0:
192,192,98109,1,0,0:0:0:0:
448,192,98196,1,0,0:0:0:0:
320,192,98196,1,0,0:0:0:0:
192,192,98284,1,0,0:0:0:0:
448,192,98372,1,0,0:0:0:0:
320,192,98459,1,0,0:0:0:0:
64,192,98547,1,0,0:0:0:0:
192,192,98547,1,0,0:0:0:0:
320,192,98635,1,0,0:0:0:0:
448,192,98722,1,0,0:0:0:0:
192,192,98810,1,0,0:0:0:0:
320,192,98898,1,0,0:0:0:0:
448,192,98898,1,0,0:0:0:0:
192,192,98985,1,0,0:0:0:0:
64,192,99073,1,0,0:0:0:0:
320,192,99160,1,0,0:0:0:0:
192,192,99248,1,0,0:0:0:0:
448,192,99248,1,0,0:0:0:0:
320,192,99336,1,0,0:0:0:0:
448,192,99423,1,0,0:0:0:0:
192,192,99511,1,0,0:0:0:0:
64,192,99599,1,0,0:0:0:0:
320,192,99599,1,0,0:0:0:0:
192,192,99686,1,0,0:0:0:0:
64,192,99774,1,0,0:0:0:0:
320,192,99862,1,0,0:0:0:0:
192,192,99949,1,0,0:0:0:0:
64,192,99949,1,0,0:0:0:0:
320,192,100037,1,0,0:0:0:0:
448,192,100125,1,0,0:0:0:0:
320,192,100212,1,0,0:0:0:0:
64,192,100300,1,0,0:0:0:0:
192,192,100300,1,0,0:0:0:0:
448,192,100387,1,0,0:0:0:0:
192,192,100475,1,0,0:0:0:0:
64,192,100563,1,0,0:0:0:0:
192,192,100650,1,0,0:0:0:0:
320,192,100650,1,0,0:0:0:0:
448,192,100738,1,0,0:0:0:0:
64,192,100826,1,0,0:0:0:0:
448,192,100913,1,0,0:0:0:0:
64,192,101001,1,0,0:0:0:0:
320,192,101001,1,0,0:0:0:0:
448,192,101089,1,0,0:0:0:0:
192,192,101176,1,0,0:0:0:0:
320,192,101264,1,0,0:0:0:0:
192,192,101352,1,0,0:0:0:0:
448,192,101352,1,0,0:0:0:0:
320,192,101439,1,0,0:0:0:0:
192,192,101527,1,0,0:0:0:0:
320,192,101614,1,0,0:0:0:0:
192,192,101702,1,0,0:0:0:0:
448,192,101702,1,0,0:0:0:0:
320,192,101790,1,0,0:0:0:0:
448,192,101877,1,0,0:0:0:0:
192,192,101965,1,0,0:0:0:0:
64,192,102053,1,0,0:0:0:0:
320,192,102053,1,0,0:0:0:0:
192,192,102140,1,0,0:0:0:0:
64,192,102228,1,0,0:0:0:0:
192,192,102316,1,0,0:0:0:0:
64,192,102403,1,0,0:0:0:0:
320,192,102403,1,0,0:0:0:0:
192,192,102491,1,0,0:0:0:0:
320,192,102579,1,0,0:0:0:0:
448,192,102666,1,0,0:0:0:0:
320,192,102754,1,0,0:0:0:0:
192,192,102754,1,0,0:0:0:0:
64,192,102841,1,0,0:0:0:0:
448,192,102929,1,0,0:0:0:0:
192,192,103017,1,0,0:0:0:0:
64,192,103104,1,0,0:0:0:0:
448,192,103104,1,0,0:0:0:0:
320,192,103192,1,0,0:0:0:0:
192,192,103280,1,0,0:0:0:0:
64,192,103367,1,0,0:0:0:0:
320,192,103455,1,0,0:0:0:0:
448,192,103455,1,0,0:0:0:0:
192,192,103543,1,0,0:0:0:0:
320,192,103630,1,0,0:0:0:0:
448,192,103718,1,0,0:0:0:0:
64,192,103806,1,0,0:0:0:0:
192,192,103806,1,0,0:0:0:0:
448,192,103893,1,0,0:0:0:0:
320,192,103981,1,0,0:0:0:0:
192,192,104068,1,0,0:0:0:0:
320,192,104156,1,0,0:0:0:0:
448,192,104156,1,0,0:0:0:0:
64,192,104244,1,0,0:0:0:0:
448,192,104331,1,0,0:0:0:0:
320,192,104419,1,0,0:0:0:0:
192,192,104507,1,0,0:0:0:0:
448,192,104507,1,0,0:0:0:0:
320,192,104594,1,0,0:0:0:0:
192,192,104682,1,0,0:0:0:0:
320,192,104770,1,0,0:0:0:0:
64,192,104857,1,0,0:0:0:0:
192,192,104857,1,0,0:0:0:0:
448,192,104945,1,0,0:0:0:0:
192,192,105033,1,0,0:0:0:0:
320,192,105120,1,0,0:0:0:0:
192,192,105208,1,0,0:0:0:0:
448,192,105208,1,0,0:0:0:0:
320,192,105295,1,0,0:0:0:0:
448,192,105383,1,0,0:0:0:0:
320,192,105471,1,0,0:0:0:0:
64,192,105558,1,0,0:0:0:0:
448,192,105558,1,0,0:0:0:0:
320,192,105646,1,0,0:0:0:0:
192,192,105734,1,0,0:0:0:0:
320,192,105821,1,0,0:0:0:0:
448,192,105909,1,0,0:0:0:0:
192,192,105909,1,0,0:0:0:0:
320,192,105997,1,0,0:0:0:0:
64,192,106084,1,0,0:0:0:0:
192,192,106172,1,0,0:0:0:0:
320,192,106260,1,0,0:0:0:0:
448,192,106260,1,0,0:0:0:0:
192,192,106347,1,0,0:0:0:0:
64,192,106435,1,0,0:0:0:0:
320,192,106522,1,0,0:0:0:0:
448,192,106610,1,0,0:0:0:0:
192,192,106610,1,0,0:0:0:0:
320,192,106698,1,0,0:0:0:0:
448,192,106785,1,0,0:0:0:0:
320,192,106873,1,0,0:0:0:0:
64,192,106961,1,0,0:0:0:0:
448,192,106961,1,0,0:0:0:0:
192,192,107048,1,0,0:0:0:0:
448,192,107136,1,0,0:0:0:0:
192,192,107224,1,0,0:0:0:0:
64,192,107311,1,0,0:0:0:0:
320,192,107311,1,0,0:0:0:0:
448,192,107399,1,0,0:0:0:0:
64,192,107487,1,0,0:0:0:0:
320,192,107574,1,0,0:0:0:0:
64,192,107662,1,0,0:0:0:0:
192,192,107662,1,0,0:0:0:0:
320,192,107749,1,0,0:0:0:0:
192,192,107837,1,0,0:0:0:0:
64,192,107925,1,0,0:0:0:0:
448,192,108012,1,0,0:0:0:0:
192,192,108012,1,0,0:0:0:0:
320,192,108100,1,0,0:0:0:0:
192,192,108188,1,0,0:0:0:0:
64,192,108275,1,0,0:0:0:0:
192,192,108363,1,0,0:0:0:0:
320,192,108363,1,0,0:0:0:0:
64,192,108451,1,0,0:0:0:0:
448,192,108538,1,0,0:0:0:0:
64,192,108626,1,0,0:0:0:0:
192,192,108714,1,0,0:0:0:0:
448,192,108714,1,0,0:0:0:0:
320,192,108801,1,0,0:0:0:0:
448,192,108889,1,0,0:0:0:0:
320,192,108976,1,0,0:0:0:0:
64,192,109064,1,0,0:0:0:0:
192,192,109064,1,0,0:0:0:0:
320,192,109152,1,0,0:0:0:0:
448,192,109239,1,0,0:0:0:0:
320,192,109327,1,0,0:0:0:0:
448,192,109415,1,0,0:0:0:0:
192,192,109415,1,0,0:0:0:0:
320,192,109502,1,0,0:0:0:0:
192,192,109590,1,0,0:0:0:0:
64,192,109678,1,0,0:0:0:0:
320,192,109765,1,0,0:0:0:0:
448,192,109765,1,0,0:0:0:0:
192,192,109853,1,0,0:0:0:0:
64,192,109941,1,0,0:0:0:0:
320,192,109941,1,0,0:0:0:0:
448,192,110028,1,0,0:0:0:0:
192,192,110116,1,0,0:0:0:0:
320,192,110116,1,0,0:0:0:0:
64,192,110203,1,0,0:0:0:0:
192,192,110291,1,0,0:0:0:0:
448,192,110291,1,0,0:0:0:0:
320,192,110379,1,0,0:0:0:0:
64,192,110466,1,0,0:0:0:0:
192,192,110466,1,0,0:0:0:0:
320,192,110554,1,0,0:0:0:0:
448,192,110642,1,0,0:0:0:0:
64,192,110729,1,0,0:0:0:0:
192,192,110817,1,0,0:0:0:0:
448,192,110817,1,0,0:0:0:0:
320,192,110992,1,0,0:0:0:0:
192,192,111080,1,0,0:0:0:0:
64,192,111168,1,0,0:0:0:0:
320,192,111168,1,0,0:0:0:0:
448,192,111168,1,0,0:0:0:0:
192,192,111255,1,0,0:0:0:0:
448,192,111343,1,0,0:0:0:0:
64,192,111430,1,0,0:0:0:0:
320,192,111518,1,0,0:0:0:0:
192,192,111606,1,0,0:0:0:0:
448,192,111693,1,0,0:0:0:0:
320,192,111781,1,0,0:0:0:0:
64,192,111869,1,0,0:0:0:0:
448,192,111956,1,0,0:0:0:0:
192,192,112044,1,0,0:0:0:0:
320,192,112132,1,0,0:0:0:0:
64,192,112219,1,0,0:0:0:0:
448,192,112307,1,0,0:0:0:0:
192,192,112394,1,0,0:0:0:0:
448,192,112482,1,0,0:0:0:0:
320,192,112570,128,0,112745:0:0:0:0:
448,192,112745,1,0,0:0:0:0:
64,192,112833,1,0,0:0:0:0:
192,192,112920,128,0,113096:0:0:0:0:
192,192,113096,1,0,0:0:0:0:
64,192,113096,1,0,0:0:0:0:
448,192,113183,1,0,0:0:0:0:
320,192,113271,128,0,113621:0:0:0:0:
64,192,113621,128,0,113972:0:0:0:0:
448,192,113621,128,0,113972:0:0:0:0:
192,192,113972,1,0,0:0:0:0:
320,192,113972,1,0,0:0:0:0:
64,192,114060,1,0,0:0:0:0:
448,192,114147,1,0,0:0:0:0:
64,192,114235,1,0,0:0:0:0:
192,192,114323,1,0,0:0:0:0:
448,192,114323,1,0,0:0:0:0:
64,192,114410,1,0,0:0:0:0:
320,192,114498,1,0,0:0:0:0:
64,192,114586,1,0,0:0:0:0:
320,192,114673,1,0,0:0:0:0:
448,192,114673,1,0,0:0:0:0:
192,192,114761,1,0,0:0:0:0:
64,192,114848,1,0,0:0:0:0:
192,192,114936,1,0,0:0:0:0:
64,192,115024,1,0,0:0:0:0:
320,192,115024,1,0,0:0:0:0:
448,192,115111,1,0,0:0:0:0:
192,192,115199,1,0,0:0:0:0:
448,192,115287,1,0,0:0:0:0:
64,192,115374,1,0,0:0:0:0:
192,192,115374,1,0,0:0:0:0:
320,192,115462,1,0,0:0:0:0:
448,192,115550,1,0,0:0:0:0:
320,192,115637,1,0,0:0:0:0:
192,192,115725,1,0,0:0:0:0:
448,192,115725,1,0,0:0:0:0:
64,192,115813,1,0,0:0:0:0:
448,192,115900,1,0,0:0:0:0:
64,192,115988,1,0,0:0:0:0:
192,192,116075,1,0,0:0:0:0:
320,192,116075,1,0,0:0:0:0:
448,192,116163,1,0,0:0:0:0:
64,192,116251,1,0,0:0:0:0:
448,192,116338,1,0,0:0:0:0:
320,192,116426,1,0,0:0:0:0:
64,192,116426,1,0,0:0:0:0:
192,192,116514,1,0,0:0:0:0:
64,192,116601,1,0,0:0:0:0:
192,192,116689,1,0,0:0:0:0:
320,192,116777,1,0,0:0:0:0:
448,192,116777,1,0,0:0:0:0:
64,192,116864,1,0,0:0:0:0:
192,192,116952,1,0,0:0:0:0:
64,192,117040,1,0,0:0:0:0:
192,192,117127,1,0,0:0:0:0:
448,192,117127,1,0,0:0:0:0:
320,192,117215,1,0,0:0:0:0:
64,192,117302,1,0,0:0:0:0:
320,192,117390,1,0,0:0:0:0:
192,192,117478,1,0,0:0:0:0:
64,192,117478,1,0,0:0:0:0:
320,192,117565,1,0,0:0:0:0:
448,192,117653,1,0,0:0:0:0:
320,192,117741,1,0,0:0:0:0:
192,192,117828,1,0,0:0:0:0:
448,192,117828,1,0,0:0:0:0:
320,192,117916,1,0,0:0:0:0:
64,192,118004,1,0,0:0:0:0:
320,192,118091,1,0,0:0:0:0:
192,192,118179,1,0,0:0:0:0:
64,192,118179,1,0,0:0:0:0:
448,192,118267,1,0,0:0:0:0:
320,192,118354,1,0,0:0:0:0:
192,192,118442,1,0,0:0:0:0:
64,192,118529,1,0,0:0:0:0:
320,192,118529,1,0,0:0:0:0:
192,192,118617,1,0,0:0:0:0:
320,192,118705,1,0,0:0:0:0:
448,192,118792,1,0,0:0:0:0:
64,192,118880,1,0,0:0:0:0:
192,192,118880,1,0,0:0:0:0:
448,192,118968,1,0,0:0:0:0:
320,192,118968,1,0,0:0:0:0:
448,192,119231,1,0,0:0:0:0:
320,192,119231,1,0,0:0:0:0:
192,192,119318,1,0,0:0:0:0:
64,192,119318,1,0,0:0:0:0:
192,192,119581,1,0,0:0:0:0:
64,192,119581,1,0,0:0:0:0:
320,192,119669,1,0,0:0:0:0:
448,192,119756,1,0,0:0:0:0:
320,192,119844,1,0,0:0:0:0:
192,192,119932,1,0,0:0:0:0:
448,192,119932,1,0,0:0:0:0:
64,192,120019,1,0,0:0:0:0:
320,192,120107,1,0,0:0:0:0:
64,192,120195,1,0,0:0:0:0:
320,192,120282,1,0,0:0:0:0:
448,192,120282,1,0,0:0:0:0:
192,192,120370,1,0,0:0:0:0:
64,192,120458,1,0,0:0:0:0:
192,192,120545,1,0,0:0:0:0:
64,192,120633,1,0,0:0:0:0:
320,192,120633,1,0,0:0:0:0:
192,192,120721,1,0,0:0:0:0:
448,192,120808,1,0,0:0:0:0:
192,192,120896,1,0,0:0:0:0:
320,192,120983,1,0,0:0:0:0:
448,192,120983,1,0,0:0:0:0:
192,192,121071,1,0,0:0:0:0:
64,192,121159,1,0,0:0:0:0:
192,192,121246,1,0,0:0:0:0:
64,192,121334,1,0,0:0:0:0:
320,192,121334,1,0,0:0:0:0:
448,192,121422,1,0,0:0:0:0:
64,192,121509,1,0,0:0:0:0:
448,192,121597,1,0,0:0:0:0:
320,192,121685,1,0,0:0:0:0:
192,192,121685,1,0,0:0:0:0:
64,192,121772,1,0,0:0:0:0:
448,192,121860,1,0,0:0:0:0:
64,192,121948,1,0,0:0:0:0:
192,192,122035,1,0,0:0:0:0:
448,192,122035,1,0,0:0:0:0:
320,192,122123,1,0,0:0:0:0:
448,192,122210,1,0,0:0:0:0:
320,192,122298,1,0,0:0:0:0:
192,192,122386,1,0,0:0:0:0:
64,192,122386,1,0,0:0:0:0:
448,192,122473,1,0,0:0:0:0:
320,192,122561,1,0,0:0:0:0:
448,192,122649,1,0,0:0:0:0:
64,192,122736,1,0,0:0:0:0:
320,192,122736,1,0,0:0:0:0:
192,192,122824,1,0,0:0:0:0:
448,192,122912,1,0,0:0:0:0:
192,192,122999,1,0,0:0:0:0:
320,192,123087,1,0,0:0:0:0:
448,192,123087,1,0,0:0:0:0:
192,192,123175,1,0,0:0:0:0:
64,192,123262,1,0,0:0:0:0:
192,192,123350,1,0,0:0:0:0:
64,192,123437,1,0,0:0:0:0:
320,192,123437,1,0,0:0:0:0:
192,192,123525,1,0,0:0:0:0:
448,192,123613,1,0,0:0:0:0:
192,192,123700,1,0,0:0:0:0:
320,192,123788,1,0,0:0:0:0:
448,192,123788,1,0,0:0:0:0:
192,192,123876,1,0,0:0:0:0:
64,192,123963,1,0,0:0:0:0:
192,192,124051,1,0,0:0:0:0:
64,192,124139,1,0,0:0:0:0:
320,192,124139,1,0,0:0:0:0:
448,192,124226,1,0,0:0:0:0:
320,192,124314,1,0,0:0:0:0:
192,192,124402,1,0,0:0:0:0:
320,192,124489,1,0,0:0:0:0:
448,192,124489,1,0,0:0:0:0:
64,192,124489,1,0,0:0:0:0:
64,192,124840,1,0,0:0:0:0:
448,192,124927,1,0,0:0:0:0:
64,192,125015,1,0,0:0:0:0:
448,192,125103,1,0,0:0:0:0:
64,192,125190,1,0,0:0:0:0:
448,192,125190,1,0,0:0:0:0:
192,192,125234,1,0,0:0:0:0:
320,192,125278,1,0,0:0:0:0:
448,192,125322,1,0,0:0:0:0:
64,192,125366,1,0,0:0:0:0:
192,192,125409,1,0,0:0:0:0:
320,192,125453,1,0,0:0:0:0:
448,192,125497,1,0,0:0:0:0:
192,192,125541,1,0,0:0:0:0:
320,192,125541,1,0,0:0:0:0:
64,192,125585,1,0,0:0:0:0:
448,192,125629,1,0,0:0:0:0:
320,192,125672,1,0,0:0:0:0:
192,192,125716,1,0,0:0:0:0:
64,192,125760,1,0,0:0:0:0:
448,192,125804,1,0,0:0:0:0:
320,192,125848,1,0,0:0:0:0:
448,192,125891,1,0,0:0:0:0:
192,192,125891,1,0,0:0:0:0:
64,192,125935,1,0,0:0:0:0:
192,192,125979,1,0,0:0:0:0:
320,192,126023,1,0,0:0:0:0:
448,192,126067,1,0,0:0:0:0:
64,192,126111,1,0,0:0:0:0:
192,192,126154,1,0,0:0:0:0:
64,192,126198,1,0,0:0:0:0:
320,192,126242,1,0,0:0:0:0:
448,192,126242,1,0,0:0:0:0:
192,192,126417,1,0,0:0:0:0:
320,192,126505,1,0,0:0:0:0:
192,192,126593,1,0,0:0:0:0:
448,192,126593,1,0,0:0:0:0:
320,192,126768,1,0,0:0:0:0:
192,192,126855,1,0,0:0:0:0:
64,192,126943,1,0,0:0:0:0:
320,192,126943,1,0,0:0:0:0:
448,192,127118,1,0,0:0:0:0:
320,192,127118,1,0,0:0:0:0:
192,192,127118,1,0,0:0:0:0:
64,192,127294,1,0,0:0:0:0:
192,192,127294,1,0,0:0:0:0:
320,192,127294,1,0,0:0:0:0:
448,192,127644,1,0,0:0:0:0:
64,192,127644,1,0,0:0:0:0:
448,192,127995,1,0,0:0:0:0:
192,192,127995,1,0,0:0:0:0:
320,192,128039,1,0,0:0:0:0:
192,192,128082,1,0,0:0:0:0:
64,192,128126,1,0,0:0:0:0:
320,192,128170,1,0,0:0:0:0:
448,192,128214,1,0,0:0:0:0:
64,192,128258,1,0,0:0:0:0:
192,192,128302,1,0,0:0:0:0:
64,192,128345,1,0,0:0:0:0:
448,192,128345,1,0,0:0:0:0:
192,192,128389,1,0,0:0:0:0:
320,192,128433,1,0,0:0:0:0:
448,192,128477,1,0,0:0:0:0:
192,192,128521,1,0,0:0:0:0:
64,192,128565,1,0,0:0:0:0:
448,192,128608,1,0,0:0:0:0:
320,192,128652,1,0,0:0:0:0:
64,192,128696,1,0,0:0:0:0:
192,192,128696,1,0,0:0:0:0:
448,192,128740,1,0,0:0:0:0:
320,192,128784,1,0,0:0:0:0:
192,192,128827,1,0,0:0:0:0:
448,192,128871,1,0,0:0:0:0:
64,192,128915,1,0,0:0:0:0:
192,192,128959,1,0,0:0:0:0:
320,192,129003,1,0,0:0:0:0:
448,192,129047,1,0,0:0:0:0:
192,192,129047,1,0,0:0:0:0:
448,192,129222,1,0,0:0:0:0:
320,192,129309,1,0,0:0:0:0:
192,192,129397,1,0,0:0:0:0:
64,192,129397,1,0,0:0:0:0:
64,192,129572,1,0,0:0:0:0:
192,192,129660,1,0,0:0:0:0:
320,192,129748,1,0,0:0:0:0:
448,192,129748,1,0,0:0:0:0:
64,192,129923,1,0,0:0:0:0:
320,192,129923,1,0,0:0:0:0:
448,192,129923,1,0,0:0:0:0:
64,192,130098,1,0,0:0:0:0:
192,192,130098,1,0,0:0:0:0:
448,192,130098,1,0,0:0:0:0:
320,192,130624,1,0,0:0:0:0:
192,192,130712,1,0,0:0:0:0:
448,192,130799,1,0,0:0:0:0:
64,192,130799,1,0,0:0:0:0:
192,192,130887,1,0,0:0:0:0:
64,192,130975,1,0,0:0:0:0:
448,192,130975,1,0,0:0:0:0:
320,192,131062,1,0,0:0:0:0:
64,192,131150,1,0,0:0:0:0:
448,192,131150,1,0,0:0:0:0:
320,192,131238,1,0,0:0:0:0:
192,192,131325,1,0,0:0:0:0:
64,192,131413,1,0,0:0:0:0:
320,192,131501,1,0,0:0:0:0:
448,192,131501,1,0,0:0:0:0:
192,192,131588,1,0,0:0:0:0:
320,192,131676,1,0,0:0:0:0:
448,192,131676,1,0,0:0:0:0:
64,192,131763,1,0,0:0:0:0:
320,192,131851,1,0,0:0:0:0:
448,192,131851,1,0,0:0:0:0:
192,192,131939,1,0,0:0:0:0:
320,192,132026,1,0,0:0:0:0:
448,192,132114,1,0,0:0:0:0:
64,192,132202,1,0,0:0:0:0:
192,192,132202,1,0,0:0:0:0:
320,192,132289,1,0,0:0:0:0:
64,192,132377,1,0,0:0:0:0:
192,192,132377,1,0,0:0:0:0:
448,192,132465,1,0,0:0:0:0:
64,192,132552,1,0,0:0:0:0:
192,192,132552,1,0,0:0:0:0:
448,192,132640,1,0,0:0:0:0:
64,192,132728,1,0,0:0:0:0:
448,192,132815,1,0,0:0:0:0:
320,192,132903,1,0,0:0:0:0:
192,192,132903,1,0,0:0:0:0:
64,192,132990,1,0,0:0:0:0:
192,192,133078,1,0,0:0:0:0:
320,192,133078,1,0,0:0:0:0:
448,192,133166,1,0,0:0:0:0:
320,192,133253,1,0,0:0:0:0:
192,192,133253,1,0,0:0:0:0:
64,192,133341,1,0,0:0:0:0:
192,192,133429,1,0,0:0:0:0:
320,192,133516,1,0,0:0:0:0:
64,192,133604,1,0,0:0:0:0:
448,192,133604,128,0,136409:0:0:0:0:
64,192,136409,1,0,0:0:0:0:
192,192,136409,1,0,0:0:0:0:
192,192,136642,1,0,0:0:0:0:
448,192,136876,1,0,0:0:0:0:
64,192,137110,1,0,0:0:0:0:
320,192,137110,1,0,0:0:0:0:
448,192,137343,1,0,0:0:0:0:
192,192,137343,1,0,0:0:0:0:
64,192,137577,1,0,0:0:0:0:
320,192,137577,1,0,0:0:0:0:
192,192,137811,1,0,0:0:0:0:
320,192,137811,1,0,0:0:0:0:
448,192,138044,1,0,0:0:0:0:
320,192,138278,1,0,0:0:0:0:
192,192,138512,1,0,0:0:0:0:
64,192,138512,1,0,0:0:0:0:
320,192,138746,1,0,0:0:0:0:
448,192,138746,1,0,0:0:0:0:
192,192,138979,1,0,0:0:0:0:
64,192,138979,1,0,0:0:0:0:
448,192,139213,1,0,0:0:0:0:
64,192,139213,1,0,0:0:0:0:
320,192,139447,1,0,0:0:0:0:
192,192,139680,1,0,0:0:0:0:
64,192,139914,1,0,0:0:0:0:
192,192,139914,1,0,0:0:0:0:
192,192,140148,1,0,0:0:0:0:
320,192,140148,1,0,0:0:0:0:
448,192,140382,1,0,0:0:0:0:
320,192,140382,1,0,0:0:0:0:
448,192,140615,1,0,0:0:0:0:
320,192,140615,1,0,0:0:0:0:
320,192,140849,1,0,0:0:0:0:
192,192,140849,1,0,0:0:0:0:
64,192,141083,128,0,141784:0:0:0:0:
192,192,141083,1,0,0:0:0:0:
320,192,141784,1,0,0:0:0:0:
192,192,142018,1,0,0:0:0:0:
448,192,142018,1,0,0:0:0:0:
64,192,142251,1,0,0:0:0:0:
320,192,142485,1,0,0:0:0:0:
192,192,142719,1,0,0:0:0:0:
448,192,142952,1,0,0:0:0:0:
64,192,142952,1,0,0:0:0:0:
320,192,143186,1,0,0:0:0:0:
64,192,143186,1,0,0:0:0:0:
64,192,143420,1,0,0:0:0:0:
192,192,143420,1,0,0:0:0:0:
320,192,143654,1,0,0:0:0:0:
448,192,143887,1,0,0:0:0:0:
64,192,144121,1,0,0:0:0:0:
448,192,144121,1,0,0:0:0:0:
192,192,144355,1,0,0:0:0:0:
448,192,144355,1,0,0:0:0:0:
448,192,144588,1,0,0:0:0:0:
320,192,144588,1,0,0:0:0:0:
192,192,144822,1,0,0:0:0:0:
64,192,144822,1,0,0:0:0:0:
320,192,145056,1,0,0:0:0:0:
448,192,145290,1,0,0:0:0:0:
448,192,145523,1,0,0:0:0:0:
320,192,145523,1,0,0:0:0:0:
192,192,145757,1,0,0:0:0:0:
64,192,145991,1,0,0:0:0:0:
64,192,146224,1,0,0:0:0:0:
448,192,146224,1,0,0:0:0:0:
320,192,146458,1,0,0:0:0:0:
192,192,146692,128,0,147393:0:0:0:0:
64,192,147393,1,0,0:0:0:0:
448,192,147627,1,0,0:0:0:0:
64,192,147627,1,0,0:0:0:0:
192,192,147860,1,0,0:0:0:0:
320,192,148094,1,0,0:0:0:0:
64,192,148328,1,0,0:0:0:0:
448,192,148562,1,0,0:0:0:0:
320,192,148562,1,0,0:0:0:0:
64,192,148795,1,0,0:0:0:0:
192,192,148795,1,0,0:0:0:0:
192,192,149029,1,0,0:0:0:0:
320,192,149029,1,0,0:0:0:0:
448,192,149263,1,0,0:0:0:0:
64,192,149496,1,0,0:0:0:0:
64,192,149730,1,0,0:0:0:0:
448,192,149730,1,0,0:0:0:0:
192,192,149964,1,0,0:0:0:0:
320,192,149964,1,0,0:0:0:0:
64,192,150198,1,0,0:0:0:0:
448,192,150198,1,0,0:0:0:0:
64,192,150431,1,0,0:0:0:0:
192,192,150431,1,0,0:0:0:0:
448,192,150665,1,0,0:0:0:0:
320,192,150899,1,0,0:0:0:0:
320,192,151132,1,0,0:0:0:0:
448,192,151132,1,0,0:0:0:0:
192,192,151366,1,0,0:0:0:0:
320,192,151366,1,0,0:0:0:0:
192,192,151600,1,0,0:0:0:0:
64,192,151600,1,0,0:0:0:0:
64,192,151834,1,0,0:0:0:0:
192,192,151834,1,0,0:0:0:0:
192,192,152067,1,0,0:0:0:0:
320,192,152067,1,0,0:0:0:0:
320,192,152301,1,0,0:0:0:0:
448,192,152301,128,0,153002:0:0:0:0:
192,192,153002,1,0,0:0:0:0:
64,192,153236,1,0,0:0:0:0:
320,192,153236,1,0,0:0:0:0:
192,192,153470,1,0,0:0:0:0:
448,192,153703,1,0,0:0:0:0:
320,192,153937,1,0,0:0:0:0:
448,192,154171,1,0,0:0:0:0:
192,192,154171,1,0,0:0:0:0:
64,192,154404,1,0,0:0:0:0:
320,192,154404,1,0,0:0:0:0:
192,192,154638,1,0,0:0:0:0:
448,192,154638,1,0,0:0:0:0:
64,192,154872,1,0,0:0:0:0:
320,192,155106,1,0,0:0:0:0:
192,192,155339,1,0,0:0:0:0:
64,192,155339,1,0,0:0:0:0:
320,192,155573,1,0,0:0:0:0:
448,192,155573,1,0,0:0:0:0:
192,192,155807,1,0,0:0:0:0:
64,192,155807,1,0,0:0:0:0:
448,192,156040,1,0,0:0:0:0:
64,192,156040,1,0,0:0:0:0:
320,192,156274,1,0,0:0:0:0:
192,192,156508,1,0,0:0:0:0:
64,192,156742,1,0,0:0:0:0:
448,192,156742,1,0,0:0:0:0:
192,192,156975,1,0,0:0:0:0:
320,192,157209,1,0,0:0:0:0:
192,192,157443,128,0,158845:0:0:0:0:
320,192,157443,1,0,0:0:0:0:
64,192,158845,1,0,0:0:0:0:
320,192,158932,1,0,0:0:0:0:
192,192,159020,1,0,0:0:0:0:
448,192,159107,1,0,0:0:0:0:
320,192,159195,1,0,0:0:0:0:
192,192,159283,1,0,0:0:0:0:
64,192,159370,1,0,0:0:0:0:
192,192,159458,1,0,0:0:0:0:
320,192,159546,1,0,0:0:0:0:
448,192,159633,1,0,0:0:0:0:
192,192,159721,1,0,0:0:0:0:
320,192,159809,1,0,0:0:0:0:
64,192,159896,1,0,0:0:0:0:
320,192,159984,1,0,0:0:0:0:
192,192,160071,1,0,0:0:0:0:
448,192,160159,1,0,0:0:0:0:
320,192,160247,1,0,0:0:0:0:
192,192,160247,1,0,0:0:0:0:
64,192,160334,1,0,0:0:0:0:
192,192,160422,1,0,0:0:0:0:
448,192,160510,1,0,0:0:0:0:
320,192,160597,1,0,0:0:0:0:
64,192,160597,1,0,0:0:0:0:
448,192,160685,1,0,0:0:0:0:
192,192,160773,1,0,0:0:0:0:
64,192,160860,1,0,0:0:0:0:
320,192,160948,1,0,0:0:0:0:
448,192,160948,1,0,0:0:0:0:
192,192,161036,1,0,0:0:0:0:
64,192,161123,1,0,0:0:0:0:
320,192,161123,1,0,0:0:0:0:
448,192,161211,1,0,0:0:0:0:
192,192,161298,1,0,0:0:0:0:
64,192,161298,1,0,0:0:0:0:
320,192,161386,1,0,0:0:0:0:
192,192,161474,1,0,0:0:0:0:
448,192,161474,1,0,0:0:0:0:
64,192,161561,1,0,0:0:0:0:
320,192,161649,1,0,0:0:0:0:
448,192,161649,1,0,0:0:0:0:
192,192,161737,1,0,0:0:0:0:
320,192,161824,1,0,0:0:0:0:
64,192,161912,1,0,0:0:0:0:
192,192,162000,1,0,0:0:0:0:
448,192,162000,1,0,0:0:0:0:
64,192,162087,1,0,0:0:0:0:
320,192,162175,1,0,0:0:0:0:
192,192,162263,1,0,0:0:0:0:
64,192,162350,1,0,0:0:0:0:
320,192,162350,1,0,0:0:0:0:
192,192,162438,1,0,0:0:0:0:
320,192,162525,1,0,0:0:0:0:
64,192,162613,1,0,0:0:0:0:
192,192,162701,1,0,0:0:0:0:
320,192,162701,1,0,0:0:0:0:
448,192,162788,1,0,0:0:0:0:
192,192,162876,1,0,0:0:0:0:
320,192,162964,1,0,0:0:0:0:
64,192,163051,1,0,0:0:0:0:
448,192,163051,1,0,0:0:0:0:
320,192,163139,1,0,0:0:0:0:
192,192,163227,1,0,0:0:0:0:
320,192,163314,1,0,0:0:0:0:
64,192,163402,1,0,0:0:0:0:
192,192,163402,1,0,0:0:0:0:
448,192,163490,1,0,0:0:0:0:
320,192,163577,1,0,0:0:0:0:
64,192,163577,1,0,0:0:0:0:
192,192,163665,1,0,0:0:0:0:
320,192,163752,1,0,0:0:0:0:
448,192,163752,1,0,0:0:0:0:
64,192,163840,1,0,0:0:0:0:
192,192,163928,1,0,0:0:0:0:
448,192,163928,1,0,0:0:0:0:
320,192,164015,1,0,0:0:0:0:
64,192,164103,1,0,0:0:0:0:
192,192,164103,1,0,0:0:0:0:
320,192,164191,1,0,0:0:0:0:
448,192,164278,1,0,0:0:0:0:
64,192,164278,1,0,0:0:0:0:
192,192,164366,1,0,0:0:0:0:
320,192,164454,1,0,0:0:0:0:
448,192,164454,1,0,0:0:0:0:
64,192,164541,1,0,0:0:0:0:
320,192,164629,1,0,0:0:0:0:
448,192,164717,1,0,0:0:0:0:
192,192,164804,1,0,0:0:0:0:
64,192,164804,1,0,0:0:0:0:
448,192,164892,1,0,0:0:0:0:
192,192,164979,1,0,0:0:0:0:
64,192,165067,1,0,0:0:0:0:
192,192,165155,1,0,0:0:0:0:
448,192,165155,1,0,0:0:0:0:
320,192,165242,1,0,0:0:0:0:
448,192,165330,1,0,0:0:0:0:
192,192,165418,1,0,0:0:0:0:
64,192,165505,1,0,0:0:0:0:
320,192,165505,1,0,0:0:0:0:
192,192,165593,1,0,0:0:0:0:
64,192,165681,1,0,0:0:0:0:
320,192,165768,1,0,0:0:0:0:
64,192,165856,1,0,0:0:0:0:
192,192,165856,1,0,0:0:0:0:
448,192,165944,1,0,0:0:0:0:
320,192,166031,1,0,0:0:0:0:
448,192,166119,1,0,0:0:0:0:
64,192,166206,1,0,0:0:0:0:
320,192,166206,1,0,0:0:0:0:
192,192,166294,1,0,0:0:0:0:
448,192,166382,1,0,0:0:0:0:
192,192,166469,1,0,0:0:0:0:
320,192,166557,1,0,0:0:0:0:
448,192,166557,1,0,0:0:0:0:
192,192,166645,1,0,0:0:0:0:
64,192,166732,1,0,0:0:0:0:
320,192,166820,1,0,0:0:0:0:
192,192,166908,1,0,0:0:0:0:
448,192,166908,1,0,0:0:0:0:
64,192,166995,1,0,0:0:0:0:
320,192,167083,1,0,0:0:0:0:
192,192,167171,1,0,0:0:0:0:
64,192,167258,1,0,0:0:0:0:
448,192,167258,1,0,0:0:0:0:
320,192,167346,1,0,0:0:0:0:
192,192,167433,1,0,0:0:0:0:
320,192,167521,1,0,0:0:0:0:
192,192,167609,1,0,0:0:0:0:
64,192,167609,1,0,0:0:0:0:
320,192,167696,1,0,0:0:0:0:
448,192,167784,1,0,0:0:0:0:
320,192,167872,1,0,0:0:0:0:
192,192,167959,1,0,0:0:0:0:
448,192,167959,1,0,0:0:0:0:
64,192,168047,1,0,0:0:0:0:
192,192,168135,1,0,0:0:0:0:
448,192,168222,1,0,0:0:0:0:
320,192,168310,1,0,0:0:0:0:
192,192,168310,1,0,0:0:0:0:
64,192,168398,1,0,0:0:0:0:
192,192,168485,1,0,0:0:0:0:
320,192,168485,1,0,0:0:0:0:
448,192,168573,1,0,0:0:0:0:
320,192,168660,1,0,0:0:0:0:
64,192,168660,1,0,0:0:0:0:
192,192,168748,1,0,0:0:0:0:
448,192,168836,1,0,0:0:0:0:
192,192,168923,1,0,0:0:0:0:
320,192,169011,1,0,0:0:0:0:
448,192,169011,1,0,0:0:0:0:
64,192,169099,1,0,0:0:0:0:
448,192,169186,1,0,0:0:0:0:
192,192,169274,1,0,0:0:0:0:
64,192,169362,1,0,0:0:0:0:
320,192,169362,1,0,0:0:0:0:
192,192,169449,1,0,0:0:0:0:
64,192,169537,1,0,0:0:0:0:
448,192,169625,1,0,0:0:0:0:
320,192,169712,1,0,0:0:0:0:
192,192,169712,1,0,0:0:0:0:
64,192,169800,1,0,0:0:0:0:
448,192,169887,1,0,0:0:0:0:
320,192,169975,1,0,0:0:0:0:
192,192,170063,1,0,0:0:0:0:
448,192,170063,1,0,0:0:0:0:
64,192,170150,1,0,0:0:0:0:
192,192,170238,1,0,0:0:0:0:
320,192,170326,1,0,0:0:0:0:
448,192,170413,1,0,0:0:0:0:
64,192,170413,1,0,0:0:0:0:
192,192,170501,1,0,0:0:0:0:
320,192,170589,1,0,0:0:0:0:
448,192,170676,1,0,0:0:0:0:
192,192,170764,1,0,0:0:0:0:
320,192,170764,1,0,0:0:0:0:
448,192,170852,1,0,0:0:0:0:
320,192,170939,1,0,0:0:0:0:
192,192,171027,1,0,0:0:0:0:
64,192,171114,1,0,0:0:0:0:
448,192,171114,1,0,0:0:0:0:
320,192,171202,1,0,0:0:0:0:
192,192,171290,1,0,0:0:0:0:
64,192,171377,1,0,0:0:0:0:
320,192,171465,1,0,0:0:0:0:
448,192,171465,1,0,0:0:0:0:
192,192,171553,1,0,0:0:0:0:
64,192,171640,1,0,0:0:0:0:
320,192,171728,1,0,0:0:0:0:
192,192,171816,1,0,0:0:0:0:
448,192,171816,1,0,0:0:0:0:
64,192,171903,1,0,0:0:0:0:
320,192,171991,1,0,0:0:0:0:
192,192,172079,1,0,0:0:0:0:
64,192,172166,1,0,0:0:0:0:
448,192,172166,1,0,0:0:0:0:
192,192,172254,1,0,0:0:0:0:
64,192,172341,1,0,0:0:0:0:
448,192,172341,1,0,0:0:0:0:
192,192,172429,1,0,0:0:0:0:
64,192,172517,1,0,0:0:0:0:
320,192,172517,1,0,0:0:0:0:
448,192,172604,1,0,0:0:0:0:
64,192,172692,1,0,0:0:0:0:
192,192,172692,1,0,0:0:0:0:
320,192,172780,1,0,0:0:0:0:
192,192,172867,1,0,0:0:0:0:
448,192,172867,1,0,0:0:0:0:
320,192,172955,1,0,0:0:0:0:
192,192,173043,1,0,0:0:0:0:
320,192,173130,1,0,0:0:0:0:
64,192,173218,1,0,0:0:0:0:
448,192,173218,1,0,0:0:0:0:
192,192,173305,1,0,0:0:0:0:
448,192,173393,1,0,0:0:0:0:
192,192,173481,1,0,0:0:0:0:
64,192,173568,1,0,0:0:0:0:
320,192,173568,1,0,0:0:0:0:
192,192,173656,1,0,0:0:0:0:
320,192,173744,1,0,0:0:0:0:
192,192,173831,1,0,0:0:0:0:
64,192,173919,1,0,0:0:0:0:
448,192,173919,1,0,0:0:0:0:
320,192,174007,1,0,0:0:0:0:
64,192,174094,1,0,0:0:0:0:
320,192,174182,1,0,0:0:0:0:
192,192,174270,1,0,0:0:0:0:
64,192,174270,1,0,0:0:0:0:
448,192,174357,1,0,0:0:0:0:
192,192,174445,1,0,0:0:0:0:
64,192,174532,1,0,0:0:0:0:
320,192,174620,1,0,0:0:0:0:
448,192,174620,1,0,0:0:0:0:
64,192,174708,1,0,0:0:0:0:
320,192,174795,1,0,0:0:0:0:
448,192,174883,1,0,0:0:0:0:
64,192,174971,1,0,0:0:0:0:
320,192,174971,1,0,0:0:0:0:
192,192,175058,1,0,0:0:0:0:
448,192,175146,1,0,0:0:0:0:
320,192,175146,1,0,0:0:0:0:
192,192,175234,1,0,0:0:0:0:
64,192,175321,1,0,0:0:0:0:
320,192,175321,1,0,0:0:0:0:
448,192,175409,1,0,0:0:0:0:
192,192,175497,1,0,0:0:0:0:
64,192,175497,1,0,0:0:0:0:
448,192,175584,1,0,0:0:0:0:
320,192,175672,1,0,0:0:0:0:
64,192,175672,1,0,0:0:0:0:
192,192,175759,1,0,0:0:0:0:
448,192,175847,1,0,0:0:0:0:
320,192,175935,1,0,0:0:0:0:
448,192,176022,1,0,0:0:0:0:
192,192,176022,1,0,0:0:0:0:
320,192,176110,1,0,0:0:0:0:
64,192,176198,1,0,0:0:0:0:
192,192,176285,1,0,0:0:0:0:
320,192,176373,1,0,0:0:0:0:
448,192,176373,1,0,0:0:0:0:
64,192,176461,1,0,0:0:0:0:
320,192,176548,1,0,0:0:0:0:
448,192,176636,1,0,0:0:0:0:
64,192,176724,1,0,0:0:0:0:
192,192,176724,1,0,0:0:0:0:
448,192,176811,1,0,0:0:0:0:
192,192,176899,1,0,0:0:0:0:
64,192,176986,1,0,0:0:0:0:
320,192,177074,1,0,0:0:0:0:
448,192,177074,1,0,0:0:0:0:
192,192,177162,1,0,0:0:0:0:
64,192,177249,1,0,0:0:0:0:
192,192,177337,1,0,0:0:0:0:
64,192,177425,1,0,0:0:0:0:
320,192,177425,1,0,0:0:0:0:
192,192,177512,1,0,0:0:0:0:
448,192,177600,1,0,0:0:0:0:
192,192,177688,1,0,0:0:0:0:
320,192,177775,1,0,0:0:0:0:
448,192,177775,1,0,0:0:0:0:
192,192,177863,1,0,0:0:0:0:
64,192,177951,1,0,0:0:0:0:
192,192,178038,1,0,0:0:0:0:
320,192,178126,1,0,0:0:0:0:
64,192,178126,1,0,0:0:0:0:
192,192,178213,1,0,0:0:0:0:
448,192,178301,1,0,0:0:0:0:
192,192,178389,1,0,0:0:0:0:
320,192,178476,1,0,0:0:0:0:
448,192,178476,1,0,0:0:0:0:
64,192,178564,1,0,0:0:0:0:
320,192,178652,1,0,0:0:0:0:
448,192,178739,1,0,0:0:0:0:
64,192,178827,1,0,0:0:0:0:
192,192,178827,1,0,0:0:0:0:
448,192,178915,1,0,0:0:0:0:
320,192,179002,1,0,0:0:0:0:
64,192,179090,1,0,0:0:0:0:
192,192,179178,1,0,0:0:0:0:
448,192,179178,1,0,0:0:0:0:
320,192,179265,1,0,0:0:0:0:
64,192,179353,1,0,0:0:0:0:
192,192,179353,1,0,0:0:0:0:
320,192,179440,1,0,0:0:0:0:
448,192,179528,1,0,0:0:0:0:
64,192,179528,1,0,0:0:0:0:
192,192,179616,1,0,0:0:0:0:
320,192,179703,1,0,0:0:0:0:
448,192,179703,1,0,0:0:0:0:
192,192,179791,1,0,0:0:0:0:
64,192,179879,1,0,0:0:0:0:
320,192,179879,1,0,0:0:0:0:
320,192,179966,1,0,0:0:0:0:
448,192,180054,1,0,0:0:0:0:
320,192,180142,1,0,0:0:0:0:
64,192,180229,1,0,0:0:0:0:
448,192,180229,1,0,0:0:0:0:
192,192,180317,1,0,0:0:0:0:
64,192,180405,1,0,0:0:0:0:
192,192,180492,1,0,0:0:0:0:
320,192,180580,1,0,0:0:0:0:
448,192,180580,1,0,0:0:0:0:
64,192,180667,1,0,0:0:0:0:
320,192,180755,1,0,0:0:0:0:
448,192,180843,1,0,0:0:0:0:
64,192,180930,1,0,0:0:0:0:
192,192,180930,1,0,0:0:0:0:
448,192,181018,1,0,0:0:0:0:
192,192,181106,1,0,0:0:0:0:
64,192,181193,1,0,0:0:0:0:
320,192,181281,1,0,0:0:0:0:
448,192,181281,1,0,0:0:0:0:
192,192,181369,1,0,0:0:0:0:
64,192,181456,1,0,0:0:0:0:
192,192,181544,1,0,0:0:0:0:
64,192,181632,1,0,0:0:0:0:
320,192,181632,1,0,0:0:0:0:
448,192,181719,1,0,0:0:0:0:
192,192,181807,1,0,0:0:0:0:
448,192,181894,1,0,0:0:0:0:
64,192,181982,1,0,0:0:0:0:
192,192,181982,1,0,0:0:0:0:
320,192,182070,1,0,0:0:0:0:
448,192,182157,1,0,0:0:0:0:
320,192,182245,1,0,0:0:0:0:
192,192,182333,1,0,0:0:0:0:
448,192,182333,1,0,0:0:0:0:
64,192,182420,1,0,0:0:0:0:
320,192,182508,1,0,0:0:0:0:
64,192,182596,1,0,0:0:0:0:
320,192,182683,1,0,0:0:0:0:
448,192,182683,1,0,0:0:0:0:
192,192,182771,1,0,0:0:0:0:
448,192,182859,1,0,0:0:0:0:
320,192,182946,1,0,0:0:0:0:
192,192,183034,1,0,0:0:0:0:
448,192,183034,1,0,0:0:0:0:
320,192,183121,1,0,0:0:0:0:
64,192,183209,1,0,0:0:0:0:
192,192,183209,1,0,0:0:0:0:
448,192,183297,1,0,0:0:0:0:
64,192,183384,1,0,0:0:0:0:
192,192,183384,1,0,0:0:0:0:
320,192,183560,1,0,0:0:0:0:
448,192,183560,1,0,0:0:0:0:
64,192,183647,1,0,0:0:0:0:
320,192,183735,1,0,0:0:0:0:
448,192,183735,1,0,0:0:0:0:
192,192,183823,1,0,0:0:0:0:
64,192,183910,1,0,0:0:0:0:
448,192,183910,1,0,0:0:0:0:
320,192,183998,1,0,0:0:0:0:
448,192,184086,1,0,0:0:0:0:
64,192,184086,1,0,0:0:0:0:
320,192,184173,1,0,0:0:0:0:
448,192,184261,1,0,0:0:0:0:
320,192,184348,1,0,0:0:0:0:
64,192,184436,1,0,0:0:0:0:
448,192,184436,1,0,0:0:0:0:
192,192,184524,1,0,0:0:0:0:
64,192,184611,1,0,0:0:0:0:
192,192,184699,1,0,0:0:0:0:
448,192,184787,1,0,0:0:0:0:
64,192,184787,1,0,0:0:0:0:
192,192,184874,1,0,0:0:0:0:
320,192,184962,1,0,0:0:0:0:
192,192,185050,1,0,0:0:0:0:
320,192,185137,1,0,0:0:0:0:
448,192,185137,1,0,0:0:0:0:
64,192,185225,1,0,0:0:0:0:
448,192,185313,1,0,0:0:0:0:
64,192,185400,1,0,0:0:0:0:
192,192,185488,1,0,0:0:0:0:
448,192,185488,1,0,0:0:0:0:
320,192,185575,1,0,0:0:0:0:
192,192,185663,1,0,0:0:0:0:
448,192,185751,1,0,0:0:0:0:
64,192,185838,1,0,0:0:0:0:
320,192,185838,1,0,0:0:0:0:
192,192,185926,1,0,0:0:0:0:
320,192,186014,1,0,0:0:0:0:
64,192,186101,1,0,0:0:0:0:
320,192,186189,1,0,0:0:0:0:
448,192,186189,1,0,0:0:0:0:
64,192,186277,1,0,0:0:0:0:
320,192,186364,1,0,0:0:0:0:
448,192,186452,1,0,0:0:0:0:
192,192,186540,1,0,0:0:0:0:
320,192,186540,1,0,0:0:0:0:
448,192,186627,1,0,0:0:0:0:
192,192,186715,1,0,0:0:0:0:
64,192,186802,1,0,0:0:0:0:
192,192,186890,1,0,0:0:0:0:
448,192,186890,1,0,0:0:0:0:
64,192,186978,1,0,0:0:0:0:
320,192,187065,1,0,0:0:0:0:
192,192,187153,1,0,0:0:0:0:
64,192,187241,1,0,0:0:0:0:
320,192,187241,1,0,0:0:0:0:
192,192,187328,1,0,0:0:0:0:
320,192,187416,1,0,0:0:0:0:
64,192,187504,1,0,0:0:0:0:
192,192,187591,1,0,0:0:0:0:
448,192,187591,1,0,0:0:0:0:
320,192,187679,1,0,0:0:0:0:
64,192,187766,1,0,0:0:0:0:
192,192,187854,1,0,0:0:0:0:
320,192,187942,1,0,0:0:0:0:
448,192,187942,1,0,0:0:0:0:
192,192,188029,1,0,0:0:0:0:
64,192,188117,1,0,0:0:0:0:
320,192,188205,1,0,0:0:0:0:
192,192,188292,1,0,0:0:0:0:
64,192,188292,1,0,0:0:0:0:
320,192,188380,1,0,0:0:0:0:
448,192,188468,1,0,0:0:0:0:
192,192,188555,1,0,0:0:0:0:
64,192,188643,1,0,0:0:0:0:
448,192,188643,1,0,0:0:0:0:
192,192,188731,1,0,0:0:0:0:
64,192,188818,1,0,0:0:0:0:
320,192,188906,1,0,0:0:0:0:
448,192,188993,1,0,0:0:0:0:
64,192,188993,1,0,0:0:0:0:
192,192,189081,1,0,0:0:0:0:
320,192,189169,1,0,0:0:0:0:
448,192,189256,1,0,0:0:0:0:
64,192,189344,1,0,0:0:0:0:
192,192,189344,1,0,0:0:0:0:
448,192,189432,1,0,0:0:0:0:
320,192,189519,1,0,0:0:0:0:
192,192,189607,1,0,0:0:0:0:
64,192,189695,1,0,0:0:0:0:
448,192,189695,1,0,0:0:0:0:
192,192,189782,1,0,0:0:0:0:
320,192,189870,1,0,0:0:0:0:
192,192,189958,1,0,0:0:0:0:
320,192,190045,1,0,0:0:0:0:
448,192,190045,1,0,0:0:0:0:
192,192,190133,1,0,0:0:0:0:
64,192,190220,1,0,0:0:0:0:
192,192,190308,1,0,0:0:0:0:
64,192,190396,1,0,0:0:0:0:
320,192,190396,1,0,0:0:0:0:
192,192,190483,1,0,0:0:0:0:
448,192,190571,1,0,0:0:0:0:
320,192,190659,1,0,0:0:0:0:
64,192,190746,1,0,0:0:0:0:
192,192,190746,1,0,0:0:0:0:
320,192,190834,1,0,0:0:0:0:
448,192,190922,1,0,0:0:0:0:
192,192,191009,1,0,0:0:0:0:
64,192,191097,1,0,0:0:0:0:
448,192,191097,1,0,0:0:0:0:
320,192,191185,1,0,0:0:0:0:
192,192,191272,1,0,0:0:0:0:
64,192,191360,1,0,0:0:0:0:
320,192,191360,1,0,0:0:0:0:
192,192,191447,1,0,0:0:0:0:
320,192,191535,1,0,0:0:0:0:
64,192,191623,1,0,0:0:0:0:
192,192,191623,1,0,0:0:0:0:
320,192,191710,1,0,0:0:0:0:
192,192,191798,1,0,0:0:0:0:
320,192,191886,1,0,0:0:0:0:
448,192,191886,1,0,0:0:0:0:
192,192,191973,1,0,0:0:0:0:
64,192,192061,1,0,0:0:0:0:
192,192,192149,1,0,0:0:0:0:
448,192,192149,1,0,0:0:0:0:
320,192,192236,1,0,0:0:0:0:
64,192,192324,1,0,0:0:0:0:
448,192,192324,1,0,0:0:0:0:
192,192,192412,1,0,0:0:0:0:
320,192,192499,1,0,0:0:0:0:
448,192,192499,1,0,0:0:0:0:
192,192,192587,1,0,0:0:0:0:
64,192,192587,1,0,0:0:0:0:
320,192,192674,1,0,0:0:0:0:
448,192,192674,1,0,0:0:0:0:
64,192,192762,1,0,0:0:0:0:
192,192,192762,1,0,0:0:0:0:
448,192,192850,1,0,0:0:0:0:
192,192,192850,1,0,0:0:0:0:
64,192,192937,1,0,0:0:0:0:
320,192,192937,1,0,0:0:0:0:
192,192,193025,1,0,0:0:0:0:
448,192,193025,1,0,0:0:0:0:
64,192,193113,1,0,0:0:0:0:
320,192,193113,1,0,0:0:0:0:
64,192,193200,1,0,0:0:0:0:
448,192,193200,1,0,0:0:0:0:
192,192,193288,1,0,0:0:0:0:
320,192,193288,1,0,0:0:0:0:
448,192,193376,1,0,0:0:0:0:
64,192,193376,1,0,0:0:0:0:
192,192,193463,1,0,0:0:0:0:
320,192,193463,1,0,0:0:0:0:
192,192,193551,1,0,0:0:0:0:
64,192,193551,1,0,0:0:0:0:
320,192,193639,1,0,0:0:0:0:
448,192,193639,1,0,0:0:0:0:
192,192,193726,1,0,0:0:0:0:
64,192,193726,1,0,0:0:0:0:
320,192,193814,1,0,0:0:0:0:
448,192,193814,1,0,0:0:0:0:
64,192,193901,1,0,0:0:0:0:
192,192,193901,1,0,0:0:0:0:
448,192,193989,1,0,0:0:0:0:
192,192,194077,1,0,0:0:0:0:
64,192,194164,1,0,0:0:0:0:
320,192,194252,1,0,0:0:0:0:
448,192,194252,1,0,0:0:0:0:
64,192,194340,1,0,0:0:0:0:
320,192,194427,1,0,0:0:0:0:
448,192,194515,1,0,0:0:0:0:
64,192,194603,1,0,0:0:0:0:
320,192,194603,1,0,0:0:0:0:
192,192,194690,1,0,0:0:0:0:
448,192,194778,1,0,0:0:0:0:
64,192,194778,1,0,0:0:0:0:
320,192,194866,1,0,0:0:0:0:
64,192,194953,1,0,0:0:0:0:
192,192,194953,1,0,0:0:0:0:
320,192,195041,1,0,0:0:0:0:
448,192,195128,1,0,0:0:0:0:
64,192,195128,1,0,0:0:0:0:
192,192,195216,1,0,0:0:0:0:
448,192,195304,1,0,0:0:0:0:
320,192,195304,1,0,0:0:0:0:
64,192,195391,1,0,0:0:0:0:
192,192,195479,1,0,0:0:0:0:
320,192,195567,1,0,0:0:0:0:
448,192,195654,1,0,0:0:0:0:
64,192,195654,1,0,0:0:0:0:
320,192,195742,1,0,0:0:0:0:
192,192,195830,1,0,0:0:0:0:
64,192,195917,1,0,0:0:0:0:
320,192,196005,1,0,0:0:0:0:
448,192,196005,1,0,0:0:0:0:
64,192,196093,1,0,0:0:0:0:
320,192,196180,1,0,0:0:0:0:
448,192,196268,1,0,0:0:0:0:
192,192,196355,1,0,0:0:0:0:
64,192,196355,1,0,0:0:0:0:
448,192,196443,1,0,0:0:0:0:
192,192,196531,1,0,0:0:0:0:
64,192,196618,1,0,0:0:0:0:
192,192,196706,1,0,0:0:0:0:
448,192,196706,1,0,0:0:0:0:
64,192,196794,1,0,0:0:0:0:
192,192,196881,1,0,0:0:0:0:
320,192,196969,1,0,0:0:0:0:
448,192,197057,1,0,0:0:0:0:
192,192,197057,1,0,0:0:0:0:
320,192,197144,1,0,0:0:0:0:
192,192,197232,1,0,0:0:0:0:
448,192,197232,1,0,0:0:0:0:
64,192,197320,1,0,0:0:0:0:
192,192,197407,1,0,0:0:0:0:
320,192,197407,1,0,0:0:0:0:
448,192,197495,1,0,0:0:0:0:
64,192,197582,1,0,0:0:0:0:
320,192,197582,1,0,0:0:0:0:
192,192,197670,1,0,0:0:0:0:
64,192,197758,1,0,0:0:0:0:
448,192,197758,1,0,0:0:0:0:
320,192,197845,1,0,0:0:0:0:
192,192,197933,1,0,0:0:0:0:
448,192,197933,1,0,0:0:0:0:
320,192,198108,1,0,0:0:0:0:
448,192,198108,1,0,0:0:0:0:
192,192,198196,1,0,0:0:0:0:
320,192,198284,1,0,0:0:0:0:
192,192,198371,1,0,0:0:0:0:
320,192,198459,1,0,0:0:0:0:
448,192,198459,1,0,0:0:0:0:
64,192,198547,1,0,0:0:0:0:
320,192,198634,1,0,0:0:0:0:
448,192,198722,1,0,0:0:0:0:
192,192,198809,1,0,0:0:0:0:
64,192,198809,1,0,0:0:0:0:
320,192,198897,1,0,0:0:0:0:
192,192,198985,1,0,0:0:0:0:
320,192,199072,1,0,0:0:0:0:
192,192,199160,1,0,0:0:0:0:
64,192,199160,1,0,0:0:0:0:
448,192,199248,1,0,0:0:0:0:
192,192,199335,1,0,0:0:0:0:
64,192,199423,1,0,0:0:0:0:
320,192,199511,1,0,0:0:0:0:
448,192,199511,1,0,0:0:0:0:
64,192,199598,1,0,0:0:0:0:
192,192,199686,1,0,0:0:0:0:
320,192,199774,1,0,0:0:0:0:
192,192,199861,1,0,0:0:0:0:
448,192,199861,1,0,0:0:0:0:
320,192,199949,1,0,0:0:0:0:
64,192,200036,1,0,0:0:0:0:
448,192,200124,1,0,0:0:0:0:
64,192,200212,1,0,0:0:0:0:
192,192,200212,1,0,0:0:0:0:
320,192,200299,1,0,0:0:0:0:
448,192,200387,1,0,0:0:0:0:
64,192,200475,1,0,0:0:0:0:
448,192,200562,1,0,0:0:0:0:
192,192,200562,1,0,0:0:0:0:
64,192,200650,1,0,0:0:0:0:
320,192,200738,1,0,0:0:0:0:
192,192,200825,1,0,0:0:0:0:
64,192,200913,1,0,0:0:0:0:
448,192,200913,1,0,0:0:0:0:
192,192,201001,1,0,0:0:0:0:
320,192,201088,1,0,0:0:0:0:
64,192,201176,1,0,0:0:0:0:
192,192,201263,1,0,0:0:0:0:
320,192,201263,1,0,0:0:0:0:
448,192,201351,1,0,0:0:0:0:
192,192,201439,1,0,0:0:0:0:
320,192,201526,1,0,0:0:0:0:
448,192,201614,1,0,0:0:0:0:
192,192,201614,1,0,0:0:0:0:
64,192,201702,1,0,0:0:0:0:
320,192,201789,1,0,0:0:0:0:
192,192,201877,1,0,0:0:0:0:
448,192,201965,1,0,0:0:0:0:
320,192,201965,1,0,0:0:0:0:
192,192,202052,1,0,0:0:0:0:
320,192,202140,1,0,0:0:0:0:
64,192,202227,1,0,0:0:0:0:
192,192,202315,1,0,0:0:0:0:
320,192,202315,1,0,0:0:0:0:
64,192,202403,1,0,0:0:0:0:
448,192,202490,1,0,0:0:0:0:
320,192,202578,1,0,0:0:0:0:
192,192,202666,1,0,0:0:0:0:
64,192,202666,1,0,0:0:0:0:
320,192,202753,1,0,0:0:0:0:
64,192,202841,1,0,0:0:0:0:
192,192,202929,1,0,0:0:0:0:
320,192,203016,1,0,0:0:0:0:
448,192,203016,1,0,0:0:0:0:
192,192,203104,1,0,0:0:0:0:
320,192,203192,1,0,0:0:0:0:
448,192,203279,1,0,0:0:0:0:
64,192,203367,1,0,0:0:0:0:
192,192,203367,1,0,0:0:0:0:
320,192,203454,1,0,0:0:0:0:
192,192,203542,1,0,0:0:0:0:
64,192,203630,1,0,0:0:0:0:
192,192,203717,1,0,0:0:0:0:
448,192,203717,1,0,0:0:0:0:
320,192,203805,1,0,0:0:0:0:
448,192,203893,1,0,0:0:0:0:
64,192,203980,1,0,0:0:0:0:
192,192,204068,1,0,0:0:0:0:
448,192,204068,1,0,0:0:0:0:
320,192,204156,1,0,0:0:0:0:
448,192,204243,1,0,0:0:0:0:
64,192,204331,1,0,0:0:0:0:
192,192,204419,1,0,0:0:0:0:
448,192,204419,1,0,0:0:0:0:
64,192,204506,1,0,0:0:0:0:
448,192,204594,1,0,0:0:0:0:
320,192,204681,1,0,0:0:0:0:
192,192,204769,1,0,0:0:0:0:
448,192,204769,1,0,0:0:0:0:
64,192,204857,1,0,0:0:0:0:
448,192,204944,1,0,0:0:0:0:
320,192,205032,1,0,0:0:0:0:
448,192,205120,1,0,0:0:0:0:
192,192,205120,128,0,205646:0:0:0:0:
64,192,205646,1,0,0:0:0:0:
320,192,205821,1,0,0:0:0:0:
448,192,205821,1,0,0:0:0:0:
64,192,206084,1,0,0:0:0:0:
448,192,206084,1,0,0:0:0:0:
64,192,206347,1,0,0:0:0:0:
192,192,206347,1,0,0:0:0:0:
64,192,206522,128,0,207048:0:0:0:0:
192,192,206522,1,0,0:0:0:0:
320,192,207048,1,0,0:0:0:0:
448,192,207048,1,0,0:0:0:0:
320,192,207223,1,0,0:0:0:0:
448,192,207223,128,0,207924:0:0:0:0:
64,192,207924,128,0,208450:0:0:0:0:
192,192,207924,1,0,0:0:0:0:
192,192,208450,1,0,0:0:0:0:
448,192,208625,1,0,0:0:0:0:
192,192,208625,128,0,208888:0:0:0:0:
64,192,208888,1,0,0:0:0:0:
448,192,208888,1,0,0:0:0:0:
64,192,209151,1,0,0:0:0:0:
320,192,209151,1,0,0:0:0:0:
320,192,209327,1,0,0:0:0:0:
448,192,209327,128,0,209852:0:0:0:0:
64,192,209852,1,0,0:0:0:0:
192,192,209852,1,0,0:0:0:0:
64,192,210028,128,0,210378:0:0:0:0:
192,192,210028,1,0,0:0:0:0:
448,192,210378,1,0,0:0:0:0:
320,192,210466,1,0,0:0:0:0:
192,192,210554,1,0,0:0:0:0:
64,192,210641,1,0,0:0:0:0:
448,192,210729,1,0,0:0:0:0:
320,192,210729,1,0,0:0:0:0:
64,192,210816,1,0,0:0:0:0:
192,192,210904,1,0,0:0:0:0:
320,192,210992,1,0,0:0:0:0:
192,192,211079,1,0,0:0:0:0:
64,192,211079,1,0,0:0:0:0:
448,192,211167,1,0,0:0:0:0:
320,192,211255,1,0,0:0:0:0:
192,192,211342,1,0,0:0:0:0:
64,192,211430,1,0,0:0:0:0:
448,192,211430,1,0,0:0:0:0:
192,192,211518,1,0,0:0:0:0:
320,192,211605,1,0,0:0:0:0:
192,192,211693,1,0,0:0:0:0:
64,192,211781,1,0,0:0:0:0:
448,192,211781,1,0,0:0:0:0:
320,192,211868,1,0,0:0:0:0:
192,192,211956,1,0,0:0:0:0:
320,192,212043,1,0,0:0:0:0:
64,192,212131,1,0,0:0:0:0:
192,192,212131,1,0,0:0:0:0:
448,192,212219,1,0,0:0:0:0:
192,192,212306,1,0,0:0:0:0:
64,192,212394,1,0,0:0:0:0:
320,192,212482,1,0,0:0:0:0:
448,192,212482,1,0,0:0:0:0:
64,192,212569,1,0,0:0:0:0:
320,192,212657,1,0,0:0:0:0:
448,192,212745,1,0,0:0:0:0:
64,192,212832,1,0,0:0:0:0:
320,192,212832,1,0,0:0:0:0:
192,192,212920,1,0,0:0:0:0:
448,192,213008,1,0,0:0:0:0:
320,192,213095,1,0,0:0:0:0:
192,192,213183,1,0,0:0:0:0:
448,192,213183,1,0,0:0:0:0:
320,192,213270,1,0,0:0:0:0:
64,192,213358,1,0,0:0:0:0:
192,192,213446,1,0,0:0:0:0:
320,192,213533,1,0,0:0:0:0:
448,192,213533,1,0,0:0:0:0:
192,192,213621,1,0,0:0:0:0:
64,192,213709,1,0,0:0:0:0:
320,192,213709,1,0,0:0:0:0:
448,192,213796,1,0,0:0:0:0:
64,192,213884,1,0,0:0:0:0:
192,192,213884,1,0,0:0:0:0:
320,192,213972,1,0,0:0:0:0:
448,192,214059,1,0,0:0:0:0:
192,192,214059,1,0,0:0:0:0:
320,192,214147,1,0,0:0:0:0:
64,192,214235,1,0,0:0:0:0:
448,192,214235,1,0,0:0:0:0:
192,192,214322,1,0,0:0:0:0:
64,192,214410,1,0,0:0:0:0:
320,192,214410,1,0,0:0:0:0:
448,192,214497,1,0,0:0:0:0:
192,192,214585,1,0,0:0:0:0:
320,192,214585,1,0,0:0:0:0:
64,192,214673,1,0,0:0:0:0:
192,192,214760,1,0,0:0:0:0:
320,192,214848,1,0,0:0:0:0:
448,192,214936,1,0,0:0:0:0:
64,192,214936,1,0,0:0:0:0:
320,192,215023,1,0,0:0:0:0:
448,192,215111,1,0,0:0:0:0:
192,192,215199,1,0,0:0:0:0:
64,192,215199,1,0,0:0:0:0:
320,192,215286,1,0,0:0:0:0:
64,192,215374,1,0,0:0:0:0:
192,192,215462,1,0,0:0:0:0:
320,192,215549,1,0,0:0:0:0:
448,192,215549,1,0,0:0:0:0:
192,192,215637,1,0,0:0:0:0:
448,192,215724,1,0,0:0:0:0:
320,192,215812,1,0,0:0:0:0:
192,192,215812,1,0,0:0:0:0:
64,192,215900,1,0,0:0:0:0:
448,192,215987,1,0,0:0:0:0:
320,192,215987,1,0,0:0:0:0:
192,192,216075,1,0,0:0:0:0:
320,192,216163,1,0,0:0:0:0:
64,192,216250,1,0,0:0:0:0:
192,192,216338,1,0,0:0:0:0:
448,192,216338,1,0,0:0:0:0:
64,192,216426,1,0,0:0:0:0:
320,192,216513,1,0,0:0:0:0:
192,192,216601,1,0,0:0:0:0:
64,192,216601,1,0,0:0:0:0:
320,192,216688,1,0,0:0:0:0:
448,192,216776,1,0,0:0:0:0:
192,192,216864,1,0,0:0:0:0:
64,192,216864,1,0,0:0:0:0:
320,192,216951,1,0,0:0:0:0:
192,192,217039,1,0,0:0:0:0:
448,192,217039,1,0,0:0:0:0:
64,192,217127,1,0,0:0:0:0:
192,192,217214,1,0,0:0:0:0:
320,192,217302,1,0,0:0:0:0:
448,192,217390,1,0,0:0:0:0:
320,192,217477,1,0,0:0:0:0:
192,192,217565,1,0,0:0:0:0:
64,192,217653,1,0,0:0:0:0:
448,192,217740,128,0,218792:0:0:0:0:
320,192,217740,1,0,0:0:0:0:
192,192,217740,1,0,0:0:0:0:
64,192,218792,1,0,0:0:0:0:
192,192,218792,1,0,0:0:0:0:
320,192,218880,1,0,0:0:0:0:
448,192,218967,1,0,0:0:0:0:
320,192,219055,1,0,0:0:0:0:
64,192,219142,1,0,0:0:0:0:
448,192,219142,1,0,0:0:0:0:
192,192,219142,1,0,0:0:0:0:
