osu file format v14

[General]
AudioFilename: sc_2011.mp3
AudioLeadIn: 0
PreviewTime: 1216
Countdown: 0
SampleSet: Soft
StackLeniency: 0.2
Mode: 0
LetterboxInBreaks: 0
WidescreenStoryboard: 0

[Editor]
DistanceSpacing: 1.4
BeatDivisor: 3
GridSize: 8
TimelineZoom: 2.1

[Metadata]
Title:Southern Cross 2011
TitleUnicode:Southern Cross 2011
Artist:403
ArtistUnicode:403
Creator:Kondou-Shinichi
Version:Destiny
Source:
Tags:2011 3/11
BeatmapID:1177963
BeatmapSetID:556635

[Difficulty]
HPDrainRate:3.1
CircleSize:3.7
OverallDifficulty:8.6
ApproachRate:9.4
SliderMultiplier:1.69
SliderTickRate:1

[Events]
//Background and Video events
0,0,"558655_anime-rain-yesterday-only.jpg",0,0
//Break Periods
2,59395,60089
2,109337,110031
//Storyboard Layer 0 (Background)
//Storyboard Layer 1 (Fail)
//Storyboard Layer 2 (Pass)
//Storyboard Layer 3 (Foreground)
//Storyboard Sound Samples

[TimingPoints]
1390,346.820809248555,3,2,0,33,1,0
1390,-200,3,2,0,33,0,0
22199,-500,3,2,0,5,0,0
23239,346.820809248555,4,2,0,33,1,0
23239,-80,4,2,0,33,0,0
24973,-100,4,2,0,33,0,1
26360,-80,4,2,0,33,0,0
27747,-100,4,2,0,33,0,1
29134,-80,4,2,0,33,0,0
30522,-66.6666666666667,4,2,0,33,0,0
31909,-66.6666666666667,4,2,0,33,0,0
32256,-76.9230769230769,4,2,0,33,0,0
32603,-90.9090909090909,4,2,0,33,0,0
32949,-111.111111111111,4,2,0,33,0,0
33296,-100,4,2,0,33,0,1
34684,-100,4,2,0,33,0,0
36071,-66.6666666666667,4,2,0,33,0,1
45782,-66.6666666666667,4,2,0,33,0,0
47169,-66.6666666666667,4,2,0,33,0,1
58267,-90.0900900900901,4,2,0,33,0,0
61042,346.820809248555,3,2,0,33,1,0
61042,-99.009900990099,3,2,0,33,0,0
73180,346.820809248555,4,2,0,33,1,0
73180,-80,4,2,0,33,0,0
74914,-66.6666666666667,4,2,0,33,0,1
76301,-80,4,2,0,33,0,0
77688,-66.6666666666667,4,2,0,33,0,1
79075,-80,4,2,0,33,0,0
80463,-66.6666666666667,4,2,0,33,0,0
81850,-66.6666666666667,4,2,0,33,0,0
82197,-76.9230769230769,4,2,0,33,0,0
82544,-90.9090909090909,4,2,0,33,0,0
82890,-111.111111111111,4,2,0,33,0,0
83237,-100,4,2,0,33,0,1
84625,-100,4,2,0,33,0,0
86012,-66.6666666666667,4,2,0,33,0,1
95723,-76.3358778625954,4,2,0,33,0,0
97110,-66.6666666666667,4,2,0,33,0,1
108208,-90.0900900900901,4,2,0,33,0,0
110983,-90.0900900900901,4,2,0,33,0,0
122081,-81.3008130081301,3,2,0,33,0,1
123469,-76.9230769230769,3,2,0,33,0,0
124856,-74.0740740740741,3,2,0,33,0,1
126243,-71.4285714285714,3,2,0,33,0,0
127630,-66.6666666666667,3,2,0,33,0,1
127804,-64.5161290322581,3,2,0,33,0,1
127977,-62.5,3,2,0,33,0,1
128151,-64.5161290322581,3,2,0,33,0,0
128324,-62.5,3,2,0,33,0,1
128497,-60.6060606060606,3,2,0,33,0,1
128671,-58.8235294117647,3,2,0,33,0,1
128844,-60.6060606060606,3,2,0,33,0,0
129018,-58.8235294117647,3,2,0,33,0,1
129191,-57.1428571428571,3,2,0,33,0,1
129364,-55.5555555555556,3,2,0,33,0,1
129538,-57.1428571428571,3,2,0,33,0,0
129711,-55.5555555555556,3,2,0,33,0,1
129885,-54.054054054054,3,2,0,33,0,1
130058,-52.6315789473684,3,2,0,33,0,1
130232,-51.2820512820513,3,2,0,33,0,1
130405,-50,3,2,0,33,0,0
130492,-52.6315789473684,3,2,0,33,0,0
130578,-55.5555555555556,3,2,0,33,0,0
130665,-58.8235294117647,3,2,0,33,0,0
130752,-62.5,3,2,0,33,0,0
130838,-66.6666666666667,3,2,0,33,0,0
130925,-71.4285714285714,3,2,0,33,0,0
131012,-76.9230769230769,3,2,0,33,0,0
131099,-83.3333333333333,3,2,0,33,0,0
131185,-90.9090909090909,3,2,0,33,0,0
131272,-100,3,2,0,33,0,0
131359,-105.263157894737,3,2,0,33,0,0
131445,-117.647058823529,3,2,0,33,0,0
131532,-125,3,2,0,33,0,0
131619,-133.333333333333,3,2,0,33,0,0
131706,-142.857142857143,3,2,0,33,0,0
131792,-142.857142857143,3,2,0,33,0,0
132139,-166.666666666667,3,2,0,33,0,0
132486,-181.818181818182,3,2,0,33,0,0
132832,346.820809248555,3,2,0,33,1,0
132832,-200,3,2,0,33,0,0
133181,-200,3,2,0,33,0,0
155375,346.820809248555,4,2,0,33,1,0
155375,-200,4,2,0,33,0,0
155461,-166.666666666667,4,2,0,33,0,0
155548,-142.857142857143,4,2,0,33,0,0
155635,-125,4,2,0,33,0,0
155721,-111.111111111111,4,2,0,33,0,0
155808,-100,4,2,0,33,0,0
155895,-90.9090909090909,4,2,0,33,0,0
155981,-83.3333333333333,4,2,0,33,0,0
156068,-76.9230769230769,4,2,0,33,0,0
156155,-71.4285714285714,4,2,0,33,0,0
156242,-66.6666666666667,4,2,0,33,0,0
156328,-62.5,4,2,0,33,0,0
156415,-59.1715976331361,4,2,0,33,0,0
156502,-55.5555555555556,4,2,0,33,0,0
156588,-52.6315789473684,4,2,0,33,0,0
156675,-50,4,2,0,33,0,0
156762,-50,4,2,0,33,0,1
166473,-50,4,2,0,33,0,0
167860,-50,4,2,0,33,0,1
180346,-200,4,2,0,33,0,0
181733,-76.3358778625954,4,2,0,33,0,0
190057,-50,4,2,0,33,0,1
201155,-200,4,2,0,33,0,0
202542,-133.333333333333,4,2,0,33,0,0
203929,-86.9565217391304,4,2,0,33,0,0
206704,-200,4,2,0,33,0,1
207051,-166.666666666667,4,2,0,33,0,1
207398,-142.857142857143,4,2,0,33,0,1
207744,-125,4,2,0,33,0,1
208091,-100,4,2,0,33,0,1
208438,-90.9090909090909,4,2,0,33,0,1
208785,-83.3333333333333,4,2,0,33,0,1
209132,-76.9230769230769,4,2,0,33,0,1
209479,-66.6666666666667,4,2,0,33,0,1
209825,-62.5,4,2,0,33,0,1
210172,-58.8235294117647,4,2,0,33,0,1
210519,-55.5555555555556,4,2,0,33,0,1
210866,-50,4,2,0,33,0,1
211213,-200,4,2,0,33,0,1
211559,-52.6315789473684,4,2,0,33,0,1
211906,-166.666666666667,4,2,0,33,0,1
212253,-100,4,2,0,33,0,1
212600,-80,4,2,0,33,0,1
212947,-66.6666666666667,4,2,0,33,0,1
213294,-57.1428571428571,4,2,0,33,0,1
213640,-50,4,2,0,33,0,1
214681,-50,4,2,0,33,0,0
214768,-66.6666666666667,4,2,0,33,0,1
214854,-100,4,2,0,33,0,0
214941,-133.333333333333,4,2,0,33,0,1
215028,-200,4,2,0,33,0,0

[Colours]
Combo1 : 0,64,0
Combo2 : 128,0,0
Combo3 : 128,0,255
Combo4 : 0,0,255
Combo5 : 0,0,64
Combo6 : 128,0,64
Combo7 : 64,0,0
Combo8 : 64,0,64

[HitObjects]
98,80,1390,5,0,0:0:0:0:
177,107,1621,1,0,0:0:0:0:
259,88,1852,1,0,0:0:0:0:
336,120,2083,2,0,L|393:145,1,56.3333333333333
448,201,2546,2,0,L|393:225,1,56.3333333333333
318,304,3008,5,0,0:0:0:0:
290,194,3239,1,0,0:0:0:0:
191,139,3470,2,0,P|143:116|118:112,2,56.3333333333333
141,207,4164,5,0,0:0:0:0:
125,290,4395,1,0,0:0:0:0:
207,273,4626,1,0,0:0:0:0:
238,194,4858,2,0,L|298:188,1,56.3333333333333
310,271,5320,1,0,0:0:0:0:
427,193,5551,5,0,0:0:0:0:
364,66,5783,1,0,0:0:0:0:
294,188,6014,1,0,0:0:0:0:
396,156,6245,5,0,0:0:0:0:
364,113,6476,1,0,0:0:0:0:
338,153,6707,1,0,0:0:0:0:
224,67,6939,6,0,P|184:63|162:63,1,56.3333333333333
230,156,7401,1,0,0:0:0:0:
122,246,7632,5,0,0:0:0:0:
190,295,7863,1,0,0:0:0:0:
261,340,8095,1,0,0:0:0:0:
352,274,8326,6,0,L|400:237,1,56.3333333333333
285,220,8788,1,0,0:0:0:0:
403,98,9020,5,0,0:0:0:0:
299,143,9251,1,0,0:0:0:0:
195,187,9482,1,0,0:0:0:0:
85,211,9713,6,0,L|84:280,1,56.3333333333333
225,267,10176,1,0,0:0:0:0:
85,211,10407,6,0,L|84:280,1,56.3333333333333
224,173,10869,1,0,0:0:0:0:
85,211,11100,6,0,L|84:280,1,56.3333333333333
223,88,11563,1,0,0:0:0:0:
85,211,11794,5,0,0:0:0:0:
222,18,12025,1,0,0:0:0:0:
224,255,12257,1,0,0:0:0:0:
224,255,12488,6,0,P|280:280|380:254,1,169
308,166,13413,2,0,L|262:104,1,56.3333333333333
308,166,13875,6,0,P|353:101|437:103,1,169
422,214,14800,1,0,0:0:0:0:
491,302,15031,1,0,0:0:0:0:
422,214,15262,5,0,0:0:0:0:
362,309,15494,1,0,0:0:0:0:
280,231,15725,1,0,0:0:0:0:
362,309,15956,5,0,0:0:0:0:
306,372,16187,1,0,0:0:0:0:
237,322,16418,1,0,0:0:0:0:
125,303,16650,6,0,P|160:243|170:236,1,56.3333333333333
252,208,17112,1,0,0:0:0:0:
252,208,17343,2,0,P|292:160|294:154,1,56.3333333333333
287,53,17806,1,0,0:0:0:0:
252,208,18037,5,0,0:0:0:0:
424,129,18731,1,0,0:0:0:0:
425,241,18962,1,0,0:0:0:0:
351,326,19193,1,0,0:0:0:0:
252,208,19424,5,0,0:0:0:0:
156,355,19887,1,0,0:0:0:0:
88,255,20118,1,0,0:0:0:0:
87,143,20349,1,0,0:0:0:0:
161,58,20580,1,0,0:0:0:0:
263,104,20811,6,0,L|327:140,1,56.3333333333333
360,233,21274,1,0,0:0:0:0:
263,104,21505,6,0,L|298:173,1,56.3333333333333
353,310,21968,1,0,0:0:0:0:
263,104,22199,6,0,L|264:177,1,67.6
263,171,23239,5,0,0:0:0:0:
305,219,23325,1,0,0:0:0:0:
368,219,23412,1,0,0:0:0:0:
409,171,23499,1,0,0:0:0:0:
411,107,23585,6,0,B|385:46|385:46|304:46|304:46|275:107,1,211.25
110,273,24279,1,0,0:0:0:0:
276,103,24626,6,0,L|276:155,1,52.8125
355,242,24799,2,0,L|355:179,1,52.8125
356,115,24973,5,0,0:0:0:0:
415,91,25059,1,0,0:0:0:0:
467,126,25146,1,0,0:0:0:0:
486,185,25233,1,0,0:0:0:0:
473,247,25319,1,0,0:0:0:0:
437,299,25406,1,0,0:0:0:0:
379,325,25493,1,0,0:0:0:0:
316,318,25580,1,0,0:0:0:0:
253,319,25666,6,0,L|196:319,1,42.25
82,319,25840,2,0,L|20:319,1,42.25
41,191,26013,6,0,L|91:191,1,42.25
210,192,26186,2,0,L|261:193,1,42.25
310,260,26360,6,0,B|371:234|371:234|371:153|371:153|310:124,1,211.25
76,336,27054,1,0,0:0:0:0:
299,110,27400,6,0,L|231:110,1,52.8125
180,206,27574,2,0,L|247:206,1,52.8125
303,189,27747,6,0,L|365:170,1,52.8125
384,235,27921,2,0,L|451:217,1,42.25
436,296,28094,5,0,0:0:0:0:
366,311,28181,1,0,0:0:0:0:
294,317,28267,1,0,0:0:0:0:
225,295,28354,1,0,0:0:0:0:
206,216,28441,6,0,P|159:250|169:354,1,169
82,362,28874,1,0,0:0:0:0:
74,277,28961,1,0,0:0:0:0:
104,198,29048,1,0,0:0:0:0:
206,216,29134,6,0,B|232:277|232:277|313:277|313:277|342:216,1,211.25
70,51,29828,1,0,0:0:0:0:
340,219,30175,6,0,L|340:141,1,52.8125
252,106,30348,2,0,L|252:189,1,52.8125
340,219,30522,6,0,B|307:288|307:288|209:288|209:288|178:215,1,253.500009670258
70,51,31215,1,0,0:0:0:0:
178,215,31562,6,0,B|193:251|193:251|242:251|242:251|258:216,1,126.750004835129
287,45,31909,6,0,L|287:138,1,63.3750024175645
371,243,32082,2,0,L|371:168,1,63.3750024175645
260,71,32256,6,0,L|272:144,1,54.9249974857332
353,216,32429,2,0,L|342:156,1,54.9249974857332
241,90,32603,6,0,L|260:141,1,46.4750014183045
341,197,32776,2,0,L|324:155,1,46.4750014183045
230,114,32949,6,0,L|251:145,1,38.0249988395691
324,184,33123,2,0,L|305:151,1,38.0249988395691
234,143,33296,5,0,0:0:0:0:
252,203,33383,1,0,0:0:0:0:
297,246,33470,1,0,0:0:0:0:
356,269,33556,1,0,0:0:0:0:
416,250,33643,1,0,0:0:0:0:
457,202,33730,1,0,0:0:0:0:
471,140,33817,1,0,0:0:0:0:
436,86,33903,1,0,0:0:0:0:
380,55,33990,1,0,0:0:0:0:
317,48,34077,1,0,0:0:0:0:
255,65,34163,1,0,0:0:0:0:
217,116,34250,1,0,0:0:0:0:
163,149,34337,1,0,0:0:0:0:
99,147,34423,1,0,0:0:0:0:
40,170,34510,1,0,0:0:0:0:
7,224,34597,1,0,0:0:0:0:
18,292,34684,6,0,L|17:350,3,42.25
92,350,35030,2,0,L|91:281,1,42.25
163,353,35204,2,0,L|161:292,1,42.25
235,351,35377,2,0,L|234:308,3,42.25
314,280,35724,2,0,L|314:322,1,42.25
390,281,35897,2,0,L|389:325,1,42.25
464,262,36071,5,0,0:0:0:0:
433,207,36158,1,0,0:0:0:0:
375,179,36244,1,0,0:0:0:0:
316,202,36331,1,0,0:0:0:0:
298,262,36418,1,0,0:0:0:0:
317,322,36504,1,0,0:0:0:0:
374,349,36591,6,0,P|444:319|447:314,1,63.3750024175645
459,274,36765,2,0,P|469:212|462:185,1,63.3750024175645
435,157,36938,2,0,P|385:102|363:92,1,63.3750024175645
334,90,37111,2,0,P|264:80|246:81,1,63.3750024175645
208,89,37285,2,0,P|145:104|133:112,1,63.3750024175645
100,146,37458,5,0,0:0:0:0:
104,209,37545,1,0,0:0:0:0:
114,271,37632,2,0,L|124:364,1,63.3750024175645
179,166,37805,5,0,0:0:0:0:
183,229,37892,1,0,0:0:0:0:
193,291,37978,2,0,L|203:384,1,63.3750024175645
252,181,38152,5,0,0:0:0:0:
256,244,38239,1,0,0:0:0:0:
266,306,38325,2,0,L|276:399,1,63.3750024175645
325,195,38499,5,0,0:0:0:0:
329,258,38585,1,0,0:0:0:0:
339,320,38672,2,0,L|349:413,1,63.3750024175645
468,342,38845,6,0,L|398:312,1,63.3750024175645
443,262,39019,2,0,L|360:229,1,63.3750024175645
418,185,39192,2,0,L|333:150,1,63.3750024175645
393,107,39366,2,0,L|300:76,1,63.3750024175645
160,66,39539,6,0,L|230:96,1,63.3750024175645
185,146,39712,2,0,L|268:179,1,63.3750024175645
210,223,39886,2,0,L|295:258,1,63.3750024175645
235,301,40059,2,0,L|328:332,1,63.3750024175645
382,241,40233,5,0,0:0:0:0:
426,191,40319,1,0,0:0:0:0:
371,157,40406,2,0,L|309:122,1,63.3750024175645
268,247,40580,5,0,0:0:0:0:
318,208,40666,1,0,0:0:0:0:
263,174,40753,2,0,L|201:139,1,63.3750024175645
140,81,40926,5,0,0:0:0:0:
90,37,41013,1,0,0:0:0:0:
56,92,41100,2,0,L|21:154,1,63.3750024175645
146,195,41273,5,0,0:0:0:0:
107,145,41360,1,0,0:0:0:0:
73,200,41447,2,0,L|38:262,1,63.3750024175645
52,342,41620,5,0,0:0:0:0:
111,360,41707,1,0,0:0:0:0:
173,349,41793,1,0,0:0:0:0:
223,310,41880,1,0,0:0:0:0:
284,292,41967,2,0,P|341:351|369:352,1,63.3750024175645
382,343,42140,2,0,P|448:300|462:277,1,63.3750024175645
409,254,42314,5,0,0:0:0:0:
355,220,42400,1,0,0:0:0:0:
336,159,42487,1,0,0:0:0:0:
356,99,42574,1,0,0:0:0:0:
412,70,42660,1,0,0:0:0:0:
470,95,42747,1,0,0:0:0:0:
495,153,42834,2,0,P|487:239|480:256,1,63.3750024175645
456,282,43007,5,0,0:0:0:0:
382,302,43094,1,0,0:0:0:0:
322,255,43181,1,0,0:0:0:0:
316,178,43267,1,0,0:0:0:0:
247,210,43354,6,0,P|173:213|136:182,1,63.3750024175645
119,178,43528,2,0,P|86:116|93:90,1,63.3750024175645
230,72,43701,2,0,P|271:128|271:154,1,63.3750024175645
123,164,43874,2,0,P|113:97|124:74,1,63.3750024175645
268,51,44048,6,0,P|295:130|295:150,1,63.3750024175645
132,159,44221,2,0,P|118:81|118:71,1,63.3750024175645
178,31,44395,5,0,0:0:0:0:
266,43,44481,1,0,0:0:0:0:
343,87,44568,1,0,0:0:0:0:
376,168,44655,1,0,0:0:0:0:
367,256,44741,1,0,0:0:0:0:
302,317,44828,1,0,0:0:0:0:
213,314,44915,2,0,P|145:272|140:259,1,63.3750024175645
90,229,45088,6,0,P|87:161|95:145,1,63.3750024175645
170,139,45262,2,0,P|261:126|276:129,1,63.3750024175645
90,229,45435,6,0,P|87:161|95:145,1,63.3750024175645
236,145,45608,2,0,P|327:132|342:135,1,63.3750024175645
392,103,45782,6,0,L|416:168,3,63.3750024175645
322,207,46129,2,0,L|357:288,3,63.3750024175645
241,227,46475,2,0,L|279:303,1,63.3750024175645
486,146,46649,2,0,L|458:72,1,63.3750024175645
377,44,46822,5,0,0:0:0:0:
281,41,46909,1,0,0:0:0:0:
202,93,46996,1,0,0:0:0:0:
167,181,47082,1,0,0:0:0:0:
255,217,47169,5,0,0:0:0:0:
286,161,47256,1,0,0:0:0:0:
342,132,47343,1,0,0:0:0:0:
404,134,47429,1,0,0:0:0:0:
441,185,47516,1,0,0:0:0:0:
443,248,47603,1,0,0:0:0:0:
417,305,47689,1,0,0:0:0:0:
365,341,47776,1,0,0:0:0:0:
301,341,47863,6,0,L|226:329,1,63.3750024175645
329,248,48036,2,0,L|246:231,1,63.3750024175645
140,197,48210,2,0,L|246:228,1,63.3750024175645
140,101,48383,2,0,L|237:136,1,63.3750024175645
299,43,48556,5,0,0:0:0:0:
358,99,48643,1,0,0:0:0:0:
398,171,48730,2,0,P|462:204|484:193,1,63.3750024175645
272,138,48903,5,0,0:0:0:0:
331,194,48990,1,0,0:0:0:0:
371,266,49077,2,0,P|435:299|457:288,1,63.3750024175645
259,344,49250,5,0,0:0:0:0:
200,288,49337,1,0,0:0:0:0:
160,216,49423,2,0,P|96:183|74:194,1,63.3750024175645
286,249,49597,5,0,0:0:0:0:
227,193,49684,1,0,0:0:0:0:
187,121,49770,2,0,P|123:88|101:99,1,63.3750024175645
378,128,49944,6,0,L|380:65,1,63.3750024175645
410,208,50117,2,0,L|413:272,1,63.3750024175645
304,168,50291,6,0,L|306:105,1,63.3750024175645
336,248,50464,2,0,L|339:312,1,63.3750024175645
235,136,50637,6,0,L|234:200,1,63.3750024175645
268,344,50811,2,0,L|266:281,1,63.3750024175645
161,176,50984,6,0,L|160:240,1,63.3750024175645
194,384,51158,2,0,L|192:321,1,63.3750024175645
46,274,51331,5,0,0:0:0:0:
68,188,51418,1,0,0:0:0:0:
113,106,51504,2,0,P|145:105|175:95,1,63.3750024175645
266,93,51678,5,0,0:0:0:0:
244,179,51765,1,0,0:0:0:0:
195,253,51851,2,0,P|163:255|134:265,1,63.3750024175645
292,278,52025,5,0,0:0:0:0:
314,192,52111,1,0,0:0:0:0:
361,116,52198,2,0,P|393:114|423:105,1,63.3750024175645
512,97,52371,5,0,0:0:0:0:
490,183,52458,1,0,0:0:0:0:
440,257,52545,2,0,P|409:258|379:268,1,63.3750024175645
179,102,52718,6,0,L|190:164,1,63.3750024175645
314,192,52892,2,0,L|302:129,1,63.3750024175645
224,231,53065,2,0,L|237:292,1,63.3750024175645
345,359,53239,2,0,L|333:296,1,63.3750024175645
467,95,53412,6,0,L|482:211,1,63.3750024175645
422,273,53585,2,0,L|409:176,1,63.3750024175645
338,107,53759,2,0,L|355:190,1,63.3750024175645
303,288,53932,2,0,L|278:194,1,63.3750024175645
196,137,54106,5,0,0:0:0:0:
111,165,54192,1,0,0:0:0:0:
71,244,54279,1,0,0:0:0:0:
99,327,54366,1,0,0:0:0:0:
183,354,54452,1,0,0:0:0:0:
264,318,54539,1,0,0:0:0:0:
316,247,54626,1,0,0:0:0:0:
293,160,54712,1,0,0:0:0:0:
263,75,54799,6,0,P|205:55|164:59,1,63.3750024175645
118,80,54973,2,0,P|50:117|34:144,1,63.3750024175645
50,194,55146,2,0,P|87:289|97:297,1,63.3750024175645
117,324,55319,2,0,P|183:344|192:341,1,63.3750024175645
159,237,55493,5,0,0:0:0:0:
213,184,55580,1,0,0:0:0:0:
281,150,55666,1,0,0:0:0:0:
353,124,55753,1,0,0:0:0:0:
428,120,55840,2,0,P|502:147|509:159,1,63.3750024175645
452,282,56013,2,0,P|389:290|382:277,1,63.3750024175645
309,298,56186,5,0,0:0:0:0:
222,275,56273,1,0,0:0:0:0:
147,225,56360,1,0,0:0:0:0:
111,143,56447,1,0,0:0:0:0:
150,64,56533,1,0,0:0:0:0:
235,40,56620,1,0,0:0:0:0:
323,51,56707,1,0,0:0:0:0:
395,101,56793,1,0,0:0:0:0:
477,160,56880,5,0,0:0:0:0:
443,256,56967,1,0,0:0:0:0:
372,337,57054,2,0,P|317:334|264:299,5,63.3750024175645
195,347,57574,5,0,0:0:0:0:
180,241,57660,1,0,0:0:0:0:
217,139,57747,2,0,P|265:85|279:76,5,63.3750024175645
381,234,58267,5,0,0:0:0:0:
302,226,60695,6,0,B|282:197|291:130|291:130|260:165|236:192|185:185,1,187.590004579834
136,178,61157,5,0,0:0:0:0:
92,140,61273,1,0,0:0:0:0:
115,87,61388,1,0,0:0:0:0:
170,76,61504,1,0,0:0:0:0:
194,127,61620,1,0,0:0:0:0:
250,134,61735,5,0,0:0:0:0:
282,87,61851,1,0,0:0:0:0:
338,78,61966,1,0,0:0:0:0:
390,99,62082,1,0,0:0:0:0:
419,147,62198,1,0,0:0:0:0:
435,201,62313,2,0,L|478:283,1,56.8966655380402
363,305,62544,6,0,L|326:225,1,56.8966655380402
218,258,62776,2,0,L|167:317,1,56.8966655380402
82,223,63007,5,0,0:0:0:0:
162,196,63122,1,0,0:0:0:0:
236,153,63238,1,0,0:0:0:0:
251,68,63354,1,0,0:0:0:0:
178,20,63469,2,0,P|122:21|77:41,1,56.8966655380402
140,114,63700,2,0,P|96:125|84:135,1,56.8966655380402
42,205,63932,5,0,0:0:0:0:
68,255,64047,1,0,0:0:0:0:
179,246,64163,5,0,0:0:0:0:
264,250,64278,1,0,0:0:0:0:
343,221,64394,1,0,0:0:0:0:
405,152,64510,5,0,0:0:0:0:
364,112,64625,1,0,0:0:0:0:
307,122,64741,1,0,0:0:0:0:
217,132,64857,5,0,0:0:0:0:
210,244,64972,1,0,0:0:0:0:
105,198,65088,1,0,0:0:0:0:
152,73,65203,5,0,0:0:0:0:
41,151,65319,1,0,0:0:0:0:
81,293,65435,1,0,0:0:0:0:
185,283,65550,5,0,0:0:0:0:
152,73,65666,1,0,0:0:0:0:
316,246,65781,1,0,0:0:0:0:
185,283,65897,6,0,L|258:251,1,56.8966655380402
430,223,66128,2,0,L|371:210,1,56.8966655380402
184,197,66359,2,0,L|264:158,1,56.8966655380402
282,122,66591,5,0,0:0:0:0:
346,99,66706,1,0,0:0:0:0:
407,129,66822,1,0,0:0:0:0:
397,196,66937,1,0,0:0:0:0:
296,223,67053,5,0,0:0:0:0:
203,245,67169,1,0,0:0:0:0:
101,249,67284,5,0,0:0:0:0:
65,183,67400,1,0,0:0:0:0:
68,109,67515,1,0,0:0:0:0:
122,58,67631,1,0,0:0:0:0:
217,101,67747,5,0,0:0:0:0:
172,159,67862,1,0,0:0:0:0:
237,264,67978,5,0,0:0:0:0:
284,207,68094,1,0,0:0:0:0:
338,157,68209,1,0,0:0:0:0:
469,108,68325,5,0,0:0:0:0:
432,172,68440,1,0,0:0:0:0:
391,233,68556,1,0,0:0:0:0:
247,339,68672,6,0,L|288:292,1,56.8966655380402
240,235,68903,2,0,L|200:284,1,56.8966655380402
159,219,69134,2,0,L|200:165,1,56.8966655380402
112,76,69365,5,0,0:0:0:0:
185,68,69481,1,0,0:0:0:0:
259,65,69596,1,0,0:0:0:0:
456,137,69712,5,0,0:0:0:0:
382,143,69828,1,0,0:0:0:0:
309,152,69943,1,0,0:0:0:0:
96,225,70059,5,0,0:0:0:0:
169,217,70174,1,0,0:0:0:0:
242,208,70290,1,0,0:0:0:0:
458,259,70406,5,0,0:0:0:0:
350,263,70521,1,0,0:0:0:0:
242,280,70637,1,0,0:0:0:0:
124,304,70752,6,0,L|107:226,1,56.8966655380402
316,109,70984,2,0,L|336:198,1,56.8966655380402
167,122,71215,1,0,0:0:0:0:
245,348,71331,1,0,0:0:0:0:
220,227,71446,5,0,0:0:0:0:
235,209,71562,1,0,0:0:0:0:
252,223,71677,1,0,0:0:0:0:
235,238,71793,1,0,0:0:0:0:
215,217,71909,1,0,0:0:0:0:
243,198,72024,1,0,0:0:0:0:
100,170,72140,5,0,0:0:0:0:
298,107,72255,1,0,0:0:0:0:
116,82,72371,1,0,0:0:0:0:
332,219,72487,1,0,0:0:0:0:
230,28,72602,1,0,0:0:0:0:
134,261,72718,1,0,0:0:0:0:
380,113,72833,1,0,0:0:0:0:
263,171,73180,5,0,0:0:0:0:
305,219,73266,1,0,0:0:0:0:
368,219,73353,1,0,0:0:0:0:
409,171,73440,1,0,0:0:0:0:
411,107,73526,6,0,B|385:46|385:46|304:46|304:46|275:107,1,211.25
32,337,74220,1,0,0:0:0:0:
276,103,74567,6,0,L|276:179,1,52.8125
355,227,74740,2,0,L|354:143,1,52.8125
438,77,74914,5,0,0:0:0:0:
448,138,75000,1,0,0:0:0:0:
444,201,75087,1,0,0:0:0:0:
422,260,75174,1,0,0:0:0:0:
375,301,75260,1,0,0:0:0:0:
311,297,75347,1,0,0:0:0:0:
263,254,75434,1,0,0:0:0:0:
225,202,75521,1,0,0:0:0:0:
170,164,75607,6,0,L|78:172,1,63.3750024175645
211,331,75781,2,0,L|303:336,1,63.3750024175645
105,245,75954,6,0,L|32:239,1,63.3750024175645
137,74,76127,2,0,L|215:82,1,63.3750024175645
266,149,76301,6,0,B|327:123|327:123|327:42|327:42|266:13,1,211.25
36,341,76995,1,0,0:0:0:0:
269,14,77341,6,0,L|198:14,1,52.8125
215,121,77515,2,0,L|293:121,1,52.8125
401,35,77688,6,0,L|400:139,1,63.3750024175645
403,307,77862,2,0,L|404:214,1,63.3750024175645
506,308,78035,6,0,L|476:232,1,63.3750024175645
300,193,78208,2,0,L|318:272,1,63.3750024175645
128,264,78382,5,0,0:0:0:0:
201,224,78729,5,0,0:0:0:0:
159,176,78815,1,0,0:0:0:0:
96,176,78902,1,0,0:0:0:0:
55,224,78989,1,0,0:0:0:0:
53,288,79075,6,0,B|79:349|79:349|160:349|160:349|189:288,1,211.25
389,112,79769,1,0,0:0:0:0:
187,291,80116,6,0,L|187:226,1,52.8125
117,157,80289,2,0,L|117:260,1,52.8125
187,291,80463,6,0,B|154:360|154:360|57:360|57:360|26:287,1,253.500009670258
389,112,81156,1,0,0:0:0:0:
52,288,81503,5,0,0:0:0:0:
226,134,81677,1,0,0:0:0:0:
296,236,81850,6,0,L|294:305,1,63.3750024175645
226,134,82023,2,0,L|223:61,1,63.3750024175645
328,245,82197,6,0,L|336:302,1,54.9249974857332
230,149,82370,2,0,L|218:82,1,54.9249974857332
367,251,82544,6,0,L|398:316,1,46.4750014183045
235,154,82717,2,0,L|209:83,1,46.4750014183045
415,263,82890,6,0,L|450:308,1,38.0249988395691
236,167,83064,2,0,L|208:130,1,38.0249988395691
310,103,83237,5,0,0:0:0:0:
267,62,83324,1,0,0:0:0:0:
207,60,83411,1,0,0:0:0:0:
150,77,83497,1,0,0:0:0:0:
115,124,83584,1,0,0:0:0:0:
112,183,83671,1,0,0:0:0:0:
129,238,83758,1,0,0:0:0:0:
169,281,83844,1,0,0:0:0:0:
227,293,83931,1,0,0:0:0:0:
285,283,84018,1,0,0:0:0:0:
328,244,84104,1,0,0:0:0:0:
346,187,84191,1,0,0:0:0:0:
352,128,84278,1,0,0:0:0:0:
313,83,84364,1,0,0:0:0:0:
256,63,84451,1,0,0:0:0:0:
197,71,84538,1,0,0:0:0:0:
142,91,84625,6,0,L|78:103,3,42.25
189,170,84971,2,0,L|253:161,3,42.25
164,257,85318,2,0,L|153:328,1,42.25
261,247,85492,2,0,L|242:302,1,42.25
352,240,85665,2,0,L|307:297,1,42.25
439,263,85838,2,0,L|398:288,1,42.25
419,189,86012,5,0,0:0:0:0:
394,130,86099,1,0,0:0:0:0:
343,93,86185,1,0,0:0:0:0:
287,62,86272,1,0,0:0:0:0:
224,48,86359,1,0,0:0:0:0:
161,55,86445,1,0,0:0:0:0:
100,75,86532,1,0,0:0:0:0:
54,119,86619,1,0,0:0:0:0:
39,188,86706,6,0,P|72:270|89:285,1,63.3750024175645
105,288,86879,2,0,P|180:316|212:321,1,63.3750024175645
226,316,87052,2,0,P|323:306|346:296,1,63.3750024175645
350,295,87226,2,0,P|430:244|440:224,1,63.3750024175645
488,206,87399,5,0,0:0:0:0:
464,146,87486,1,0,0:0:0:0:
432,91,87573,2,0,L|382:13,1,63.3750024175645
393,204,87746,5,0,0:0:0:0:
341,167,87833,1,0,0:0:0:0:
294,124,87919,2,0,L|206:57,1,63.3750024175645
306,236,88093,5,0,0:0:0:0:
248,208,88180,1,0,0:0:0:0:
194,175,88266,2,0,L|88:136,1,63.3750024175645
251,293,88440,5,0,0:0:0:0:
188,283,88526,1,0,0:0:0:0:
125,273,88613,2,0,L|20:266,1,63.3750024175645
30,324,88786,5,0,0:0:0:0:
84,356,88873,1,0,0:0:0:0:
147,349,88960,1,0,0:0:0:0:
206,328,89047,1,0,0:0:0:0:
245,277,89133,1,0,0:0:0:0:
262,215,89220,1,0,0:0:0:0:
250,152,89307,1,0,0:0:0:0:
194,122,89393,1,0,0:0:0:0:
132,107,89480,6,0,P|55:104|40:108,1,63.3750024175645
39,192,89653,2,0,P|58:272|67:292,1,63.3750024175645
127,313,89827,2,0,P|195:323|225:314,1,63.3750024175645
254,255,90000,2,0,P|273:200|268:174,1,63.3750024175645
369,192,90174,5,0,0:0:0:0:
412,146,90260,1,0,0:0:0:0:
465,180,90347,2,0,L|502:252,1,63.3750024175645
329,311,90521,5,0,0:0:0:0:
380,347,90607,1,0,0:0:0:0:
443,350,90694,2,0,L|471:293,1,63.3750024175645
208,284,90867,5,0,0:0:0:0:
165,330,90954,1,0,0:0:0:0:
112,296,91041,2,0,L|64:350,1,63.3750024175645
248,165,91214,5,0,0:0:0:0:
197,129,91301,1,0,0:0:0:0:
134,126,91388,2,0,L|90:49,1,63.3750024175645
296,98,91561,6,0,L|213:45,1,63.3750024175645
369,66,91734,2,0,L|429:27,1,63.3750024175645
369,148,91908,5,0,0:0:0:0:
422,180,91995,1,0,0:0:0:0:
417,243,92081,1,0,0:0:0:0:
367,282,92168,1,0,0:0:0:0:
308,206,92255,6,0,L|251:157,1,63.3750024175645
246,259,92428,2,0,L|183:318,1,63.3750024175645
110,268,92601,5,0,0:0:0:0:
71,217,92688,1,0,0:0:0:0:
70,153,92775,1,0,0:0:0:0:
113,107,92862,1,0,0:0:0:0:
219,88,92948,6,0,P|307:67|329:65,1,63.3750024175645
243,174,93122,2,0,L|322:194,1,63.3750024175645
356,80,93295,6,0,L|394:18,1,63.3750024175645
373,196,93469,2,0,L|397:269,1,63.3750024175645
465,116,93642,5,0,0:0:0:0:
485,176,93729,1,0,0:0:0:0:
486,238,93815,1,0,0:0:0:0:
456,294,93902,1,0,0:0:0:0:
367,329,93989,6,0,P|288:312|286:308,1,63.3750024175645
287,238,94162,2,0,P|189:236|182:243,1,63.3750024175645
153,276,94336,5,0,0:0:0:0:
100,239,94422,1,0,0:0:0:0:
84,177,94509,1,0,0:0:0:0:
114,121,94596,1,0,0:0:0:0:
172,98,94682,1,0,0:0:0:0:
230,122,94769,1,0,0:0:0:0:
242,179,94856,2,0,P|275:224|295:218,1,63.3750024175645
343,110,95029,6,0,L|334:47,1,63.3750024175645
470,112,95203,2,0,L|483:173,1,63.3750024175645
378,236,95376,6,0,L|366:173,1,63.3750024175645
491,274,95549,2,0,L|504:335,1,63.3750024175645
409,337,95723,5,0,0:0:0:0:
315,346,95810,1,0,0:0:0:0:
222,323,95896,1,0,0:0:0:0:
140,273,95983,1,0,0:0:0:0:
76,207,96070,5,0,0:0:0:0:
61,186,96156,1,0,0:0:0:0:
52,162,96243,1,0,0:0:0:0:
55,136,96330,1,0,0:0:0:0:
106,100,96416,5,0,0:0:0:0:
164,74,96503,1,0,0:0:0:0:
226,65,96590,1,0,0:0:0:0:
289,56,96677,1,0,0:0:0:0:
382,41,96763,5,0,0:0:0:0:
366,135,96850,1,0,0:0:0:0:
346,228,96937,1,0,0:0:0:0:
322,319,97023,1,0,0:0:0:0:
247,334,97110,5,0,0:0:0:0:
171,327,97197,1,0,0:0:0:0:
117,273,97284,1,0,0:0:0:0:
97,199,97370,1,0,0:0:0:0:
118,125,97457,1,0,0:0:0:0:
182,83,97544,1,0,0:0:0:0:
256,69,97630,1,0,0:0:0:0:
332,63,97717,1,0,0:0:0:0:
411,82,97804,6,0,P|440:163|440:192,1,63.3750024175645
392,292,97977,2,0,P|441:212|444:197,1,63.3750024175645
301,145,98151,6,0,P|267:141|223:156,1,63.3750024175645
297,295,98324,2,0,P|248:300|213:288,1,63.3750024175645
168,260,98497,5,0,0:0:0:0:
100,223,98584,1,0,0:0:0:0:
34,259,98671,2,0,P|23:210|48:176,1,63.3750024175645
261,201,98844,5,0,0:0:0:0:
193,164,98931,1,0,0:0:0:0:
127,123,99018,2,0,P|116:163|128:198,1,63.3750024175645
354,142,99191,5,0,0:0:0:0:
422,179,99278,1,0,0:0:0:0:
487,133,99364,2,0,P|498:182|480:223,1,63.3750024175645
261,201,99538,5,0,0:0:0:0:
329,238,99625,1,0,0:0:0:0:
390,286,99711,2,0,P|401:246|393:211,1,63.3750024175645
297,303,99885,5,0,0:0:0:0:
228,333,99971,1,0,0:0:0:0:
152,319,100058,1,0,0:0:0:0:
107,256,100145,1,0,0:0:0:0:
120,181,100232,1,0,0:0:0:0:
177,130,100318,1,0,0:0:0:0:
252,118,100405,1,0,0:0:0:0:
326,133,100492,1,0,0:0:0:0:
400,141,100578,6,0,B|389:176|389:176|344:207,1,63.3750024175645
444,330,100752,2,0,B|420:291|420:291|375:328,1,63.3750024175645
276,194,100925,6,0,L|208:210,1,63.3750024175645
260,354,101099,2,0,L|191:343,1,63.3750024175645
4,330,101272,5,0,0:0:0:0:
37,283,101359,1,0,0:0:0:0:
79,238,101445,2,0,P|152:232|163:229,1,63.3750024175645
243,258,101619,5,0,0:0:0:0:
214,208,101706,1,0,0:0:0:0:
192,155,101792,2,0,P|186:82|183:71,1,63.3750024175645
137,15,101966,5,0,0:0:0:0:
195,19,102052,1,0,0:0:0:0:
252,16,102139,2,0,P|314:69|335:69,1,63.3750024175645
414,28,102312,5,0,0:0:0:0:
379,73,102399,1,0,0:0:0:0:
355,125,102486,2,0,P|321:182|330:207,1,63.3750024175645
361,274,102659,6,0,P|358:354|364:376,1,63.3750024175645
397,215,102833,2,0,P|424:150|436:130,1,63.3750024175645
301,252,103006,6,0,P|277:336|278:358,1,63.3750024175645
332,176,103180,2,0,P|372:109|398:76,1,63.3750024175645
211,288,103353,6,0,P|211:257|217:226,1,63.3750024175645
276,107,103526,2,0,P|263:136|253:166,1,63.3750024175645
135,263,103700,6,0,P|143:232|157:204,1,63.3750024175645
219,73,103873,2,0,P|202:100|188:128,1,63.3750024175645
52,211,104047,6,0,P|14:279|4:286,1,63.3750024175645
58,93,104220,2,0,P|36:31|20:25,1,63.3750024175645
157,203,104393,6,0,P|175:285|180:294,1,63.3750024175645
219,73,104567,2,0,P|257:8|280:-5,1,63.3750024175645
380,91,104740,6,0,L|398:163,1,63.3750024175645
317,152,104914,2,0,L|341:236,1,63.3750024175645
253,226,105087,2,0,L|278:321,1,63.3750024175645
191,290,105260,2,0,L|217:367,1,63.3750024175645
313,338,105434,5,0,0:0:0:0:
388,306,105521,1,0,0:0:0:0:
436,238,105607,1,0,0:0:0:0:
445,155,105694,1,0,0:0:0:0:
395,88,105781,1,0,0:0:0:0:
316,64,105867,1,0,0:0:0:0:
233,61,105954,1,0,0:0:0:0:
150,70,106041,1,0,0:0:0:0:
89,124,106127,2,0,P|82:221|86:245,1,63.3750024175645
169,299,106301,5,0,0:0:0:0:
169,299,106388,2,0,P|171:267|177:236,1,63.3750024175645
273,144,106561,5,0,0:0:0:0:
273,144,106648,2,0,P|266:241|270:265,1,63.3750024175645
296,283,106821,5,0,0:0:0:0:
438,217,106995,1,0,0:0:0:0:
175,190,107168,1,0,0:0:0:0:
407,344,107341,1,0,0:0:0:0:
322,59,107515,1,0,0:0:0:0:
152,361,107688,1,0,0:0:0:0:
475,178,107862,1,0,0:0:0:0:
425,88,108035,5,0,0:0:0:0:
372,182,108122,1,0,0:0:0:0:
446,273,108208,1,0,0:0:0:0:
302,226,110636,6,0,B|282:197|291:130|291:130|260:165|236:192|185:185,1,187.590004579834
188,185,111070,1,0,0:0:0:0:
158,170,111156,1,0,0:0:0:0:
151,137,111243,1,0,0:0:0:0:
170,110,111330,1,0,0:0:0:0:
196,90,111416,1,0,0:0:0:0:
227,80,111503,1,0,0:0:0:0:
259,78,111590,1,0,0:0:0:0:
291,81,111677,1,0,0:0:0:0:
319,96,111763,1,0,0:0:0:0:
345,115,111850,1,0,0:0:0:0:
363,142,111937,1,0,0:0:0:0:
375,171,112023,1,0,0:0:0:0:
371,203,112110,1,0,0:0:0:0:
360,234,112197,1,0,0:0:0:0:
342,261,112284,1,0,0:0:0:0:
311,283,112370,6,0,L|241:284,1,46.8975011449585
236,302,112544,2,0,L|164:301,1,46.8975011449585
161,283,112717,2,0,L|91:286,1,46.8975011449585
88,263,112890,2,0,L|29:260,1,46.8975011449585
13,205,113064,5,0,0:0:0:0:
36,148,113151,1,0,0:0:0:0:
85,112,113237,1,0,0:0:0:0:
144,96,113324,1,0,0:0:0:0:
204,86,113411,1,0,0:0:0:0:
264,83,113497,1,0,0:0:0:0:
324,91,113584,1,0,0:0:0:0:
382,107,113671,1,0,0:0:0:0:
407,127,113758,5,0,0:0:0:0:
408,159,113844,1,0,0:0:0:0:
405,191,113931,1,0,0:0:0:0:
401,223,114018,1,0,0:0:0:0:
333,196,114104,5,0,0:0:0:0:
312,207,114191,1,0,0:0:0:0:
291,218,114278,1,0,0:0:0:0:
270,228,114364,1,0,0:0:0:0:
237,161,114451,5,0,0:0:0:0:
222,160,114538,1,0,0:0:0:0:
208,157,114625,1,0,0:0:0:0:
194,154,114711,1,0,0:0:0:0:
275,90,114798,6,0,L|232:63,1,46.8975011449585
294,71,114971,2,0,L|252:33,1,46.8975011449585
323,44,115145,5,0,0:0:0:0:
462,172,115318,1,0,0:0:0:0:
431,183,115405,1,0,0:0:0:0:
398,190,115492,1,0,0:0:0:0:
366,182,115578,1,0,0:0:0:0:
333,182,115665,2,0,P|319:208|354:210,1,46.8975011449585
416,244,115838,5,0,0:0:0:0:
153,231,115925,1,0,0:0:0:0:
91,126,116185,5,0,0:0:0:0:
416,244,116272,1,0,0:0:0:0:
91,126,116532,5,0,0:0:0:0:
133,106,116619,1,0,0:0:0:0:
177,91,116706,1,0,0:0:0:0:
223,87,116792,1,0,0:0:0:0:
270,88,116879,1,0,0:0:0:0:
316,93,116966,1,0,0:0:0:0:
361,104,117052,1,0,0:0:0:0:
405,118,117139,1,0,0:0:0:0:
444,143,117226,2,0,L|465:225,1,46.8975011449585
419,218,117399,2,0,L|393:296,1,46.8975011449585
448,279,117573,2,0,L|478:346,1,46.8975011449585
420,326,117746,2,0,L|382:362,1,46.8975011449585
316,334,117919,5,0,0:0:0:0:
246,319,118006,1,0,0:0:0:0:
181,290,118093,1,0,0:0:0:0:
123,249,118180,1,0,0:0:0:0:
153,183,118266,5,0,0:0:0:0:
185,190,118353,1,0,0:0:0:0:
217,197,118440,1,0,0:0:0:0:
248,206,118526,1,0,0:0:0:0:
295,207,118613,5,0,0:0:0:0:
341,198,118700,1,0,0:0:0:0:
378,170,118786,1,0,0:0:0:0:
400,128,118873,1,0,0:0:0:0:
388,82,118960,1,0,0:0:0:0:
345,62,119047,1,0,0:0:0:0:
298,53,119133,1,0,0:0:0:0:
251,57,119220,1,0,0:0:0:0:
180,84,119307,6,0,L|182:172,1,46.8975011449585
113,265,119480,2,0,L|113:201,1,46.8975011449585
273,125,119653,2,0,L|273:202,1,46.8975011449585
207,291,119827,2,0,L|209:207,1,46.8975011449585
309,290,120000,5,0,0:0:0:0:
343,257,120087,1,0,0:0:0:0:
386,238,120174,1,0,0:0:0:0:
424,211,120260,1,0,0:0:0:0:
446,169,120347,1,0,0:0:0:0:
430,124,120434,1,0,0:0:0:0:
394,93,120521,1,0,0:0:0:0:
347,86,120607,1,0,0:0:0:0:
267,104,120694,6,0,L|193:109,1,46.8975011449585
124,181,120867,1,0,0:0:0:0:
167,200,120954,1,0,0:0:0:0:
208,221,121041,1,0,0:0:0:0:
251,236,121127,1,0,0:0:0:0:
296,246,121214,1,0,0:0:0:0:
341,256,121301,2,0,L|396:267,1,46.8975011449585
124,181,121734,5,0,0:0:0:0:
194,207,121821,1,0,0:0:0:0:
263,235,121908,1,0,0:0:0:0:
333,259,121995,1,0,0:0:0:0:
409,225,122081,6,0,L|435:210,1,25.9837503964806
381,196,122168,2,0,L|422:176,1,25.9837503964806
355,165,122255,2,0,L|397:138,1,25.9837503964806
326,138,122341,2,0,L|361:108,1,25.9837503964806
293,119,122428,2,0,L|295:81,1,25.9837503964806
241,118,122515,2,0,L|243:81,1,25.9837503964806
198,119,122601,2,0,L|176:80,1,25.9837503964806
157,141,122688,2,0,L|129:118,1,25.9837503964806
120,174,122775,2,0,L|85:179,1,25.9837503964806
125,218,122862,2,0,L|87:228,1,25.9837503964806
138,260,122948,2,0,L|102:281,1,25.9837503964806
161,298,123035,2,0,L|131:331,1,25.9837503964806
192,336,123122,6,0,P|236:346|304:317,1,103.935001585922
411,187,123469,5,0,0:0:0:0:
113,194,123642,1,0,0:0:0:0:
113,194,123729,5,0,0:0:0:0:
113,194,123815,1,0,0:0:0:0:
326,68,123989,1,0,0:0:0:0:
194,342,124162,1,0,0:0:0:0:
262,195,124509,5,0,0:0:0:0:
384,193,124856,6,0,L|421:164,1,28.5187501087904
351,163,124943,2,0,L|376:130,1,28.5187501087904
310,145,125029,2,0,L|318:107,1,28.5187501087904
266,147,125116,2,0,L|244:119,1,28.5187501087904
230,179,125203,2,0,L|180:182,1,28.5187501087904
226,231,125289,2,0,L|191:261,1,28.5187501087904
253,279,125376,2,0,L|245:330,1,28.5187501087904
306,302,125463,2,0,L|326:346,1,28.5187501087904
364,295,125549,2,0,L|399:330,1,28.5187501087904
407,262,125636,2,0,L|455:268,1,28.5187501087904
436,207,125723,2,0,L|470:190,1,28.5187501087904
406,179,125810,2,0,L|433:150,1,28.5187501087904
370,138,125896,6,0,P|309:116|261:122,1,114.075000435162
37,51,126243,5,0,0:0:0:0:
220,324,126416,1,0,0:0:0:0:
220,324,126503,1,0,0:0:0:0:
220,324,126590,5,0,0:0:0:0:
442,48,126763,1,0,0:0:0:0:
42,231,126937,1,0,0:0:0:0:
269,210,127370,5,0,0:0:0:0:
269,210,127457,1,0,0:0:0:0:
269,210,127544,1,0,0:0:0:0:
427,106,127630,6,0,L|429:182,1,63.3750024175645
431,306,127804,2,0,L|429:211,1,65.48750049963
336,76,127977,6,0,L|336:165,1,67.6
339,325,128151,2,0,L|337:240,1,65.48750049963
250,56,128324,6,0,L|251:136,1,67.6
252,343,128497,2,0,L|252:265,1,69.7125006648302
149,28,128671,6,0,L|149:142,1,71.8250013699532
152,358,128844,2,0,L|152:269,1,69.7125006648302
21,134,129018,6,0,L|99:151,1,71.8250013699532
321,133,129191,2,0,L|407:146,1,73.937500705123
23,215,129364,6,0,L|134:235,1,76.0499976791383
342,208,129538,2,0,L|441:220,1,73.937500705123
12,290,129711,6,0,L|103:309,1,76.0499976791383
367,285,129885,2,0,L|454:297,1,78.1624997018337
11,360,130058,6,0,L|116:378,1,80.2749978564263
397,361,130232,2,0,L|500:375,1,82.3875003142834
256,192,130405,12,0,131792,0:0:0:0:
256,197,132947,5,0,0:0:0:0:
256,197,133178,6,0,P|294:172|329:165,1,56.3333333333333
395,235,133641,1,0,0:0:0:0:
297,291,133872,2,0,L|222:285,2,56.3333333333333
208,361,134566,5,0,0:0:0:0:
139,271,134797,1,0,0:0:0:0:
229,203,135028,1,0,0:0:0:0:
340,215,135259,6,0,P|393:192|397:183,1,56.3333333333333
346,91,135722,1,0,0:0:0:0:
177,101,135953,5,0,0:0:0:0:
269,241,136184,1,0,0:0:0:0:
394,128,136415,1,0,0:0:0:0:
222,128,136647,5,0,0:0:0:0:
273,194,136878,1,0,0:0:0:0:
338,136,137109,1,0,0:0:0:0:
406,46,137340,6,0,P|447:90|451:98,1,56.3333333333333
426,197,137803,1,0,0:0:0:0:
370,295,138034,6,0,P|344:325|325:331,1,56.3333333333333
216,331,138496,1,0,0:0:0:0:
257,185,138727,5,0,0:0:0:0:
257,185,139421,2,0,L|191:167,1,56.3333333333333
323,97,139884,5,0,0:0:0:0:
385,253,140115,2,0,P|344:283|327:283,1,56.3333333333333
228,294,140577,1,0,0:0:0:0:
126,245,140808,5,0,0:0:0:0:
267,68,141040,1,0,0:0:0:0:
382,260,141271,1,0,0:0:0:0:
126,245,141502,5,0,0:0:0:0:
234,114,141733,1,0,0:0:0:0:
350,236,141964,1,0,0:0:0:0:
126,245,142196,5,0,0:0:0:0:
199,158,142427,1,0,0:0:0:0:
286,228,142658,1,0,0:0:0:0:
126,245,142889,5,0,0:0:0:0:
105,162,143121,1,0,0:0:0:0:
84,80,143352,1,0,0:0:0:0:
241,253,143583,5,0,0:0:0:0:
220,170,143814,1,0,0:0:0:0:
199,88,144045,1,0,0:0:0:0:
303,47,144277,6,0,P|348:41|374:52,1,56.3333333333333
377,154,144739,1,0,0:0:0:0:
304,274,144970,5,0,0:0:0:0:
175,215,145201,1,0,0:0:0:0:
232,343,145433,1,0,0:0:0:0:
79,304,145664,6,0,P|56:241|54:232,1,56.3333333333333
58,251,146011,1,0,0:0:0:0:
89,179,146126,1,0,0:0:0:0:
300,120,146358,6,0,L|271:175,1,56.3333333333333
135,309,146820,1,0,0:0:0:0:
330,283,147051,5,0,0:0:0:0:
113,221,147282,1,0,0:0:0:0:
257,356,147514,1,0,0:0:0:0:
234,188,147745,1,0,0:0:0:0:
214,48,147976,1,0,0:0:0:0:
121,111,148207,1,0,0:0:0:0:
68,211,148438,6,0,L|32:270,2,56.3333333333333
168,261,149132,2,0,L|153:328,2,56.3333333333333
275,295,149826,6,0,P|322:250|332:249,1,56.3333333333333
310,253,150173,1,0,0:0:0:0:
353,218,150288,1,0,0:0:0:0:
278,133,150519,6,0,P|235:150|210:170,1,56.3333333333333
165,250,150982,1,0,0:0:0:0:
87,168,151213,6,0,L|103:100,1,56.3333333333333
99,113,151560,1,0,0:0:0:0:
144,78,151675,1,0,0:0:0:0:
256,85,151907,6,0,L|318:77,1,56.3333333333333
378,168,152369,2,0,L|301:178,1,56.3333333333333
98,209,152832,1,0,0:0:0:0:
193,269,153063,1,0,0:0:0:0:
158,46,153294,1,0,0:0:0:0:
249,188,153525,1,0,0:0:0:0:
358,160,153756,1,0,0:0:0:0:
358,160,153988,5,0,0:0:0:0:
61,279,155375,2,0,L|62:263,1,10.5625
61,279,155462,6,0,L|62:263,1,12.6749996131897
61,279,155548,6,0,L|62:263,1,14.7874995487213
61,279,155635,6,0,L|61:255,1,16.9
61,279,155722,6,0,L|61:247,1,19.0124994197846
61,279,155808,6,0,L|61:255,1,21.125
61,279,155895,6,0,L|61:255,1,23.2375007091522
61,279,155982,6,0,L|61:247,1,25.3499992263794
61,279,156068,6,0,L|61:247,1,27.4624987428666
61,279,156155,6,0,L|61:247,1,29.5749990974427
61,279,156242,6,0,L|61:247,1,31.6875012087822
61,279,156329,6,0,L|60:239,1,33.8
61,279,156415,6,0,L|60:239,1,35.7012506673284
61,279,156502,6,0,L|60:239,1,38.0249988395691
61,279,156589,6,0,L|59:231,1,40.1374989282131
61,279,156675,6,0,L|60:232,1,42.25
120,258,156762,5,0,0:0:0:0:
199,283,156848,1,0,0:0:0:0:
283,275,156935,1,0,0:0:0:0:
356,233,157022,1,0,0:0:0:0:
415,172,157109,1,0,0:0:0:0:
404,88,157195,1,0,0:0:0:0:
326,53,157282,1,0,0:0:0:0:
241,55,157369,1,0,0:0:0:0:
158,68,157455,6,0,P|168:124|236:186,1,84.5
96,139,157629,2,0,P|144:214|211:235,1,84.5
57,235,157802,2,0,P|162:285|193:272,1,84.5
53,337,157976,2,0,P|147:359|190:325,1,84.5
205,324,158149,5,0,0:0:0:0:
274,275,158236,1,0,0:0:0:0:
335,218,158322,2,0,L|407:151,1,84.5
193,239,158496,5,0,0:0:0:0:
262,190,158583,1,0,0:0:0:0:
323,133,158669,2,0,L|395:66,1,84.5
250,105,158843,5,0,0:0:0:0:
181,154,158930,1,0,0:0:0:0:
120,211,159016,2,0,L|48:278,1,84.5
262,190,159190,5,0,0:0:0:0:
193,239,159277,1,0,0:0:0:0:
132,296,159363,2,0,L|60:363,1,84.5
237,328,159536,6,0,L|325:380,1,84.5
463,294,159710,2,0,L|394:357,1,84.5
269,257,159883,2,0,L|343:307,1,84.5
459,181,160057,2,0,L|399:242,1,84.5
301,107,160230,6,0,L|220:35,1,84.5
82,117,160403,2,0,L|147:45,1,84.5
252,174,160577,2,0,L|184:109,1,84.5
79,243,160750,2,0,L|151:167,1,84.5
40,323,160924,5,0,0:0:0:0:
121,343,161010,1,0,0:0:0:0:
202,319,161097,2,0,P|302:297|337:308,1,84.5
79,243,161270,5,0,0:0:0:0:
162,251,161356,1,0,0:0:0:0:
242,225,161443,2,0,P|342:192|377:214,1,84.5
94,164,161617,5,0,0:0:0:0:
177,168,161703,1,0,0:0:0:0:
255,134,161790,2,0,P|357:103|389:108,1,84.5
87,86,161964,5,0,0:0:0:0:
170,74,162050,1,0,0:0:0:0:
250,46,162137,2,0,P|341:-2|383:10,1,84.5
436,123,162311,6,0,L|509:196,1,84.5
408,328,162484,2,0,L|327:246,1,84.5
432,118,162658,2,0,L|355:189,1,84.5
410,345,162831,2,0,L|506:223,1,84.5
300,222,163005,6,0,L|234:170,1,84.5
68,209,163178,2,0,L|125:271,1,84.5
289,222,163352,2,0,L|229:282,1,84.5
79,202,163525,2,0,L|139:143,1,84.5
46,105,163698,5,0,0:0:0:0:
123,69,163785,1,0,0:0:0:0:
207,63,163872,1,0,0:0:0:0:
287,84,163958,1,0,0:0:0:0:
292,168,164045,5,0,0:0:0:0:
376,171,164132,1,0,0:0:0:0:
442,222,164218,1,0,0:0:0:0:
479,298,164305,1,0,0:0:0:0:
403,336,164392,5,0,0:0:0:0:
320,315,164479,1,0,0:0:0:0:
255,261,164565,1,0,0:0:0:0:
202,194,164652,1,0,0:0:0:0:
32,180,164739,6,0,L|59:274,1,84.5
144,117,164912,2,0,L|292:134,1,84.5
176,48,165085,5,0,0:0:0:0:
269,49,165172,1,0,0:0:0:0:
355,84,165259,1,0,0:0:0:0:
386,171,165346,1,0,0:0:0:0:
376,262,165432,1,0,0:0:0:0:
309,326,165519,1,0,0:0:0:0:
215,323,165606,2,0,P|122:294|110:278,1,84.5
73,214,165779,2,0,P|192:148|309:218,2,253.5
167,236,166473,5,0,0:0:0:0:
184,309,166559,1,0,0:0:0:0:
244,354,166646,1,0,0:0:0:0:
314,383,166733,1,0,0:0:0:0:
385,289,166820,5,0,0:0:0:0:
457,267,166906,1,0,0:0:0:0:
437,193,166993,1,0,0:0:0:0:
398,127,167080,1,0,0:0:0:0:
313,32,167166,5,0,0:0:0:0:
292,105,167253,1,0,0:0:0:0:
217,89,167340,1,0,0:0:0:0:
150,126,167427,1,0,0:0:0:0:
31,199,167513,5,0,0:0:0:0:
66,266,167600,1,0,0:0:0:0:
140,284,167687,1,0,0:0:0:0:
203,324,167773,1,0,0:0:0:0:
305,315,167860,5,0,0:0:0:0:
377,271,167947,1,0,0:0:0:0:
428,205,168033,1,0,0:0:0:0:
409,122,168120,1,0,0:0:0:0:
334,81,168207,1,0,0:0:0:0:
249,77,168294,1,0,0:0:0:0:
168,101,168380,1,0,0:0:0:0:
89,152,168467,1,0,0:0:0:0:
41,242,168554,6,0,P|124:281|148:284,1,84.5
274,338,168727,2,0,P|367:324|401:290,1,84.5
195,265,168901,6,0,P|267:250|316:188,1,84.5
418,157,169074,2,0,P|485:97|488:71,1,84.5
400,82,169247,5,0,0:0:0:0:
315,90,169334,1,0,0:0:0:0:
230,98,169421,2,0,P|256:31|291:23,1,84.5
27,140,169594,5,0,0:0:0:0:
112,132,169681,1,0,0:0:0:0:
188,154,169768,2,0,P|162:221|127:229,1,84.5
398,213,169941,5,0,0:0:0:0:
332,266,170028,1,0,0:0:0:0:
255,230,170115,2,0,P|281:163|316:155,1,84.5
43,231,170288,5,0,0:0:0:0:
116,272,170375,1,0,0:0:0:0:
200,276,170462,2,0,P|174:343|139:351,1,84.5
307,364,170635,5,0,0:0:0:0:
390,353,170721,1,0,0:0:0:0:
458,303,170808,1,0,0:0:0:0:
474,219,170895,1,0,0:0:0:0:
446,139,170981,1,0,0:0:0:0:
392,73,171068,1,0,0:0:0:0:
309,52,171155,2,0,P|204:26|189:28,1,84.5
112,35,171328,6,0,P|72:119|71:155,1,84.5
149,261,171502,2,0,P|202:179|208:130,1,84.5
21,189,171675,2,0,P|57:284|96:321,1,84.5
198,193,171848,2,0,P|193:105|173:84,1,84.5
236,39,172022,5,0,0:0:0:0:
295,98,172109,1,0,0:0:0:0:
381,126,172195,2,0,P|358:160|320:177,1,84.5
366,40,172369,5,0,0:0:0:0:
442,76,172456,1,0,0:0:0:0:
443,171,172542,2,0,P|480:154|520:124,1,84.5
464,258,172716,5,0,0:0:0:0:
376,243,172803,1,0,0:0:0:0:
320,176,172889,2,0,P|290:225|299:263,1,84.5
335,328,173062,5,0,0:0:0:0:
236,340,173149,1,0,0:0:0:0:
144,297,173236,2,0,P|165:258|201:246,1,84.5
316,106,173409,6,0,P|414:60|441:58,1,84.5
320,222,173583,2,0,P|418:285|438:283,1,84.5
244,176,173756,6,0,P|171:261|142:265,1,84.5
178,78,173929,2,0,P|103:35|29:54,1,84.5
89,136,174103,5,0,0:0:0:0:
68,218,174190,1,0,0:0:0:0:
100,295,174276,1,0,0:0:0:0:
178,326,174363,1,0,0:0:0:0:
262,324,174450,1,0,0:0:0:0:
339,291,174536,1,0,0:0:0:0:
397,229,174623,2,0,P|432:141|420:113,1,84.5
328,86,174796,6,0,P|225:79|207:85,1,84.5
152,218,174970,2,0,P|243:263|271:259,1,84.5
102,78,175143,6,0,P|84:117|86:159,1,84.5
221,261,175317,2,0,P|237:222|235:181,1,84.5
316,157,175490,5,0,0:0:0:0:
316,157,175577,1,0,0:0:0:0:
423,169,175664,5,0,0:0:0:0:
423,169,175750,1,0,0:0:0:0:
416,264,175837,5,0,0:0:0:0:
416,264,175924,1,0,0:0:0:0:
311,258,176010,5,0,0:0:0:0:
311,258,176097,1,0,0:0:0:0:
234,180,176184,6,0,P|239:75|255:71,1,84.5
409,61,176357,2,0,P|420:156|406:175,1,84.5
165,211,176531,6,0,P|162:140|185:113,1,84.5
485,43,176704,2,0,P|460:125|422:164,1,84.5
294,111,176877,2,0,L|219:367,2,253.5
433,235,177571,5,0,0:0:0:0:
344,278,177658,1,0,0:0:0:0:
244,284,177744,1,0,0:0:0:0:
151,272,177831,1,0,0:0:0:0:
102,182,177918,5,0,0:0:0:0:
176,112,178005,1,0,0:0:0:0:
274,130,178091,1,0,0:0:0:0:
319,38,178178,1,0,0:0:0:0:
428,29,178265,5,0,0:0:0:0:
461,132,178351,1,0,0:0:0:0:
417,233,178438,1,0,0:0:0:0:
459,334,178525,1,0,0:0:0:0:
342,345,178611,5,0,0:0:0:0:
223,354,178698,1,0,0:0:0:0:
125,287,178785,1,0,0:0:0:0:
10,255,178872,1,0,0:0:0:0:
41,161,178958,6,0,L|151:140,1,84.5
187,43,179132,2,0,L|296:18,1,84.5
352,109,179305,2,0,L|470:76,1,84.5
458,203,179479,2,0,L|343:242,1,84.5
279,164,179652,2,0,L|153:193,1,84.5
134,284,179825,2,0,L|26:305,1,84.5
211,274,179999,5,0,0:0:0:0:
277,352,180085,1,0,0:0:0:0:
385,352,180172,1,0,0:0:0:0:
442,276,180259,1,0,0:0:0:0:
442,276,180346,6,0,P|384:250|367:261,3,84.5
371,257,181473,1,0,0:0:0:0:
371,257,181559,1,0,0:0:0:0:
371,257,181646,1,0,0:0:0:0:
371,257,181733,6,0,P|408:174|300:115,1,221.390004053772
306,189,182253,2,0,L|218:201,2,55.347501013443
168,110,182600,6,0,P|120:204|207:290,1,221.390004053772
252,66,183120,6,0,L|388:50,1,110.695002026886
212,167,183467,2,0,L|367:155,1,110.695002026886
153,259,183814,2,0,L|288:252,1,110.695002026886
86,338,184161,2,0,L|204:339,1,110.695002026886
336,331,184507,6,0,B|391:279|391:279|378:247|378:247|422:219|415:133,1,221.390004053772
268,136,185028,1,0,0:0:0:0:
465,269,185201,5,0,0:0:0:0:
313,57,185461,1,0,0:0:0:0:
203,314,185721,1,0,0:0:0:0:
80,236,185895,6,0,P|147:172|267:230,1,221.390004053772
257,211,186415,1,0,0:0:0:0:
257,211,186588,2,0,P|342:280|440:185,1,221.390004053772
428,231,187109,1,0,0:0:0:0:
404,158,187282,6,0,L|445:83,3,55.347501013443
304,65,187629,2,0,L|271:137,1,55.347501013443
257,211,187802,2,0,L|235:271,1,55.347501013443
149,323,187976,5,0,0:0:0:0:
350,351,188236,1,0,0:0:0:0:
480,147,188496,1,0,0:0:0:0:
252,198,188669,5,0,0:0:0:0:
343,249,189016,6,0,L|342:166,1,55.347501013443
229,54,189190,2,0,L|125:52,1,55.347501013443
92,287,189363,2,0,L|91:362,1,55.347501013443
389,345,189536,2,0,L|470:345,1,55.347501013443
309,344,189710,5,0,0:0:0:0:
222,272,189796,1,0,0:0:0:0:
225,146,189883,1,0,0:0:0:0:
316,64,189970,1,0,0:0:0:0:
488,83,190057,6,0,L|438:173,1,84.5
320,309,190230,2,0,L|371:237,1,84.5
470,57,190403,2,0,L|443:137,1,84.5
323,330,190577,2,0,L|411:229,1,84.5
190,338,190750,6,0,L|175:240,1,84.5
31,320,190924,2,0,L|66:224,1,84.5
217,47,191097,2,0,L|173:160,1,84.5
59,64,191270,2,0,L|83:159,1,84.5
349,163,191444,6,0,P|402:85|396:47,1,84.5
300,277,191617,2,0,P|343:356|368:354,1,84.5
164,262,191791,2,0,P|101:334|69:331,1,84.5
209,166,191964,2,0,P|177:87|188:65,1,84.5
439,187,192138,6,0,P|404:211|363:216,1,84.5
247,366,192311,2,0,P|240:325|263:291,1,84.5
82,246,192485,2,0,P|123:238|153:210,1,84.5
247,70,192658,2,0,P|231:108|240:149,1,84.5
410,56,192831,6,0,L|327:140,1,84.5
140,126,193005,2,0,L|44:70,1,84.5
467,141,193178,2,0,L|375:209,1,84.5
78,183,193351,2,0,L|-18:143,1,84.5
245,31,193525,6,0,L|229:125,1,84.5
203,359,193698,2,0,L|235:252,1,84.5
261,10,193872,2,0,L|246:107,1,84.5
202,381,194045,2,0,L|231:288,1,84.5
105,87,194218,6,0,L|176:132,1,84.5
408,308,194392,2,0,L|338:259,1,84.5
82,189,194565,6,0,L|204:210,1,84.5
467,200,194739,2,0,L|340:192,1,84.5
90,313,194912,6,0,L|201:270,1,84.5
452,58,195085,2,0,L|356:129,1,84.5
212,377,195259,6,0,L|265:239,1,84.5
308,7,195432,2,0,L|291:124,1,84.5
329,237,195606,6,0,P|383:148|379:121,1,84.5
183,109,195779,2,0,P|116:196|115:213,1,84.5
391,279,195953,6,0,P|455:216|443:151,1,84.5
112,75,196126,2,0,P|29:156|29:167,1,84.5
363,80,196299,6,0,P|417:169|413:196,1,84.5
137,276,196472,2,0,P|62:204|69:172,1,84.5
421,37,196646,6,0,P|489:111|473:165,1,84.5
90,345,196819,2,0,P|-4:289|0:256,1,84.5
149,176,196993,6,0,P|187:87|167:59,1,84.5
363,189,197166,2,0,P|340:224|341:266,1,84.5
171,272,197340,2,0,P|213:275|249:297,1,84.5
350,106,197513,2,0,P|308:104|272:81,1,84.5
74,270,197687,6,0,P|132:347|166:344,1,84.5
455,79,197860,2,0,P|436:41|400:21,1,84.5
432,320,198033,2,0,P|408:354|371:374,1,84.5
81,87,198207,2,0,P|104:52|141:32,1,84.5
278,105,198380,6,0,L|296:3,1,84.5
229,212,198554,2,0,L|192:94,1,84.5
300,273,198727,2,0,L|333:148,1,84.5
252,368,198901,2,0,L|216:274,1,84.5
395,308,199074,6,0,P|453:141|351:81,2,253.5
178,214,199768,6,0,L|120:132,1,84.5
293,115,199941,2,0,L|353:203,1,84.5
147,219,200114,6,0,L|117:124,1,84.5
345,112,200288,2,0,L|336:235,1,84.5
86,186,200461,6,0,L|138:99,1,84.5
392,188,200635,2,0,L|327:260,1,84.5
71,108,200808,6,0,L|162:50,1,84.5
405,256,200981,2,0,L|294:299,1,84.5
256,192,201155,12,0,202455,0:0:0:0:
256,192,202542,12,0,203843,0:0:0:0:
256,192,203929,12,0,204536,0:0:0:0:
256,192,204623,12,0,205230,0:0:0:0:
353,242,205317,5,0,0:0:0:0:
204,160,205837,5,0,0:0:0:0:
204,160,206011,1,0,0:0:0:0:
291,201,206357,1,0,0:0:0:0:
193,228,206704,5,0,0:0:0:0:
372,204,206877,1,0,0:0:0:0:
256,291,207051,5,0,0:0:0:0:
231,105,207224,1,0,0:0:0:0:
387,279,207398,5,0,0:0:0:0:
168,160,207571,1,0,0:0:0:0:
369,100,207744,5,0,0:0:0:0:
200,308,207918,1,0,0:0:0:0:
113,106,208091,5,0,0:0:0:0:
274,351,208265,1,0,0:0:0:0:
441,99,208438,5,0,0:0:0:0:
136,288,208611,1,0,0:0:0:0:
361,309,208785,5,0,0:0:0:0:
182,48,208958,1,0,0:0:0:0:
51,325,209132,5,0,0:0:0:0:
414,119,209305,1,0,0:0:0:0:
270,194,209479,5,0,0:0:0:0:
221,195,209652,1,0,0:0:0:0:
272,268,209825,5,0,0:0:0:0:
271,113,209999,1,0,0:0:0:0:
181,282,210172,5,0,0:0:0:0:
427,284,210346,1,0,0:0:0:0:
362,364,210519,5,0,0:0:0:0:
362,42,210692,1,0,0:0:0:0:
175,135,210866,6,0,L|262:201,1,84.5
399,272,211039,2,0,L|297:218,1,84.5
211,58,211213,6,0,L|223:81,1,21.125
348,341,211386,2,0,L|333:316,1,21.125
289,29,211559,6,0,L|313:113,1,80.2749978564263
243,359,211733,2,0,L|220:265,1,80.2749978564263
376,29,211906,6,0,L|377:75,1,25.3499992263794
134,333,212080,2,0,L|139:291,1,25.3499992263794
44,272,212253,6,0,L|86:249,1,42.25
479,158,212427,2,0,L|423:171,1,42.25
0,169,212600,6,0,L|84:176,1,52.8125
474,264,212773,2,0,L|386:245,1,52.8125
31,46,212947,6,0,L|80:104,1,63.3750024175645
458,366,213120,2,0,L|400:335,1,63.3750024175645
126,19,213294,6,0,L|204:55,1,73.937500705123
337,384,213467,2,0,L|270:353,1,73.937500705123
256,192,213640,12,0,214594,0:0:0:0:
272,30,214681,6,0,L|314:73,1,42.25
267,123,214768,6,0,L|306:155,1,31.6875012087822
282,216,214854,6,0,L|308:236,1,21.125
285,294,214941,6,0,L|306:312,1,15.8437506043911
298,361,215028,6,0,L|312:370,1,10.5625
