osu file format v14

[General]
AudioFilename: audio.mp3
AudioLeadIn: 0
PreviewTime: 13366
Countdown: 0
SampleSet: Normal
StackLeniency: 0.7
Mode: 1
LetterboxInBreaks: 0
WidescreenStoryboard: 0

[Editor]
DistanceSpacing: 1.2
BeatDivisor: 3
GridSize: 32
TimelineZoom: 2.1

[Metadata]
Title:A Whole New World
TitleUnicode:A Whole New World
Artist:3way Asiska
ArtistUnicode:3way Asiska
Creator:_DUSK_
Version:Nifty's Magic Carpet Ride Oni
Source:
Tags:english arabic genjuro nifty kqrth vrnl aladdin Ngawur 3wayasiska Cover novelty
BeatmapID:2101202
BeatmapSetID:1003952

[Difficulty]
HPDrainRate:6
CircleSize:2
OverallDifficulty:6
ApproachRate:10
SliderMultiplier:1.4
SliderTickRate:1

[Events]
//Background and Video events
0,0,"newniftybg.jpg",0,0
//Break Periods
2,135378,138975
//Storyboard Layer 0 (Background)
//Storyboard Layer 1 (Fail)
//Storyboard Layer 2 (Pass)
//Storyboard Layer 3 (Foreground)
//Storyboard Layer 4 (Overlay)
//Storyboard Sound Samples

[TimingPoints]
460,465.116279069767,4,1,0,70,1,0
460,-125,4,1,0,70,0,0
12087,-115.445846085289,4,1,0,70,0,0
12436,-109.186755209846,4,1,0,70,0,0
12785,-103.571454464292,4,1,0,70,0,0
13018,-100.138090426698,4,1,0,70,0,0
26797,-83.4292073975007,4,1,0,70,0,0
27436,-83.3333333333333,4,1,0,70,0,0
27669,-85.6807722922091,4,1,0,70,0,0
27901,-88.1642181993869,4,1,0,70,0,0
27979,-89.024364187991,4,1,0,70,0,0
28056,-89.9014590107783,4,1,0,70,0,0
28134,-90.7960086074616,4,1,0,70,0,0
28250,-100,4,1,0,70,0,0
33948,-100,4,1,0,70,0,0
34180,-96.774224765879,4,1,0,70,0,0
34297,-95.2380952380952,4,1,0,70,0,0
34529,-92.3077207100679,4,1,0,70,0,0
34646,-90.9090909090909,4,1,0,70,0,0
34762,-89.5522120739665,4,1,0,70,0,0
34878,-88.2353200692118,4,1,0,70,0,0
35111,-85.7142612244968,4,1,0,70,0,0
35343,-83.3333333333333,4,1,0,70,0,0
35731,-100,4,1,0,70,0,0
42708,-83.3333333333333,4,1,0,70,0,0
43328,-125,4,1,0,70,0,0
47126,-100,4,1,0,70,0,0
47824,-90.9090909090909,4,1,0,70,0,0
48677,-83.3333333333333,4,1,0,70,0,0
50692,-83.3333333333333,4,1,0,70,0,1
56506,-83.3333333333333,4,1,0,70,0,1
56739,-81.4065753719059,4,1,0,70,0,1
56971,-79.5668381332029,4,1,0,70,0,1
57204,-77.8084775448624,4,1,0,70,0,1
57436,-76.1261532160635,4,1,0,70,0,1
57669,-74.5149819822774,4,1,0,70,0,1
57901,-72.9706497452595,4,1,0,70,0,1
58134,-71.4889796163472,4,1,0,70,0,0
58366,-111.257352720298,4,1,0,70,0,0
73018,-111.111111111111,4,1,0,70,0,0
73483,-108.115705427949,4,1,0,70,0,0
73715,-106.677704253133,4,1,0,70,0,0
74180,-103.91359376851,4,1,0,70,0,0
74413,-102.584619488,4,1,0,70,0,0
74878,-100.026006761758,4,1,0,70,0,0
75343,-97.5919193890746,4,1,0,70,0,0
75692,-95.8426340622805,4,1,0,70,0,0
75808,-95.273482531607,4,1,0,70,0,0
76041,-94.1550432265803,4,1,0,70,0,0
76273,-93.0626451195622,4,1,0,70,0,0
76506,-91.9952199283725,4,1,0,70,0,0
76739,-90.9520037181179,4,1,0,70,0,0
76816,-100,4,1,0,70,0,0
82320,-100,4,1,0,70,0,0
82553,-96.774224765879,4,1,0,70,0,0
82669,-95.2380952380952,4,1,0,70,0,0
82901,-92.3077207100679,4,1,0,70,0,0
83018,-90.9090909090909,4,1,0,70,0,0
83134,-89.5522120739665,4,1,0,70,0,0
83250,-88.2353200692118,4,1,0,70,0,0
83483,-85.7142612244968,4,1,0,70,0,0
83715,-83.3333333333333,4,1,0,70,0,0
84025,-100,4,1,0,70,0,0
89762,-100,4,1,0,70,0,0
89994,-96.774224765879,4,1,0,70,0,0
90111,-95.2380952380952,4,1,0,70,0,0
90343,-92.3077207100679,4,1,0,70,0,0
90459,-90.9090909090909,4,1,0,70,0,0
90576,-89.5522120739665,4,1,0,70,0,0
90692,-88.2353200692118,4,1,0,70,0,0
90925,-85.7142612244968,4,1,0,70,0,0
91157,-83.3333333333333,4,1,0,70,0,0
91622,-71.4285714285714,4,1,0,70,0,0
91777,-83.3333333333333,4,1,0,70,0,0
110304,-76.9230769230769,4,1,0,70,0,0
110925,-71.4285714285714,4,1,0,70,0,0
112010,-66.6666666666667,4,1,0,70,0,0
113948,-66.6666666666667,4,1,0,70,0,1
119994,-66.6666666666667,4,1,0,70,0,1
120111,-67.7887053170749,4,1,0,70,0,1
120227,-68.9491121078088,4,1,0,70,0,1
120343,-70.1499876886772,4,1,0,70,0,1
120459,-71.3933846889747,4,1,0,70,0,1
120576,-72.681707903845,4,1,0,70,0,1
120692,-74.0173822420457,4,1,0,70,0,1
120808,-75.4030102389748,4,1,0,70,0,1
120925,-76.8415657544804,4,1,0,70,0,1
121041,-78.3360176475381,4,1,0,70,0,1
121157,-79.8898159658199,4,1,0,70,0,1
121273,-81.5064345254736,4,1,0,70,0,1
121390,504.201680672269,4,1,0,70,1,0
121390,-77.5193798449612,4,1,0,45,0,0
123406,495.867768595041,4,1,0,45,1,0
127372,483.870967741935,4,1,0,45,1,0
132855,-103.092783505155,4,1,0,45,0,0
133178,500,4,1,0,45,1,0
135178,530.973451327434,4,1,0,20,1,0
146593,-33.3333333333333,4,1,0,50,0,0

[HitObjects]
249,123,11622,5,0,0:0:0:0:
257,124,12087,1,8,0:0:0:0:
270,109,12436,1,8,0:0:0:0:
270,109,12785,1,0,0:0:0:0:
287,92,13018,1,8,0:0:0:0:
339,141,13483,1,4,0:0:0:0:
294,102,13715,1,0,0:0:0:0:
297,101,13948,1,8,0:0:0:0:
306,102,14180,1,0,0:0:0:0:
294,102,14646,1,0,0:0:0:0:
306,102,14878,1,8,0:0:0:0:
306,102,15111,1,8,0:0:0:0:
306,102,15343,1,0,0:0:0:0:
305,102,15576,1,8,0:0:0:0:
306,102,15808,1,8,0:0:0:0:
306,102,16041,1,0,0:0:0:0:
306,102,16157,1,8,0:0:0:0:
306,102,16273,1,0,0:0:0:0:
286,101,16506,1,0,0:0:0:0:
285,101,16739,1,8,0:0:0:0:
302,85,16971,1,0,0:0:0:0:
306,83,17204,1,0,0:0:0:0:
299,89,17436,1,0,0:0:0:0:
300,89,17669,1,8,0:0:0:0:
302,85,17901,1,0,0:0:0:0:
299,89,18366,1,0,0:0:0:0:
300,89,18599,1,8,0:0:0:0:
302,85,18832,1,8,0:0:0:0:
299,89,19064,1,0,0:0:0:0:
299,89,19297,1,8,0:0:0:0:
300,89,19529,1,8,0:0:0:0:
302,85,19762,1,0,0:0:0:0:
299,89,19994,1,8,0:0:0:0:
299,89,20227,1,0,0:0:0:0:
299,89,20343,1,0,0:0:0:0:
300,89,20459,1,8,0:0:0:0:
302,85,20692,1,0,0:0:0:0:
299,89,20925,1,8,0:0:0:0:
296,97,21157,1,0,0:0:0:0:
296,97,21390,1,0,0:0:0:0:
296,97,21622,1,8,0:0:0:0:
296,97,22087,1,0,0:0:0:0:
295,90,22320,1,8,0:0:0:0:
295,90,22553,1,8,0:0:0:0:
296,97,22785,1,0,0:0:0:0:
296,115,23018,1,0,0:0:0:0:
296,115,23250,1,8,0:0:0:0:
293,104,23483,1,0,0:0:0:0:
297,85,23599,1,8,0:0:0:0:
303,82,23715,1,0,0:0:0:0:
303,82,23948,1,0,0:0:0:0:
303,83,24180,1,8,0:0:0:0:
302,83,24297,1,0,0:0:0:0:
303,83,24413,1,8,0:0:0:0:
306,86,24646,1,0,0:0:0:0:
303,83,25111,1,8,0:0:0:0:
303,83,25343,1,0,0:0:0:0:
322,87,25808,1,0,0:0:0:0:
320,85,26041,1,8,0:0:0:0:
316,69,26273,1,0,0:0:0:0:
321,83,26390,1,0,0:0:0:0:
322,87,26506,1,8,0:0:0:0:
322,71,26855,1,0,0:0:0:0:
321,77,26971,1,0,0:0:0:0:
321,77,27087,1,8,0:0:0:0:
326,68,27204,1,0,0:0:0:0:
326,68,27320,1,0,0:0:0:0:
326,68,27436,1,8,0:0:0:0:
331,71,27669,1,0,0:0:0:0:
331,72,27901,1,8,0:0:0:0:
329,74,27979,1,8,0:0:0:0:
331,74,28056,1,8,0:0:0:0:
331,74,28134,1,8,0:0:0:0:
333,72,28366,1,4,0:0:0:0:
333,41,28599,1,0,0:0:0:0:
328,62,28832,1,8,0:0:0:0:
329,62,29064,1,0,0:0:0:0:
333,41,29529,1,0,0:0:0:0:
334,40,29762,1,8,0:0:0:0:
334,40,29994,1,8,0:0:0:0:
333,41,30227,1,0,0:0:0:0:
333,41,30459,1,8,0:0:0:0:
333,41,30576,1,0,0:0:0:0:
334,40,30692,1,8,0:0:0:0:
334,40,30925,1,0,0:0:0:0:
333,41,31157,1,8,0:0:0:0:
333,41,31390,1,0,0:0:0:0:
333,41,31506,1,0,0:0:0:0:
334,40,31622,1,8,0:0:0:0:
334,40,31855,1,8,0:0:0:0:
333,41,32087,1,0,0:0:0:0:
333,41,32320,1,0,0:0:0:0:
333,41,32553,1,8,0:0:0:0:
334,40,32785,1,0,0:0:0:0:
321,40,33250,1,0,0:0:0:0:
321,40,33483,1,8,0:0:0:0:
321,40,33715,1,8,0:0:0:0:
321,40,33948,1,0,0:0:0:0:
321,40,34180,1,8,0:0:0:0:
321,40,34297,1,0,0:0:0:0:
321,40,34529,1,0,0:0:0:0:
321,40,34646,1,8,0:0:0:0:
321,40,34762,1,0,0:0:0:0:
321,40,34878,1,8,0:0:0:0:
321,40,35111,1,0,0:0:0:0:
321,40,35343,1,12,0:0:0:0:
321,40,35808,1,4,0:0:0:0:
312,41,36041,1,0,0:0:0:0:
312,41,36273,1,8,0:0:0:0:
312,41,36506,1,0,0:0:0:0:
312,41,36971,1,0,0:0:0:0:
312,41,37204,1,8,0:0:0:0:
312,41,37436,1,8,0:0:0:0:
312,41,37669,1,0,0:0:0:0:
312,41,37901,1,0,0:0:0:0:
312,41,38134,1,8,0:0:0:0:
312,41,38366,1,0,0:0:0:0:
312,41,38444,1,0,0:0:0:0:
349,64,38522,1,0,0:0:0:0:
312,41,38599,1,8,0:0:0:0:
321,47,39064,1,8,0:0:0:0:
321,47,39297,1,0,0:0:0:0:
323,49,39529,1,0,0:0:0:0:
321,47,39762,1,0,0:0:0:0:
321,47,39994,1,8,0:0:0:0:
321,47,40227,1,0,0:0:0:0:
321,47,40692,1,0,0:0:0:0:
321,47,40925,1,8,0:0:0:0:
321,47,41157,1,8,0:0:0:0:
321,47,41390,1,0,0:0:0:0:
340,43,41622,1,8,0:0:0:0:
340,43,41739,1,0,0:0:0:0:
339,43,41855,1,0,0:0:0:0:
339,43,41971,1,8,0:0:0:0:
339,43,42087,1,8,0:0:0:0:
339,43,42204,1,0,0:0:0:0:
339,43,42320,1,8,0:0:0:0:
340,43,42553,1,0,0:0:0:0:
339,43,42785,1,12,0:0:0:0:
344,47,43250,1,4,0:0:0:0:
340,71,44413,1,0,0:0:0:0:
340,71,44646,1,0,0:0:0:0:
340,71,45111,1,8,0:0:0:0:
340,59,45808,1,8,0:0:0:0:
352,57,46506,1,8,0:0:0:0:
358,61,47204,1,4,0:0:0:0:
359,61,47436,1,12,0:0:0:0:
358,61,48134,1,4,0:0:0:0:
359,61,48366,1,12,0:0:0:0:
358,61,48832,1,12,0:0:0:0:
358,61,49180,1,12,0:0:0:0:
374,56,49529,1,8,0:0:0:0:
358,61,49762,1,4,0:0:0:0:
358,61,50111,1,4,0:0:0:0:
368,57,50459,1,0,0:0:0:0:
371,57,50576,1,8,0:0:0:0:
373,54,50692,1,0,0:0:0:0:
358,61,50808,1,0,0:0:0:0:
358,61,50925,1,8,0:0:0:0:
358,61,51041,1,0,0:0:0:0:
358,61,51157,1,8,0:0:0:0:
361,58,51273,1,0,0:0:0:0:
368,57,51390,1,8,0:0:0:0:
365,50,51506,1,8,0:0:0:0:
373,54,51622,1,0,0:0:0:0:
368,54,51739,1,8,0:0:0:0:
374,74,51797,1,0,0:0:0:0:
378,71,51855,1,8,0:0:0:0:
371,62,51971,1,0,0:0:0:0:
362,96,52087,1,8,0:0:0:0:
365,93,52204,1,8,0:0:0:0:
365,94,52320,1,0,0:0:0:0:
368,90,52436,1,8,0:0:0:0:
371,89,52553,1,0,0:0:0:0:
372,89,52669,1,8,0:0:0:0:
372,89,52785,1,0,0:0:0:0:
372,90,52901,1,0,0:0:0:0:
372,90,53018,1,8,0:0:0:0:
365,72,53134,1,8,0:0:0:0:
368,71,53250,1,0,0:0:0:0:
368,72,53366,1,8,0:0:0:0:
368,73,53483,1,0,0:0:0:0:
380,71,53599,1,8,0:0:0:0:
377,79,53715,1,0,0:0:0:0:
377,79,53773,1,0,0:0:0:0:
377,79,53832,1,0,0:0:0:0:
377,79,53890,1,0,0:0:0:0:
377,79,53948,1,8,0:0:0:0:
377,79,54064,1,0,0:0:0:0:
377,79,54180,1,8,0:0:0:0:
377,79,54297,1,8,0:0:0:0:
378,78,54413,1,8,0:0:0:0:
375,75,54529,1,0,0:0:0:0:
377,79,54646,1,8,0:0:0:0:
380,72,54762,1,0,0:0:0:0:
380,72,54878,1,8,0:0:0:0:
380,72,54994,1,0,0:0:0:0:
382,72,55111,1,8,0:0:0:0:
382,72,55227,1,8,0:0:0:0:
382,72,55343,1,0,0:0:0:0:
382,72,55459,1,8,0:0:0:0:
382,72,55518,1,0,0:0:0:0:
382,72,55576,1,8,0:0:0:0:
380,72,55692,1,0,0:0:0:0:
380,72,55808,1,8,0:0:0:0:
390,70,55925,1,8,0:0:0:0:
390,70,56041,1,0,0:0:0:0:
390,70,56157,1,8,0:0:0:0:
390,71,56273,1,0,0:0:0:0:
391,70,56390,1,0,0:0:0:0:
379,64,56506,1,12,0:0:0:0:
380,61,56739,1,0,0:0:0:0:
380,61,56971,1,0,0:0:0:0:
378,58,57204,1,8,0:0:0:0:
385,55,57436,1,0,0:0:0:0:
385,55,57669,1,8,0:0:0:0:
385,55,57901,1,0,0:0:0:0:
385,55,58134,1,12,0:0:0:0:
346,73,58832,1,0,0:0:0:0:
346,73,59064,1,8,0:0:0:0:
384,63,59994,1,0,0:0:0:0:
384,63,60692,1,0,0:0:0:0:
384,63,60925,1,8,0:0:0:0:
384,63,61390,1,8,0:0:0:0:
377,69,61622,1,8,0:0:0:0:
377,69,61855,1,0,0:0:0:0:
376,85,62553,1,0,0:0:0:0:
376,85,62785,1,8,0:0:0:0:
376,85,63250,1,0,0:0:0:0:
376,85,63715,1,0,0:0:0:0:
369,72,64413,1,0,0:0:0:0:
376,85,64646,1,8,0:0:0:0:
369,72,64936,1,0,0:0:0:0:
388,85,65343,1,0,0:0:0:0:
345,77,65576,1,8,0:0:0:0:
378,70,66041,1,0,0:0:0:0:
378,69,66273,1,0,0:0:0:0:
376,69,66506,1,8,0:0:0:0:
377,79,66971,1,0,0:0:0:0:
377,79,67436,1,0,0:0:0:0:
377,79,67901,1,8,0:0:0:0:
377,79,68134,1,0,0:0:0:0:
377,79,68366,1,8,0:0:0:0:
377,79,68832,1,0,0:0:0:0:
377,79,69064,1,8,0:0:0:0:
377,79,69297,1,0,0:0:0:0:
377,79,69762,1,0,0:0:0:0:
377,79,69994,1,0,0:0:0:0:
377,79,70227,1,8,0:0:0:0:
377,79,70692,1,0,0:0:0:0:
377,79,71157,1,12,0:0:0:0:
368,73,71855,1,8,0:0:0:0:
368,73,72087,1,0,0:0:0:0:
368,73,72553,1,0,0:0:0:0:
368,73,72843,1,8,0:0:0:0:
369,66,73018,1,0,0:0:0:0:
360,79,73483,1,8,0:0:0:0:
360,79,73715,1,0,0:0:0:0:
360,79,74180,1,0,0:0:0:0:
360,79,74413,1,8,0:0:0:0:
360,79,74878,1,4,0:0:0:0:
360,79,75343,1,8,0:0:0:0:
360,79,75692,1,8,0:0:0:0:
360,79,75808,1,0,0:0:0:0:
360,79,76041,1,8,0:0:0:0:
360,79,76273,1,8,0:0:0:0:
359,71,76506,1,0,0:0:0:0:
359,71,76739,1,12,0:0:0:0:
356,68,77204,1,0,0:0:0:0:
359,71,77436,1,8,0:0:0:0:
359,71,77669,1,0,0:0:0:0:
356,68,77901,1,0,0:0:0:0:
356,68,78134,1,8,0:0:0:0:
359,71,78366,1,8,0:0:0:0:
359,71,78599,1,0,0:0:0:0:
354,77,79064,1,8,0:0:0:0:
354,77,79297,1,0,0:0:0:0:
359,71,79529,1,0,0:0:0:0:
359,69,79762,1,8,0:0:0:0:
354,77,79994,1,8,0:0:0:0:
354,77,80227,1,0,0:0:0:0:
348,81,80459,1,0,0:0:0:0:
348,81,80925,1,8,0:0:0:0:
354,77,81157,1,0,0:0:0:0:
342,86,81390,1,8,0:0:0:0:
342,87,81622,1,8,0:0:0:0:
343,88,81855,1,0,0:0:0:0:
343,88,82087,1,8,0:0:0:0:
343,74,82320,1,0,0:0:0:0:
344,74,82553,1,8,0:0:0:0:
342,74,82669,1,0,0:0:0:0:
342,74,82901,1,0,0:0:0:0:
343,74,83018,1,8,0:0:0:0:
343,74,83134,1,0,0:0:0:0:
343,74,83250,1,8,0:0:0:0:
344,74,83483,1,0,0:0:0:0:
349,76,83715,1,12,0:0:0:0:
343,74,84180,1,4,0:0:0:0:
357,80,84646,1,8,0:0:0:0:
358,80,84878,1,0,0:0:0:0:
358,80,85111,1,0,0:0:0:0:
357,80,85343,1,8,0:0:0:0:
357,80,85576,1,8,0:0:0:0:
358,80,85808,1,0,0:0:0:0:
358,80,86041,1,8,0:0:0:0:
359,90,86506,1,8,0:0:0:0:
359,90,86739,1,0,0:0:0:0:
356,89,86971,1,8,0:0:0:0:
359,90,87204,1,0,0:0:0:0:
359,90,87436,1,8,0:0:0:0:
359,90,87669,1,8,0:0:0:0:
356,89,87901,1,0,0:0:0:0:
359,90,88366,1,0,0:0:0:0:
359,90,88599,1,8,0:0:0:0:
356,80,88832,1,0,0:0:0:0:
356,80,89064,1,0,0:0:0:0:
356,80,89297,1,8,0:0:0:0:
356,80,89529,1,8,0:0:0:0:
356,80,89762,1,0,0:0:0:0:
356,80,89994,1,8,0:0:0:0:
356,80,90111,1,0,0:0:0:0:
356,80,90343,1,8,0:0:0:0:
356,80,90459,1,0,0:0:0:0:
356,80,90576,1,0,0:0:0:0:
356,80,90692,1,8,0:0:0:0:
356,80,90925,1,0,0:0:0:0:
356,80,91157,1,12,0:0:0:0:
360,66,91622,1,4,0:0:0:0:
363,64,92087,1,8,0:0:0:0:
360,66,92320,1,0,0:0:0:0:
360,66,92553,1,8,0:0:0:0:
363,64,93018,1,0,0:0:0:0:
360,66,93250,1,0,0:0:0:0:
360,66,93483,1,8,0:0:0:0:
368,61,94180,1,0,0:0:0:0:
368,61,94413,1,8,0:0:0:0:
360,59,94878,1,8,0:0:0:0:
368,61,95111,1,8,0:0:0:0:
360,58,95343,1,0,0:0:0:0:
360,59,95808,1,0,0:0:0:0:
350,62,96041,1,0,0:0:0:0:
350,62,96273,1,8,0:0:0:0:
349,62,96739,1,0,0:0:0:0:
350,62,96971,1,8,0:0:0:0:
345,87,97204,1,0,0:0:0:0:
359,51,97901,1,0,0:0:0:0:
343,62,98134,1,8,0:0:0:0:
348,58,98444,1,0,0:0:0:0:
348,58,98754,1,0,0:0:0:0:
349,82,99064,1,12,0:0:0:0:
360,64,99529,1,0,0:0:0:0:
360,64,99762,1,0,0:0:0:0:
360,64,99994,1,8,0:0:0:0:
360,64,100459,1,0,0:0:0:0:
360,64,100692,1,8,0:0:0:0:
360,64,100925,1,0,0:0:0:0:
348,66,101390,1,0,0:0:0:0:
346,69,101622,1,0,0:0:0:0:
346,69,101855,1,8,0:0:0:0:
346,69,102553,1,0,0:0:0:0:
346,69,102785,1,0,0:0:0:0:
348,79,103250,1,0,0:0:0:0:
348,79,103483,1,0,0:0:0:0:
348,79,103715,1,8,0:0:0:0:
356,68,104180,1,0,0:0:0:0:
357,68,104413,1,8,0:0:0:0:
351,67,104646,1,0,0:0:0:0:
346,64,105111,1,0,0:0:0:0:
346,63,105343,1,0,0:0:0:0:
351,67,105576,1,8,0:0:0:0:
346,64,105808,1,0,0:0:0:0:
346,64,106041,1,8,0:0:0:0:
346,63,106273,1,0,0:0:0:0:
351,67,106506,1,12,0:0:0:0:
346,64,106855,1,0,0:0:0:0:
367,55,107204,1,0,0:0:0:0:
367,55,107436,1,8,0:0:0:0:
359,48,107669,1,8,0:0:0:0:
355,56,107901,1,0,0:0:0:0:
355,56,108134,1,0,0:0:0:0:
355,56,108366,1,8,0:0:0:0:
359,48,108599,1,0,0:0:0:0:
362,48,108715,1,8,0:0:0:0:
362,49,108832,1,0,0:0:0:0:
357,44,109064,1,0,0:0:0:0:
357,44,109297,1,8,0:0:0:0:
356,37,109762,1,8,0:0:0:0:
355,49,110459,1,4,0:0:0:0:
355,49,110692,1,12,0:0:0:0:
355,49,111390,1,4,0:0:0:0:
355,49,111622,1,12,0:0:0:0:
355,49,112087,1,12,0:0:0:0:
355,49,112436,1,12,0:0:0:0:
355,49,112785,1,8,0:0:0:0:
355,49,113018,1,4,0:0:0:0:
355,49,113366,1,4,0:0:0:0:
355,49,113715,1,0,0:0:0:0:
355,49,113832,1,8,0:0:0:0:
355,49,113948,1,0,0:0:0:0:
367,76,114064,1,0,0:0:0:0:
355,62,114180,1,8,0:0:0:0:
362,58,114297,1,0,0:0:0:0:
362,58,114413,1,8,0:0:0:0:
355,63,114529,1,8,0:0:0:0:
355,63,114646,1,0,0:0:0:0:
355,49,114762,1,8,0:0:0:0:
355,61,114878,1,0,0:0:0:0:
360,63,114994,1,8,0:0:0:0:
360,63,115053,1,8,0:0:0:0:
355,62,115111,1,0,0:0:0:0:
362,58,115227,1,0,0:0:0:0:
355,64,115343,1,8,0:0:0:0:
355,63,115459,1,8,0:0:0:0:
355,63,115576,1,0,0:0:0:0:
331,73,115692,1,8,0:0:0:0:
344,70,115808,1,0,0:0:0:0:
347,67,115925,1,0,0:0:0:0:
347,67,116041,1,8,0:0:0:0:
347,68,116157,1,0,0:0:0:0:
346,67,116273,1,8,0:0:0:0:
346,67,116390,1,8,0:0:0:0:
353,69,116506,1,0,0:0:0:0:
353,70,116622,1,0,0:0:0:0:
353,70,116739,1,8,0:0:0:0:
359,54,116855,1,0,0:0:0:0:
337,74,116971,1,8,0:0:0:0:
338,73,117029,1,8,0:0:0:0:
338,74,117087,1,0,0:0:0:0:
338,74,117146,1,0,0:0:0:0:
338,75,117204,1,8,0:0:0:0:
339,74,117320,1,0,0:0:0:0:
340,74,117436,1,8,0:0:0:0:
340,74,117553,1,8,0:0:0:0:
341,74,117669,1,8,0:0:0:0:
342,68,117785,1,0,0:0:0:0:
341,68,117901,1,8,0:0:0:0:
338,73,118018,1,0,0:0:0:0:
338,74,118134,1,8,0:0:0:0:
339,74,118250,1,8,0:0:0:0:
340,74,118366,1,0,0:0:0:0:
340,74,118483,1,0,0:0:0:0:
344,67,118599,1,8,0:0:0:0:
348,63,118715,1,0,0:0:0:0:
348,63,118832,1,8,0:0:0:0:
336,62,118890,1,8,0:0:0:0:
343,62,118948,1,0,0:0:0:0:
348,63,119006,1,0,0:0:0:0:
339,56,119064,1,8,0:0:0:0:
339,56,119180,1,0,0:0:0:0:
339,56,119297,1,8,0:0:0:0:
339,56,119413,1,8,0:0:0:0:
338,57,119529,1,0,0:0:0:0:
338,57,119646,1,0,0:0:0:0:
338,58,119762,1,12,0:0:0:0:
334,57,119994,1,0,0:0:0:0:
339,56,120111,1,8,0:0:0:0:
339,56,120227,1,0,0:0:0:0:
339,56,120343,1,0,0:0:0:0:
339,56,120459,1,8,0:0:0:0:
338,57,120576,1,0,0:0:0:0:
338,58,120692,1,0,0:0:0:0:
334,57,120808,1,8,0:0:0:0:
334,57,120925,1,0,0:0:0:0:
339,56,121041,1,0,0:0:0:0:
339,56,121157,1,8,0:0:0:0:
339,56,121273,1,0,0:0:0:0:
339,56,121390,1,8,0:0:0:0:
289,97,123406,1,0,0:0:0:0:
338,93,125327,1,0,0:0:0:0:
300,93,125389,1,8,0:0:0:0:
318,92,127372,1,0,0:0:0:0:
356,83,129247,1,0,0:0:0:0:
332,70,129307,1,8,0:0:0:0:
329,76,131242,1,0,0:0:0:0:
333,54,133117,1,0,0:0:0:0:
333,54,133178,1,8,0:0:0:0:
369,92,135178,1,0,0:0:0:0:
256,192,139425,12,0,146328,0:0:0:0:
291,147,146660,5,4,0:0:0:0:
