osu file format v14

[General]
AudioFilename: audio.mp3
AudioLeadIn: 0
PreviewTime: 13366
Countdown: 0
SampleSet: Normal
StackLeniency: 0.2
Mode: 1
LetterboxInBreaks: 0
WidescreenStoryboard: 1

[Editor]
Bookmarks: 13427
DistanceSpacing: 1.2
BeatDivisor: 12
GridSize: 32
TimelineZoom: 2.3

[Metadata]
Title:A Whole New World
TitleUnicode:A Whole New World
Artist:3way Asiska
ArtistUnicode:3way Asiska
Creator:_DUSK_
Version:Kantan
Source:
Tags:english arabic genjuro nifty kqrth vrnl aladdin Ngawur 3wayasiska Cover novelty
BeatmapID:2101269
BeatmapSetID:1003952

[Difficulty]
HPDrainRate:8
CircleSize:5
OverallDifficulty:3
ApproachRate:9
SliderMultiplier:1.4
SliderTickRate:1

[Events]
//Background and Video events
0,0,"newnewkantanbg.jpg",0,70
//Break Periods
//Storyboard Layer 0 (Background)
//Storyboard Layer 1 (Fail)
//Storyboard Layer 2 (Pass)
//Storyboard Layer 3 (Foreground)
//Storyboard Layer 4 (Overlay)
//Storyboard Sound Samples

[TimingPoints]
460,465.116279069767,4,1,0,70,1,0
50692,-100,4,1,0,70,0,1
58134,-100,4,1,0,70,0,0
113948,-100,4,1,0,70,0,1
121390,504.201680672269,4,1,0,70,1,0
121390,-92.2480620155039,4,1,0,45,0,0
123406,495.867768595041,4,1,0,45,1,0
123406,-93.7984496124032,4,1,0,45,0,0
127372,483.870967741935,4,1,0,45,1,0
127372,-96.124031007752,4,1,0,45,0,0
133178,500,4,1,0,45,1,0
133178,-93.0232558139535,4,1,0,45,0,0
135178,530.973451327434,4,1,0,45,1,0
135178,-87.5968992248062,4,1,0,45,0,0

[HitObjects]
256,192,13483,5,4,0:0:0:0:
256,192,14180,1,8,0:0:0:0:
256,192,14878,1,8,0:0:0:0:
256,192,15343,1,0,0:0:0:0:
256,192,16739,1,0,0:0:0:0:
256,192,17204,1,8,0:0:0:0:
256,192,17901,1,8,0:0:0:0:
256,192,18599,1,0,0:0:0:0:
256,192,19064,1,8,0:0:0:0:
256,192,19529,1,0,0:0:0:0:
256,192,19994,1,8,0:0:0:0:
256,192,20925,1,0,0:0:0:0:
256,192,21622,1,8,0:0:0:0:
256,192,22320,1,8,0:0:0:0:
256,192,22785,1,0,0:0:0:0:
256,192,23715,1,8,0:0:0:0:
256,192,24180,1,8,0:0:0:0:
256,192,24646,1,0,0:0:0:0:
256,192,25343,1,0,0:0:0:0:
256,192,26506,1,0,0:0:0:0:
256,192,26971,1,8,0:0:0:0:
256,192,27436,1,8,0:0:0:0:
256,192,28366,1,4,0:0:0:0:
256,192,29064,1,8,0:0:0:0:
256,192,29762,1,8,0:0:0:0:
256,192,30227,1,0,0:0:0:0:
256,192,31622,1,8,0:0:0:0:
256,192,32087,1,0,0:0:0:0:
256,192,32785,1,8,0:0:0:0:
256,192,33483,1,0,0:0:0:0:
256,192,33948,1,8,0:0:0:0:
256,192,34413,1,0,0:0:0:0:
256,192,34878,1,8,0:0:0:0:
256,192,35808,1,4,0:0:0:0:
256,192,36506,1,8,0:0:0:0:
256,192,37204,1,8,0:0:0:0:
256,192,37669,1,0,0:0:0:0:
256,192,38599,1,0,0:0:0:0:
256,192,39064,1,8,0:0:0:0:
256,192,39529,1,0,0:0:0:0:
256,192,40227,1,8,0:0:0:0:
256,192,40925,1,0,0:0:0:0:
256,192,41390,1,0,0:0:0:0:
256,192,42320,1,8,0:0:0:0:
256,192,42785,1,8,0:0:0:0:
256,192,43250,1,0,0:0:0:0:
256,192,44646,1,0,0:0:0:0:
256,192,45111,1,0,0:0:0:0:
256,192,46506,1,8,0:0:0:0:
256,192,47436,1,8,0:0:0:0:
256,192,48366,1,8,0:0:0:0:
256,192,48832,1,0,0:0:0:0:
256,192,49762,1,8,0:0:0:0:
256,192,50227,1,8,0:0:0:0:
256,192,50692,1,0,0:0:0:0:
256,192,51622,1,0,0:0:0:0:
256,192,52087,1,8,0:0:0:0:
256,192,52553,1,0,0:0:0:0:
256,192,53018,1,0,0:0:0:0:
256,192,53483,1,8,0:0:0:0:
256,192,54413,1,0,0:0:0:0:
256,192,54878,1,8,0:0:0:0:
256,192,55343,1,8,0:0:0:0:
256,192,56273,1,8,0:0:0:0:
256,192,56739,1,8,0:0:0:0:
256,192,57204,1,0,0:0:0:0:
256,192,57669,1,0,0:0:0:0:
256,192,58134,1,12,0:0:0:0:
256,192,59064,1,8,0:0:0:0:
256,192,60925,1,8,0:0:0:0:
256,192,61390,1,8,0:0:0:0:
256,192,61855,1,0,0:0:0:0:
256,192,62785,1,8,0:0:0:0:
256,192,63715,1,0,0:0:0:0:
256,192,64646,1,8,0:0:0:0:
256,192,65111,1,0,0:0:0:0:
256,192,65576,1,0,0:0:0:0:
256,192,66506,1,8,0:0:0:0:
256,192,67436,1,0,0:0:0:0:
256,192,68366,1,8,0:0:0:0:
256,192,68832,1,8,0:0:0:0:
256,192,69297,1,0,0:0:0:0:
256,192,70227,1,8,0:0:0:0:
256,192,71157,1,0,0:0:0:0:
256,192,73018,1,0,0:0:0:0:
256,192,73948,1,8,0:0:0:0:
256,192,74878,1,0,0:0:0:0:
256,192,75808,1,8,0:0:0:0:
256,192,76273,1,0,0:0:0:0:
256,192,76739,1,12,0:0:0:0:
256,192,77436,1,8,0:0:0:0:
256,192,78134,1,8,0:0:0:0:
256,192,78599,1,0,0:0:0:0:
256,192,79994,1,8,0:0:0:0:
256,192,80459,1,0,0:0:0:0:
256,192,81157,1,8,0:0:0:0:
256,192,81855,1,8,0:0:0:0:
256,192,82320,1,0,0:0:0:0:
256,192,82785,1,0,0:0:0:0:
256,192,83250,1,8,0:0:0:0:
256,192,84180,1,4,0:0:0:0:
256,192,84878,1,8,0:0:0:0:
256,192,85576,1,8,0:0:0:0:
256,192,86041,1,0,0:0:0:0:
256,192,86971,1,8,0:0:0:0:
256,192,87436,1,8,0:0:0:0:
256,192,87901,1,0,0:0:0:0:
256,192,88599,1,0,0:0:0:0:
256,192,89297,1,0,0:0:0:0:
256,192,89762,1,8,0:0:0:0:
256,192,90692,1,0,0:0:0:0:
256,192,91157,1,8,0:0:0:0:
256,192,91622,1,12,0:0:0:0:
256,192,93483,1,8,0:0:0:0:
256,192,94413,1,0,0:0:0:0:
256,192,95343,1,8,0:0:0:0:
256,192,96273,1,8,0:0:0:0:
256,192,96739,1,0,0:0:0:0:
256,192,97204,1,0,0:0:0:0:
256,192,99064,1,12,0:0:0:0:
256,192,99994,1,8,0:0:0:0:
256,192,100925,1,0,0:0:0:0:
256,192,101855,1,8,0:0:0:0:
256,192,102785,1,0,0:0:0:0:
256,192,103715,1,0,0:0:0:0:
256,192,104646,1,8,0:0:0:0:
256,192,106506,1,12,0:0:0:0:
256,192,107436,1,0,0:0:0:0:
256,192,108366,1,8,0:0:0:0:
256,192,109297,1,8,0:0:0:0:
256,192,109762,1,0,0:0:0:0:
256,192,110692,1,8,0:0:0:0:
256,192,111622,1,8,0:0:0:0:
256,192,112087,1,0,0:0:0:0:
256,192,113018,1,0,0:0:0:0:
256,192,113483,1,8,0:0:0:0:
256,192,113948,1,0,0:0:0:0:
256,192,114878,1,8,0:0:0:0:
256,192,115343,1,8,0:0:0:0:
256,192,115808,1,0,0:0:0:0:
256,192,116273,1,0,0:0:0:0:
256,192,116739,1,8,0:0:0:0:
256,192,117669,1,8,0:0:0:0:
256,192,118134,1,0,0:0:0:0:
256,192,118599,1,8,0:0:0:0:
256,192,119064,1,8,0:0:0:0:
256,192,119529,1,0,0:0:0:0:
256,192,119994,1,0,0:0:0:0:
256,192,120459,1,8,0:0:0:0:
256,192,121390,1,0,0:0:0:0:
256,192,123406,1,0,0:0:0:0:
256,192,125389,1,8,0:0:0:0:
256,192,127372,1,0,0:0:0:0:
256,192,129307,1,0,0:0:0:0:
256,192,131242,1,8,0:0:0:0:
256,192,133178,1,0,0:0:0:0:
256,192,135178,1,0,0:0:0:0:
256,192,139425,12,0,146903,0:0:0:0:
