osu file format v14

[General]
AudioFilename: audio.mp3
AudioLeadIn: 0
PreviewTime: 131728
Countdown: 0
SampleSet: None
StackLeniency: 0.7
Mode: 0
LetterboxInBreaks: 0
WidescreenStoryboard: 1

[Editor]
Bookmarks: 530,14250,27871,41405,54893,68515,82751,96351,117373,131728,163621,192428,206777,220729,227458
DistanceSpacing: 1
BeatDivisor: 4
GridSize: 32
TimelineZoom: 2.700006

[Metadata]
Title:monsoon
TitleUnicode:monsoon
Artist:3nd
ArtistUnicode:3nd
Creator:Marshes
Version:rainstorm
Source:
Tags:caveman
BeatmapID:4576115
BeatmapSetID:2168667

[Difficulty]
HPDrainRate:4
CircleSize:3.8
OverallDifficulty:8.9
ApproachRate:9.4
SliderMultiplier:1.795
SliderTickRate:1

[Events]
//Background and Video events
0,0,"bg.jpg",0,0
//Break Periods
2,7623,10270
2,96551,191888
//Storyboard Layer 0 (Background)
//Storyboard Layer 1 (Fail)
//Storyboard Layer 2 (Pass)
//Storyboard Layer 3 (Foreground)
//Storyboard Layer 4 (Overlay)
//Storyboard Sound Samples

[TimingPoints]
530,284.36018957346,3,2,1,75,1,0
530,-500,3,2,4,75,0,0
3942,-400,3,2,4,75,0,0
7423,285.714285714286,3,2,1,75,1,0
10810,571.428571428571,3,2,1,75,1,0
10810,-1000,3,2,1,75,0,0
14250,284.36018957346,3,2,1,75,1,0
14250,-57.1428571428571,3,2,1,75,0,0
15103,-80,3,2,3,75,0,0
15529,-80,3,2,4,75,0,0
15956,-57.1428571428571,3,2,1,75,0,0
16809,-80,3,2,3,75,0,0
17235,-80,3,2,4,75,0,0
17662,-57.1428571428571,3,2,1,75,0,0
18515,-80,3,2,1,75,0,0
19368,-57.1428571428571,3,2,1,75,0,0
20790,-80,3,2,1,75,0,0
21074,-57.1428571428571,3,2,1,75,0,0
21927,-80,3,2,1,75,0,0
22780,-57.1428571428571,3,2,1,75,0,0
23633,-80,3,2,1,75,0,0
24028,284.36018957346,3,2,1,75,1,0
24028,-80,3,2,1,75,0,0
24454,284.36018957346,3,2,1,75,1,0
24454,-57.1428571428571,3,2,1,75,0,0
25307,-80,3,2,1,75,0,0
27871,281.69014084507,3,2,1,75,1,0
27871,-100,3,2,1,75,0,0
29138,-80,3,2,1,75,0,0
29561,-100,3,2,1,75,0,0
30828,-80,3,2,1,75,0,0
31110,-100,3,2,1,75,0,0
35899,-80,3,2,1,75,0,0
36180,-100,3,2,1,75,0,0
37589,-80,3,2,1,75,0,0
38011,-100,3,2,1,75,0,0
40828,-80,3,2,1,75,0,0
41405,285.714285714286,3,2,1,75,1,0
42262,-80,3,2,1,75,0,0
43976,-66.6666666666667,3,2,1,75,0,0
44817,284.36018957346,3,2,1,75,1,0
45642,280.373831775701,3,2,1,75,1,0
45642,-57.1428571428571,3,2,1,75,0,0
47324,283.018867924528,3,2,1,75,1,0
47324,-66.6666666666667,3,2,1,75,0,0
49022,-80,3,2,1,75,0,0
49838,279.06976744186,3,2,1,75,1,0
50675,-66.6666666666667,3,2,1,75,0,0
52349,-57.1428571428571,3,2,1,75,0,0
54024,-66.6666666666667,3,2,1,75,0,0
54303,292.682926829268,3,2,1,75,1,0
54605,292.682926829268,3,2,1,75,1,0
54893,279.06976744186,3,2,1,75,1,0
54893,-133.333333333333,3,2,1,75,0,0
58234,283.018867924528,3,2,1,75,1,0
58234,-200,3,2,1,75,0,0
58517,-100,3,2,1,75,0,0
58800,-200,3,2,1,75,0,0
59083,-100,3,2,1,75,0,0
59366,-200,3,2,1,75,0,0
59649,-100,3,2,1,75,0,0
59932,-200,3,2,1,75,0,0
60215,-100,3,2,1,75,0,0
60498,-200,3,2,1,75,0,0
60781,-100,3,2,1,75,0,0
61064,-200,3,2,1,75,0,0
61347,-100,3,2,1,75,0,0
61631,285.714285714286,3,2,1,75,1,0
61631,-133.333333333333,3,2,1,75,0,0
65059,285.714285714286,3,2,1,75,1,0
65059,-133.333333333333,3,2,1,75,0,0
67630,-80,3,2,1,75,0,0
67947,284.36018957346,3,2,1,75,1,0
67947,-80,3,2,1,75,0,0
68515,300,3,2,1,75,1,0
68515,-500,3,2,1,75,0,0
69415,-57.1428571428571,3,2,1,75,0,0
70015,-76.9230769230769,3,2,1,75,0,0
70315,-71.4285714285714,3,2,1,75,0,0
71215,-66.6666666666667,3,2,1,75,0,0
72115,-57.1428571428571,3,2,1,75,0,0
72415,-80,3,2,1,75,0,0
72715,-100,3,2,1,75,0,0
73015,-66.6666666666667,3,2,1,75,0,0
73315,-100,3,2,1,75,0,0
73873,295.566502463054,3,2,1,75,1,0
73873,-133.333333333333,3,2,1,75,0,0
74759,-133.333333333333,3,2,1,75,0,0
75646,300,3,2,1,75,1,0
75646,-333.333333333333,3,2,1,75,0,0
76546,-57.1428571428571,3,2,1,75,0,0
77146,-80,3,2,1,75,0,0
77446,-57.1428571428571,3,2,1,75,0,0
78346,-66.6666666666667,3,2,1,75,0,0
79237,298.507462686567,3,2,1,75,1,0
79237,-133.333333333333,3,2,1,75,0,0
80132,-80,3,2,1,75,0,0
81281,294.117647058824,3,2,1,75,1,0
81281,-57.1428571428571,3,2,1,75,0,0
82163,-133.333333333333,3,2,1,75,0,0
82457,-57.1428571428571,3,2,1,75,0,0
82751,285.714285714286,3,2,1,75,1,0
83608,-80,3,2,1,75,0,0
85322,-66.6666666666667,3,2,1,75,0,0
87036,-57.1428571428571,3,2,1,75,0,0
87893,280.373831775701,3,2,1,75,1,0
88734,-66.6666666666667,3,2,1,75,0,0
90416,-79.9999999999999,3,2,1,75,0,0
91257,283.018867924528,3,2,1,75,1,0
92106,-66.6666666666667,3,2,1,75,0,0
93804,-57.1428571428571,3,2,1,75,0,0
102032,304.568527918782,3,2,1,75,1,0
102963,298.507462686567,3,2,1,75,1,0
106572,299.25187032419,3,2,1,75,1,0
111083,298.507462686567,3,2,1,75,1,0
113778,300,3,2,1,75,1,0
117373,300,3,2,1,75,1,0
128163,298.507462686567,3,2,1,75,1,0
131728,281.69014084507,3,2,1,75,1,0
135108,227.272727272727,3,2,1,75,1,0
135392,295.566502463054,3,2,1,75,1,0
138938,295.566502463054,3,2,1,75,1,0
147213,297.029702970297,3,2,1,75,1,0
149615,298.507462686567,3,2,1,75,1,0
153197,300,3,2,1,75,1,0
156797,298.507462686567,3,2,1,75,1,0
160379,298.507462686567,3,2,1,75,1,0
160826,294.117647058824,3,2,1,75,1,0
161267,294.117647058824,3,2,1,75,1,0
162131,300,3,2,1,75,1,0
163256,365.853658536585,3,2,1,75,1,0
163621,365.853658536585,3,2,1,75,1,0
163958,292.682926829268,3,2,1,75,1,0
167057,300,3,2,1,75,1,0
167507,292.682926829268,3,2,1,75,1,0
171060,294.117647058823,3,2,1,75,1,0
178128,300,3,2,1,75,1,0
181728,294.117647058824,3,2,1,75,1,0
185287,294.117647058824,3,2,1,75,1,0
190581,294.117647058824,4,2,1,75,1,0
192428,297.029702970297,3,2,1,75,1,0
192428,-50,3,2,1,75,0,0
194210,-57.1428571428571,3,2,1,75,0,0
195992,-50,3,2,1,75,0,0
199556,287.081339712919,3,2,1,75,1,0
199556,-50,3,2,1,75,0,0
200417,-200,3,2,1,75,0,0
201278,-66.6666666666667,3,2,1,75,0,0
202139,-200,3,2,1,75,0,0
205584,287.081339712919,3,2,1,75,1,0
206445,294.117647058824,3,2,1,75,1,0
209974,304.568527918782,3,2,1,75,1,0
210887,297.029702970297,3,2,1,75,1,0
216233,297.029702970297,3,2,1,75,1,0
218947,297.029702970297,3,2,1,75,1,0
227458,300,3,2,1,75,1,0

[Colours]
Combo1 : 139,189,214
Combo2 : 86,177,177

[HitObjects]
375,99,530,6,0,B|421:81|467:115|467:115|464:33|385:-39|266:15|253:73,1,394.9,6|2,3:2|0:0,0:0:0:0:
410,181,3942,6,0,P|287:196|165:216,1,246.8125,2|0,0:0|0:0,0:0:0:0:
331,210,5648,2,0,P|353:206|375:203,1,44.875,2|0,0:0|0:0,0:0:0:0:
505,247,6075,2,0,P|478:250|451:254,1,44.875,2|0,0:0|0:0,0:0:0:0:
414,278,6501,2,0,P|436:274|458:271,2,44.875,2|2|2,0:0|0:0|0:0,0:0:0:0:
85,307,7423,5,2,3:0:0:0:
18,359,10810,6,0,L|116:368,1,98.725,2|0,0:0|0:0,0:0:0:0:
282,71,14250,6,0,P|299:7|214:66,1,235.593752246797,6|0,1:2|0:0,0:0:0:0:
14,157,14534,2,0,P|75:83|92:178,1,235.593752246797,6|0,1:2|0:0,0:0:0:0:
290,261,14818,2,0,P|227:187|210:282,1,235.593752246797,6|0,1:2|0:0,0:0:0:0:
14,157,15103,6,0,B|-12:139|-39:95|13:23|117:48|139:127,1,224.375,6|0,1:2|3:0,0:0:0:0:
290,261,15529,2,0,B|316:243|343:199|290:127|187:152|165:231,1,224.375,6|0,1:2|3:0,0:0:0:0:
442,271,15956,6,0,P|505:343|410:352,1,235.593752246797,6|0,1:2|0:0,0:0:0:0:
392,132,16240,2,0,P|428:43|481:124,1,235.593752246797,6|0,1:2|0:0,0:0:0:0:
299,246,16524,2,0,P|205:261|249:176,1,235.593752246797,6|0,1:2|0:0,0:0:0:0:
453,258,16809,6,0,B|500:282|505:346|505:346|464:398|401:372,1,224.375,6|0,1:2|3:0,0:0:0:0:
231,163,17235,2,0,B|177:204|201:267|201:267|259:294|313:260,1,224.375,6|0,1:2|3:0,0:0:0:0:
93,64,17662,6,0,P|33:-6|33:100,1,235.593752246797,0|0,1:0|0:0,0:0:0:0:
184,226,17946,2,0,P|117:294|100:200,1,235.593752246797,0|0,1:0|0:0,0:0:0:0:
299,56,18231,2,0,P|232:-12|215:81,1,235.593752246797,0|0,1:0|0:0,0:0:0:0:
192,231,18515,6,0,B|227:280|99:346|40:222|91:197,1,224.375,0|0,1:0|3:0,0:0:0:0:
102,61,18941,2,0,B|137:11|9:-54|-49:69|1:94,1,224.375,0|0,1:0|3:0,0:0:0:0:
256,192,19368,5,0,1:0:0:0:
256,192,19510,1,0,3:0:0:0:
256,192,19652,1,0,1:0:0:0:
347,220,19795,5,0,3:0:0:0:
192,263,19937,1,0,1:0:0:0:
232,107,20079,1,0,3:0:0:0:
287,331,20221,5,0,1:0:0:0:
115,162,20363,1,0,3:0:0:0:
348,97,20505,1,0,3:0:0:0:
287,331,20648,5,0,1:0:0:0:
119,80,20790,2,0,P|178:89|274:101,1,112.1875,0|0,3:0|3:0,0:0:0:0:
468,271,21074,6,0,P|531:343|436:352,1,235.593752246797,0|0,1:0|0:0,0:0:0:0:
282,194,21359,2,0,P|219:266|314:275,1,235.593752246797,0|0,1:0|0:0,0:0:0:0:
415,78,21643,2,0,P|478:150|383:159,1,235.593752246797,0|0,1:0|0:0,0:0:0:0:
294,319,21927,6,0,P|214:293|234:175,1,224.375,0|0,1:0|0:0,0:0:0:0:
484,241,22354,2,0,P|516:338|423:384,1,224.375,0|0,1:0|0:0,0:0:0:0:
226,90,22780,6,0,P|202:-1|145:74,1,235.593752246797,0|0,1:0|0:0,0:0:0:0:
85,243,23065,2,0,P|177:268|140:181,1,235.593752246797,0|0,1:0|0:0,0:0:0:0:
31,46,23349,2,0,P|-36:113|58:125,1,235.593752246797,0|0,1:0|0:0,0:0:0:0:
232,42,23633,6,0,B|278:2|197:-71|118:-5|123:69,1,224.375,0|0,1:0|0:0,0:0:0:0:
128,291,24028,2,0,B|140:351|244:318|226:216|160:184,1,224.375,0|0,1:0|0:0,0:0:0:0:
496,219,24454,6,0,P|491:126|429:203,1,235.593752246797,0|0,1:0|0:0,0:0:0:0:
325,341,24738,2,0,P|391:407|397:313,1,235.593752246797,0|0,1:0|0:0,0:0:0:0:
229,193,25022,2,0,P|295:126|301:220,1,235.593752246797,0|0,1:0|0:0,0:0:0:0:
412,307,25307,6,0,B|463:329|408:455|278:394|312:344,1,224.375,0|0,1:0|0:0,0:0:0:0:
512,221,25733,2,0,B|563:199|508:73|378:134|412:185,1,224.375,0|0,1:0|0:0,0:0:0:0:
210,353,26160,6,0,P|155:344|100:337,1,112.1875,0|0,1:0|0:0,0:0:0:0:
20,272,26444,1,0,1:0:0:0:
300,241,26586,2,0,P|244:251|189:258,1,112.1875,0|0,0:0|1:0,0:0:0:0:
20,272,26871,1,0,0:0:0:0:
378,161,27013,2,0,P|322:153|267:144,1,112.1875,0|0,1:0|0:0,0:0:0:0:
77,161,27297,5,4,0:3:0:0:
173,264,27439,1,4,0:3:0:0:
76,21,27581,1,0,1:0:0:0:
76,21,27871,6,0,P|120:29|164:34,1,89.75,8|0,0:0|0:0,0:0:0:0:
237,1,28152,1,8,0:0:0:0:
348,163,28293,2,0,P|299:169|249:179,2,89.75,0|8|0,0:0|0:0|0:0,0:0:0:0:
418,236,28716,5,8,0:0:0:0:
186,122,28856,2,0,B|150:152|150:152|166:202,1,89.75
456,337,29138,2,0,B|361:321|361:321|345:293|345:293|240:277,1,224.375,8|0,0:0|0:0,0:0:0:0:
41,350,29561,6,0,P|34:308|20:255,1,89.75,8|0,0:0|0:0,0:0:0:0:
128,384,29842,1,8,0:0:0:0:
262,185,29983,2,0,P|255:227|241:280,2,89.75,0|8|0,0:0|0:0|0:0,0:0:0:0:
32,163,30406,6,0,P|75:174|119:181,1,89.75,8|0,0:0|0:0,0:0:0:0:
163,257,30687,1,0,0:0:0:0:
319,26,30828,2,0,P|213:55|78:76,1,224.375,8|0,0:0|0:0,0:0:0:0:
477,135,31251,6,0,B|500:98|500:98|489:54,1,89.75,8|0,0:0|0:0,0:0:0:0:
346,113,31532,1,8,0:0:0:0:
390,242,31673,2,0,B|427:265|427:265|471:254,1,89.75,0|8,0:0|0:0,0:0:0:0:
349,106,31955,1,0,0:0:0:0:
255,275,32096,2,0,B|211:286|211:286|174:263,2,89.75,8|0|0,0:0|0:0|0:0,0:0:0:0:
424,207,32518,5,8,0:0:0:0:
345,221,32659,1,0,0:0:0:0:
390,242,32800,1,0,0:0:0:0:
410,52,32941,6,0,P|376:22|328:27,1,89.75,8|0,0:0|0:0,0:0:0:0:
274,81,33223,1,8,0:0:0:0:
390,242,33363,2,0,P|433:243|466:214,1,89.75,0|8,0:0|0:0,0:0:0:0:
492,141,33645,1,0,0:0:0:0:
178,293,33786,6,0,P|176:327|162:396,1,89.75,8|0,0:0|0:0,0:0:0:0:
278,92,34068,2,0,P|272:64|270:35,2,44.875,0|0|8,0:0|0:0|0:0,0:0:0:0:
187,188,34349,2,0,P|142:184|98:176,1,89.75
271,244,34631,5,8,0:0:0:0:
271,244,34772,1,0,0:0:0:0:
271,244,34913,1,8,0:0:0:0:
165,0,35054,6,0,P|174:45|182:100,1,89.75,0|8,0:0|0:0,0:0:0:0:
285,92,35335,1,0,0:0:0:0:
88,177,35476,2,0,P|79:132|71:77,2,89.75,8|0|0,0:0|0:0|0:0,0:0:0:0:
266,382,35899,6,0,B|312:279|312:279|238:164,1,224.375,8|0,0:0|0:0,0:0:0:0:
71,358,36321,6,0,P|113:352|170:347,1,89.75,8|0,0:0|0:0,0:0:0:0:
340,195,36603,2,0,P|295:190|250:184,2,89.75,8|0|8,0:0|0:0|0:0,0:0:0:0:
195,117,37025,1,0,0:0:0:0:
248,368,37166,6,0,P|292:363|337:357,1,89.75,8|0,0:0|0:0,0:0:0:0:
402,298,37448,1,0,0:0:0:0:
117,228,37589,2,0,L|351:205,1,224.375,8|0,0:0|0:0,0:0:0:0:
92,106,38011,2,0,P|55:136|52:183,1,89.75,8|0,0:0|0:0,0:0:0:0:
237,196,38293,1,8,0:0:0:0:
117,18,38434,2,0,P|69:13|34:44,1,89.75,0|8,0:0|0:0,0:0:0:0:
244,191,38716,1,0,0:0:0:0:
227,0,38856,5,8,0:0:0:0:
132,191,38997,1,0,0:0:0:0:
320,98,39138,1,0,0:0:0:0:
490,206,39279,5,8,0:0:0:0:
408,190,39420,1,0,0:0:0:0:
452,183,39561,1,0,0:0:0:0:
410,373,39701,6,0,P|366:376|311:387,1,89.75,8|0,0:0|0:0,0:0:0:0:
452,305,39983,1,8,0:0:0:0:
192,194,40124,2,0,P|235:197|291:208,1,89.75,0|8,0:0|0:0,0:0:0:0:
348,279,40406,1,0,0:0:0:0:
94,362,40547,1,8,0:0:0:0:
192,194,40687,1,0,0:0:0:0:
193,384,40828,5,4,0:3:0:0:
102,130,40969,1,4,0:3:0:0:
364,164,41110,1,0,0:0:0:0:
362,171,41405,5,0,1:0:0:0:
362,171,41547,1,0,0:0:0:0:
299,365,41690,5,0,1:0:0:0:
299,365,41833,1,0,0:0:0:0:
499,327,41976,5,0,1:0:0:0:
499,327,42119,1,0,0:0:0:0:
349,309,42262,6,0,P|273:303|330:360,1,168.28125
298,364,42547,1,0,0:0:0:0:
413,224,42690,2,0,P|431:156|362:170,1,168.28125
362,170,42975,1,0,0:0:0:0:
63,21,43119,5,0,0:0:0:0:
148,7,43262,1,0,0:0:0:0:
63,221,43405,5,0,0:0:0:0:
8,154,43548,1,0,0:0:0:0:
237,121,43690,5,0,0:0:0:0:
206,201,43833,1,0,0:0:0:0:
77,24,43976,6,0,B|40:7|40:7|166:-5|166:-5|131:21,1,201.937507703305
138,16,44262,1,0,0:0:0:0:
206,201,44405,2,0,B|241:217|241:217|118:229|118:229|151:203,1,201.937507703305
149,205,44691,1,0,0:0:0:0:
495,337,44817,5,0,0:0:0:0:
365,135,44959,1,0,0:0:0:0:
256,340,45101,5,0,0:0:0:0:
495,327,45243,1,0,0:0:0:0:
372,132,45385,5,0,0:0:0:0:
264,345,45527,1,0,0:0:0:0:
446,146,45642,6,0,P|450:68|374:136,1,235.593752246797
371,131,45922,1,0,0:0:0:0:
264,345,46062,2,0,P|260:267|336:335,1,235.593752246797
339,330,46342,1,0,0:0:0:0:
1,200,46483,5,0,0:0:0:0:
85,181,46623,1,0,0:0:0:0:
190,83,46763,5,0,0:0:0:0:
106,64,46903,1,0,0:0:0:0:
154,261,47043,5,0,0:0:0:0:
238,242,47183,1,0,0:0:0:0:
190,83,47324,6,0,B|202:24|202:24|122:7|122:7|109:71,1,201.937507703305
110,66,47607,1,0,0:0:0:0:
161,268,47748,2,0,B|172:325|172:325|253:307|253:307|239:248,1,201.937507703305
239,248,48031,1,0,0:0:0:0:
479,92,48173,5,0,0:0:0:0:
479,92,48314,1,0,0:0:0:0:
274,151,48456,5,0,0:0:0:0:
274,151,48597,1,0,0:0:0:0:
427,300,48739,5,0,0:0:0:0:
427,300,48880,1,0,0:0:0:0:
479,92,49022,6,0,P|469:18|414:68,1,168.28125
413,54,49305,1,0,0:0:0:0:
273,154,49446,2,0,P|276:224|338:191,1,168.28125
339,191,49729,1,0,0:0:0:0:
39,55,49838,5,0,0:0:0:0:
24,128,49977,1,0,0:0:0:0:
249,55,50117,5,0,0:0:0:0:
192,5,50256,1,0,0:0:0:0:
145,236,50396,5,0,0:0:0:0:
216,210,50535,1,0,0:0:0:0:
106,52,50675,6,0,B|51:-18|51:-18|12:64|12:64|33:48,1,201.937507703305
29,52,50954,1,0,0:0:0:0:
216,210,51093,2,0,B|177:129|177:129|121:202|121:202|145:191,1,201.937507703305
140,193,51372,1,0,0:0:0:0:
509,384,51512,5,0,0:0:0:0:
447,151,51651,1,0,0:0:0:0:
280,312,51791,5,0,0:0:0:0:
512,374,51931,1,0,0:0:0:0:
455,151,52070,5,0,0:0:0:0:
286,320,52210,1,0,0:0:0:0:
455,151,52349,6,0,B|435:89|529:57|595:151|486:228,1,235.593752246797
496,220,52628,1,0,0:0:0:0:
286,320,52768,2,0,B|265:382|359:414|425:320|316:243,1,235.593752246797
327,251,53047,1,0,0:0:0:0:
13,189,53186,5,0,0:0:0:0:
112,205,53326,1,0,0:0:0:0:
388,9,53465,5,0,0:0:0:0:
289,25,53605,1,0,0:0:0:0:
304,339,53744,5,0,0:0:0:0:
403,355,53884,1,0,0:0:0:0:
512,118,54024,6,0,P|432:104|373:97,1,134.625005135536
109,207,54303,5,0,0:0:0:0:
86,203,54376,1,0,0:0:0:0:
64,200,54449,1,0,0:0:0:0:
42,196,54522,1,0,0:0:0:0:
20,193,54605,1,0,0:0:0:0:
20,193,54893,6,0,P|56:186|96:182,1,67.3125025677682
227,17,55172,2,0,P|191:10|151:6,1,67.3125025677682
286,84,55451,2,0,P|279:120|275:160,1,67.3125025677682
79,334,55730,2,0,P|75:300|68:267,1,67.3125025677682
367,104,56009,2,0,P|363:137|356:170,1,67.3125025677682
27,111,56288,2,0,P|33:77|37:44,1,67.3125025677682
183,147,56567,2,0,P|189:180|193:213,1,67.3125025677682
138,18,56846,2,0,P|171:14|204:7,1,67.3125025677682
460,105,57125,2,0,P|426:98|393:94,1,67.3125025677682
448,185,57404,2,0,P|414:178|381:174,1,67.3125025677682
173,345,57683,2,0,P|206:341|239:334,1,67.3125025677682
337,365,57962,2,0,P|333:331|326:298,1,67.3125025677682
266,0,58234,6,0,P|244:2|222:5,1,44.875,0|0,2:0|2:0,2:0:0:0:
174,199,58517,2,0,P|167:132|155:66,1,134.625,0|0,2:0|2:0,2:0:0:0:
222,5,58800,6,0,P|244:1|267:0,1,44.875,0|0,2:0|2:0,2:0:0:0:
368,173,59083,2,0,P|355:106|348:39,1,134.625,0|0,2:0|2:0,2:0:0:0:
266,0,59366,6,0,P|244:2|222:5,1,44.875,0|0,2:0|2:0,2:0:0:0:
164,206,59649,2,0,P|157:139|145:73,1,134.625,0|0,2:0|2:0,2:0:0:0:
222,5,59932,6,0,P|244:1|267:0,1,44.875,0|0,2:0|2:0,2:0:0:0:
377,179,60215,2,0,P|364:112|357:45,1,134.625,0|0,2:0|2:0,2:0:0:0:
266,0,60498,6,0,P|244:2|222:5,1,44.875,0|0,2:0|2:0,2:0:0:0:
154,213,60781,2,0,P|147:146|135:80,1,134.625,0|0,2:0|2:0,2:0:0:0:
222,5,61064,6,0,P|244:1|267:0,1,44.875,0|0,2:0|2:0,2:0:0:0:
386,184,61347,2,0,P|373:117|366:50,1,134.625,0|0,2:0|2:0,2:0:0:0:
502,218,61631,6,0,P|472:248|437:245,2,67.3125025677682
460,332,62059,2,0,P|417:332|394:305,2,67.3125025677682
302,62,62488,2,0,P|328:42|361:46,1,67.3125025677682
204,53,62773,2,0,P|209:20|235:0,1,67.3125025677682
420,104,63059,2,0,P|414:136|388:157,1,67.3125025677682
298,175,63345,6,0,P|277:171|250:169,2,33.6562512838841
167,264,63631,2,0,P|126:257|73:252,1,67.3125025677682
424,374,63916,2,0,P|390:378|357:383,1,67.3125025677682
343,304,64202,2,0,P|384:297|437:292,1,67.3125025677682
22,378,64488,2,0,P|29:337|34:284,1,67.3125025677682
255,185,64773,2,0,P|262:226|267:279,1,67.3125025677682
225,377,65059,5,0,0:0:0:0:
225,377,65201,1,0,0:0:0:0:
0,236,65344,1,0,0:0:0:0:
0,236,65487,1,0,0:0:0:0:
207,113,65630,2,0,P|214:72|223:33,1,67.3125025677682
51,318,65916,5,0,0:0:0:0:
51,318,66059,1,0,0:0:0:0:
261,187,66201,1,0,0:0:0:0:
261,187,66344,1,0,0:0:0:0:
65,84,66487,2,0,P|58:43|49:4,1,67.3125025677682
156,197,66773,6,0,P|125:188|76:182,1,67.3125025677682
238,44,67059,2,0,P|269:53|318:59,1,67.3125025677682
256,260,67344,2,0,P|265:227|270:194,1,67.3125025677682
0,230,67630,2,0,P|102:206|170:194,1,168.28125
156,273,67947,6,0,P|151:306|141:338,1,56.09375
351,355,68089,2,0,P|356:322|366:290,1,56.09375
440,251,68231,1,0,0:0:0:0:
433,223,68302,1,0,0:0:0:0:
427,197,68373,1,0,0:0:0:0:
421,171,68444,1,0,0:0:0:0:
414,144,68515,6,0,P|462:152|504:154,1,89.75
311,20,69415,6,0,B|190:32|190:32|173:70|173:70|-5:90,1,314.125002995729
390,137,69865,1,0,0:0:0:0:
186,3,70015,2,0,P|236:12|323:23,1,116.674994659043
437,260,70315,6,0,B|500:225|500:225|305:248|10:282|10:282|83:236,1,628.249980827332
369,306,71215,2,0,P|304:294|232:284,1,134.625005135536
393,384,71515,1,0,0:0:0:0:
205,179,71665,1,0,0:0:0:0:
438,256,71815,2,0,P|328:271|219:291,1,201.937507703305
118,208,72115,6,0,P|128:320|36:384,1,235.593752246797
84,107,72415,2,0,P|164:104|209:172,1,168.28125
0,96,72715,2,0,P|11:54|51:35,1,89.75
239,273,73015,2,0,P|338:255|438:241,1,201.937507703305
448,247,73315,1,0,0:0:0:0:
371,86,73465,1,0,0:0:0:0:
512,166,73615,2,0,P|467:158|423:152,1,89.75
348,24,73873,5,0,0:0:0:0:
348,24,74020,2,0,B|374:44|374:44|368:88,1,67.3125025677682
213,151,74316,2,0,B|187:131|187:131|191:96,1,67.3125025677682
423,152,74611,1,0,0:0:0:0:
295,138,74759,6,0,P|291:178|285:206,1,67.3125025677682
369,78,75055,1,0,0:0:0:0:
428,153,75203,1,0,0:0:0:0:
369,78,75350,2,0,P|371:44|378:12,1,67.3125025677682
464,370,75646,6,0,L|490:373,1,26.9249991783142
375,313,75946,2,0,L|405:309,3,26.9249991783142
64,356,76546,6,0,P|268:326|404:310,1,314.125002995729
0,233,76996,1,0,0:0:0:0:
188,382,77146,2,0,P|138:373|76:367,1,112.1875
288,89,77446,6,0,B|325:101|325:101|287:382,1,314.125002995729
415,22,77896,2,0,B|452:34|452:34|414:315,1,314.125002995729
161,240,78346,2,0,P|173:167|183:96,1,134.625005135536
268,374,78646,1,0,0:0:0:0:
50,200,78796,1,0,0:0:0:0:
153,365,78946,2,0,P|162:298|173:231,1,134.625005135536
22,18,79237,6,0,B|14:52|14:52|34:78,2,67.3125025677682
187,133,79684,2,0,B|207:107|207:107|199:73,1,67.3125025677682
124,0,79983,1,0,0:0:0:0:
49,241,80132,6,0,P|100:232|166:225,1,112.1875
256,365,80431,1,0,0:0:0:0:
404,137,80580,2,0,P|353:128|287:121,1,112.1875
135,2,80878,5,0,0:0:0:0:
157,111,81028,1,0,0:0:0:0:
252,44,81177,1,0,0:0:0:0:
0,208,81281,6,0,P|137:230|248:252,1,235.593752246797
308,299,81575,1,0,0:0:0:0:
362,56,81722,1,0,0:0:0:0:
119,2,81869,1,0,0:0:0:0:
65,245,82016,1,0,0:0:0:0:
136,288,82163,6,0,P|142:303|147:319,3,33.6562512838841
61,250,82457,6,0,P|189:227|307:207,1,235.593752246797
512,198,82751,5,0,0:0:0:0:
512,198,82893,1,0,0:0:0:0:
357,135,83036,5,0,0:0:0:0:
357,135,83179,1,0,0:0:0:0:
380,301,83322,5,0,0:0:0:0:
380,301,83464,1,0,0:0:0:0:
512,198,83608,6,0,P|512:147|432:179,1,168.28125
431,174,83893,1,0,0:0:0:0:
299,324,84036,2,0,P|356:369|380:301,1,168.28125
380,301,84322,1,0,0:0:0:0:
1,291,84465,5,0,0:0:0:0:
41,365,84608,1,0,0:0:0:0:
144,199,84751,5,0,0:0:0:0:
60,196,84894,1,0,0:0:0:0:
152,368,85036,5,0,0:0:0:0:
196,297,85179,1,0,0:0:0:0:
53,195,85322,6,0,B|24:236|24:236|181:204,1,201.937507703305
172,205,85608,1,0,0:0:0:0:
266,361,85751,2,0,B|295:402|295:402|138:370,1,201.937507703305
147,371,86037,1,0,0:0:0:0:
189,43,86179,5,0,0:0:0:0:
46,184,86322,1,0,0:0:0:0:
252,236,86465,5,0,0:0:0:0:
202,41,86608,1,0,0:0:0:0:
53,195,86750,5,0,0:0:0:0:
247,248,86893,1,0,0:0:0:0:
47,190,87036,6,0,B|33:122|33:122|124:102|124:102|139:176,1,235.593752246797
140,174,87322,1,0,0:0:0:0:
280,66,87465,2,0,B|293:-1|293:-1|202:-21|202:-21|187:52,1,235.593752246797
187,51,87751,1,0,0:0:0:0:
441,206,87893,5,0,0:0:0:0:
457,112,88033,1,0,0:0:0:0:
252,182,88173,5,0,0:0:0:0:
323,243,88313,1,0,0:0:0:0:
364,29,88453,5,0,0:0:0:0:
276,62,88593,1,0,0:0:0:0:
512,222,88734,6,0,B|473:141|473:141|417:214|417:214|441:203,1,201.937507703305
435,205,89014,1,0,0:0:0:0:
276,62,89154,2,0,B|315:-19|315:-19|371:54|371:54|347:43,1,201.937507703305
352,45,89435,1,0,0:0:0:0:
81,15,89575,5,0,0:0:0:0:
81,15,89715,1,0,0:0:0:0:
25,196,89855,5,0,0:0:0:0:
25,196,89995,1,0,0:0:0:0:
210,153,90135,5,0,0:0:0:0:
210,153,90275,1,0,0:0:0:0:
81,15,90416,6,0,P|29:11|55:103,1,168.28125
35,100,90696,1,0,0:0:0:0:
164,238,90836,2,0,P|216:242|190:150,1,168.28125
210,153,91116,1,0,0:0:0:0:
46,362,91257,5,0,0:0:0:0:
135,382,91398,1,0,0:0:0:0:
259,230,91540,5,0,0:0:0:0:
170,250,91681,1,0,0:0:0:0:
226,359,91823,5,0,0:0:0:0:
315,379,91964,1,0,0:0:0:0:
259,230,92106,6,0,B|240:173|326:144|386:230|287:300,1,201.937507703305
307,283,92389,1,0,0:0:0:0:
46,362,92530,2,0,B|-32:308|27:223|113:252|94:308,1,201.937507703305
95,298,92813,1,0,0:0:0:0:
255,25,92948,5,0,0:0:0:0:
396,185,93091,1,0,0:0:0:0:
173,225,93234,5,0,0:0:0:0:
241,21,93377,1,0,0:0:0:0:
388,196,93519,5,0,0:0:0:0:
178,238,93662,1,0,0:0:0:0:
387,195,93804,6,0,P|450:124|356:117,1,235.593752246797
356,116,94087,1,0,0:0:0:0:
241,21,94228,2,0,P|166:4|219:96,1,235.593752246797
209,99,94511,1,0,0:0:0:0:
480,26,94653,5,0,0:0:0:0:
480,26,94936,1,0,0:0:0:0:
481,33,95007,1,0,0:0:0:0:
476,47,95077,1,0,0:0:0:0:
464,57,95148,1,0,0:0:0:0:
441,63,95219,1,0,0:0:0:0:
417,61,95290,1,0,0:0:0:0:
388,47,95360,1,0,0:0:0:0:
363,27,95431,1,0,0:0:0:0:
324,19,95502,1,0,0:0:0:0:
286,32,95573,1,0,0:0:0:0:
260,61,95643,1,0,0:0:0:0:
255,108,95714,1,0,0:0:0:0:
288,151,95785,1,0,0:0:0:0:
340,166,95856,1,0,0:0:0:0:
392,153,95926,1,0,0:0:0:0:
449,171,95997,1,0,0:0:0:0:
474,220,96068,1,0,0:0:0:0:
461,287,96139,1,0,0:0:0:0:
405,323,96209,1,0,0:0:0:0:
336,309,96280,1,0,0:0:0:0:
307,251,96351,1,0,0:0:0:0:
265,381,192428,6,0,P|138:356|-27:334,1,269.25
341,366,192725,5,0,0:0:0:0:
311,326,192824,5,0,0:0:0:0:
349,303,192923,5,0,0:0:0:0:
342,286,193022,6,0,P|373:100|396:18,1,269.25
45,95,193319,2,0,P|198:65|352:46,1,269.25
20,14,193616,1,0,0:0:0:0:
340,259,193764,2,0,P|207:284|74:302,1,269.250010271073
33,245,194061,1,0,0:0:0:0:
443,384,194210,6,0,P|455:310|500:151,1,235.593752246797
230,4,194507,2,0,P|242:78|287:237,1,235.593752246797
11,362,194804,2,0,P|23:288|68:129,1,235.593752246797
270,140,195101,2,0,P|243:237|225:336,1,157.062501497865
14,290,195398,2,0,P|32:191|59:94,1,157.062501497865
487,187,195695,2,0,P|460:284|443:384,1,157.062501497865
427,0,195992,6,0,P|295:28|162:47,1,269.25
477,167,196289,2,0,P|345:195|212:214,1,269.25
264,351,196586,2,0,P|130:331|-1:303,1,269.25
397,373,199482,6,0,P|409:333|408:295,1,67.3125025677682
496,267,199626,2,0,P|476:230|448:204,1,67.3125025677682
313,39,199769,6,0,P|344:49|372:68,1,67.3125025677682
455,28,199913,2,0,P|470:57|476:90,1,67.3125025677682
318,249,200056,6,0,P|303:279|281:305,1,67.3125025677682
225,236,200200,2,0,P|193:246|159:248,1,67.3125025677682
416,376,200417,6,0,L|479:386,2,44.875
71,330,200847,2,0,L|8:340,2,44.875
397,373,201278,6,0,P|409:333|408:295,1,67.3125025677682
496,267,201422,2,0,P|476:230|448:204,1,67.3125025677682
313,39,201565,6,0,P|344:49|372:68,1,67.3125025677682
455,28,201709,2,0,P|470:57|476:90,1,67.3125025677682
318,249,201852,6,0,P|303:279|281:305,1,67.3125025677682
225,236,201996,2,0,P|193:246|159:248,1,67.3125025677682
46,147,202139,6,0,L|34:87,2,44.875
475,220,202570,6,0,L|466:264,2,44.875
