osu file format v14

[General]
AudioFilename: audio.mp3
AudioLeadIn: 0
PreviewTime: 34414
Countdown: 0
SampleSet: Soft
StackLeniency: 0.7
Mode: 3
LetterboxInBreaks: 0
SpecialStyle: 0
WidescreenStoryboard: 1

[Editor]
DistanceSpacing: 0.8
BeatDivisor: 4
GridSize: 16
TimelineZoom: 2.2

[Metadata]
Title:Ibitbt
TitleUnicode:Ibitbt
Artist:3l3d3p
ArtistUnicode:3l3d3p
Creator:Monheim
Version:Normal
Source:
Tags:famoss dancefloor drum and & bass techstep hardcore breaks breakcore gabber tech technical dump ln stream score attack showdown eledep forward english electronic pope gadget popegadget experimental punk glitch dance
BeatmapID:2820896
BeatmapSetID:1287682

[Difficulty]
HPDrainRate:7
CircleSize:4
OverallDifficulty:7
ApproachRate:5
SliderMultiplier:1.4
SliderTickRate:1

[Events]
//Background and Video events
0,0,"2kljn3uk.jpg",0,0
//Break Periods
//Storyboard Layer 0 (Background)
//Storyboard Layer 1 (Fail)
//Storyboard Layer 2 (Pass)
//Storyboard Layer 3 (Foreground)
//Storyboard Layer 4 (Overlay)
//Storyboard Sound Samples

[TimingPoints]
518,353.0865650562,4,2,1,30,1,0
6167,-100,4,2,1,50,0,1
11816,-100,4,2,1,60,0,0
28764,-100,4,2,1,60,0,1
30177,-100,4,2,1,60,0,0
31589,-100,4,2,1,60,0,1
33001,-100,4,2,1,60,0,0
34414,-100,4,2,1,50,0,0
47125,-100,4,2,1,50,0,1
52774,-100,4,2,1,60,0,0
69722,-100,4,2,1,50,0,1
71135,-100,4,2,1,50,0,0
72547,-100,4,2,1,50,0,1
73960,-100,4,2,1,60,0,0
75372,-100,4,2,1,40,0,0
86671,-100,4,2,1,50,0,0
110681,-100,4,2,1,30,0,0
112093,-100,4,2,1,50,0,1
117742,-100,4,2,1,60,0,0
134690,-100,4,2,1,60,0,1
136103,-100,4,2,1,60,0,0
137515,-100,4,2,1,60,0,1
138927,-100,4,2,1,30,0,0

[HitObjects]
64,192,518,5,0,0:0:0:30:LS-HKI Digital Kick 01 F#.wav
64,192,871,1,0,0:0:0:30:LS-HKI Digital Kick 01 F#.wav
64,192,1224,1,0,0:0:0:30:LS-HKI Digital Kick 01 F#.wav
64,192,1577,1,0,0:0:0:30:LS-HKI Digital Kick 01 F#.wav
64,192,1930,1,0,0:0:0:30:LS-HKI Digital Kick 01 F#.wav
64,192,2283,1,0,0:0:0:30:LS-HKI Digital Kick 01 F#.wav
64,192,2636,1,0,0:0:0:30:LS-HKI Digital Kick 01 F#.wav
64,192,2989,1,0,0:0:0:30:LS-HKI Digital Kick 01 F#.wav
64,192,3342,1,0,0:0:0:30:LS-HKI Digital Kick 01 F#.wav
64,192,3695,1,0,0:0:0:30:LS-HKI Digital Kick 01 F#.wav
64,192,4048,1,0,0:0:0:30:LS-HKI Digital Kick 01 F#.wav
64,192,4401,1,0,0:0:0:30:LS-HKI Digital Kick 01 F#.wav
64,192,6167,1,0,0:0:0:70:Kick 02.wav
320,192,6343,1,0,0:0:0:0:
192,192,6520,1,0,0:0:0:70:electronic32.wav
320,192,6697,1,0,0:0:0:0:
448,192,6873,1,0,0:0:0:0:
64,192,7050,1,0,0:0:0:70:Kick 02.wav
192,192,7226,1,0,0:0:0:70:electronic32.wav
320,192,7403,1,0,0:0:0:0:
64,192,7579,1,0,0:0:0:70:Kick 02.wav
320,192,7756,1,0,0:0:0:0:
192,192,7932,1,0,0:0:0:70:electronic32.wav
320,192,8109,1,0,0:0:0:0:
64,192,8285,1,0,0:0:0:70:Kick 02.wav
64,192,8462,1,0,0:0:0:70:Kick 02.wav
192,192,8638,1,0,0:0:0:70:electronic32.wav
320,192,8815,1,0,0:0:0:0:
64,192,8992,1,0,0:0:0:70:Kick 02.wav
320,192,9168,1,0,0:0:0:0:
192,192,9345,1,0,0:0:0:70:electronic32.wav
320,192,9521,1,0,0:0:0:0:
448,192,9698,1,0,0:0:0:0:
64,192,9874,1,0,0:0:0:70:Kick 02.wav
192,192,10051,1,0,0:0:0:70:electronic32.wav
320,192,10227,1,0,0:0:0:0:
64,192,10404,1,0,0:0:0:70:Kick 02.wav
320,192,10580,1,0,0:0:0:0:
192,192,10757,1,0,0:0:0:70:electronic32.wav
320,192,10934,1,0,0:0:0:0:
448,192,11110,1,0,0:0:0:70:Kick 02.wav
192,192,11287,1,0,0:0:0:70:electronic32.wav
320,192,11463,1,0,0:0:0:0:
192,192,11640,1,0,0:0:0:70:electronic32.wav
64,192,11816,128,0,12169:0:0:0:70:Kick 02.wav
192,192,12169,1,0,0:0:0:70:electronic32.wav
448,192,12346,1,0,0:0:0:0:
64,192,12522,1,0,0:0:0:70:Kick 02.wav
64,192,12699,1,0,0:0:0:70:Kick 02.wav
192,192,12876,1,0,0:0:0:70:electronic32.wav
448,192,13052,1,0,0:0:0:0:
64,192,13229,1,0,0:0:0:70:Kick 02.wav
192,192,13582,1,0,0:0:0:70:electronic32.wav
64,192,13935,1,0,0:0:0:70:Kick 02.wav
64,192,14111,1,0,0:0:0:70:Kick 02.wav
192,192,14288,1,0,0:0:0:70:electronic32.wav
448,192,14464,1,0,0:0:0:0:
64,192,14641,1,0,0:0:0:70:Kick 02.wav
192,192,14994,1,0,0:0:0:40:LS-HKI Digital Kick 01 F#.wav
64,192,15347,1,0,0:0:0:40:LS-HKI Digital Kick 01 F#.wav
320,192,15524,128,0,15700:0:0:0:70:Kick 02.wav
192,192,15700,1,0,0:0:0:40:LS-HKI Digital Kick 01 F#.wav
448,192,15877,128,0,16053:0:0:0:0:
64,192,16053,1,0,0:0:0:70:Kick 02.wav
192,192,16406,1,0,0:0:0:40:LS-HKI Digital Kick 01 F#.wav
64,192,16759,1,0,0:0:0:40:LS-HKI Digital Kick 01 F#.wav
64,192,16936,1,0,0:0:0:70:Kick 02.wav
192,192,17113,128,0,17289:0:0:0:40:LS-HKI Digital Kick 01 F#.wav
320,192,17289,128,0,17466:0:0:0:0:
448,192,17466,128,0,17819:0:0:0:70:Kick 02.wav
320,192,17819,1,0,0:0:0:70:electronic32.wav
448,192,18172,1,0,0:0:0:70:Kick 02.wav
448,192,18348,1,0,0:0:0:70:Kick 02.wav
320,192,18525,1,0,0:0:0:70:electronic32.wav
64,192,18701,1,0,0:0:0:0:
448,192,18878,1,0,0:0:0:70:Kick 02.wav
320,192,19231,1,0,0:0:0:70:electronic32.wav
192,192,19408,1,0,0:0:0:0:
448,192,19584,1,0,0:0:0:70:Kick 02.wav
448,192,19761,1,0,0:0:0:70:Kick 02.wav
320,192,19937,1,0,0:0:0:70:electronic32.wav
64,192,20114,1,0,0:0:0:0:
448,192,20290,1,0,0:0:0:70:Kick 02.wav
320,192,20643,1,0,0:0:0:70:electronic32.wav
448,192,20997,1,0,0:0:0:70:Kick 02.wav
448,192,21173,128,0,21350:0:0:0:70:Kick 02.wav
320,192,21350,1,0,0:0:0:70:electronic32.wav
64,192,21526,128,0,21703:0:0:0:0:
448,192,21703,1,0,0:0:0:70:Kick 02.wav
192,192,21879,1,0,0:0:0:0:
320,192,22056,1,0,0:0:0:70:electronic32.wav
192,192,22232,1,0,0:0:0:0:
448,192,22409,1,0,0:0:0:70:Kick 02.wav
320,192,22585,1,0,0:0:0:70:electronic32.wav
448,192,22762,1,0,0:0:0:70:Kick 02.wav
320,192,22938,1,0,0:0:0:70:electronic32.wav
64,192,23115,1,0,0:0:0:70:Kick 02.wav
192,192,23468,1,0,0:0:0:70:electronic32.wav
448,192,23645,1,0,0:0:0:0:
64,192,23821,1,0,0:0:0:70:Kick 02.wav
64,192,23998,1,0,0:0:0:70:Kick 02.wav
192,192,24174,1,0,0:0:0:70:electronic32.wav
448,192,24351,1,0,0:0:0:0:
64,192,24527,1,0,0:0:0:70:Kick 02.wav
192,192,24880,128,0,25234:0:0:0:70:electronic32.wav
64,192,25234,1,0,0:0:0:70:Kick 02.wav
64,192,25410,1,0,0:0:0:70:Kick 02.wav
192,192,25587,1,0,0:0:0:70:electronic32.wav
448,192,25940,1,0,0:0:0:70:Kick 02.wav
320,192,26293,1,0,0:0:0:40:LS-HKI Digital Kick 01 F#.wav
192,192,26469,1,0,0:0:0:0:
448,192,26646,1,0,0:0:0:40:LS-HKI Digital Kick 01 F#.wav
448,192,26822,1,0,0:0:0:70:Kick 02.wav
320,192,26999,1,0,0:0:0:40:LS-HKI Digital Kick 01 F#.wav
64,192,27176,1,0,0:0:0:0:
448,192,27352,1,0,0:0:0:70:Kick 02.wav
320,192,27705,1,0,0:0:0:40:LS-HKI Digital Kick 01 F#.wav
448,192,28058,1,0,0:0:0:40:LS-HKI Digital Kick 01 F#.wav
448,192,28235,1,0,0:0:0:70:Kick 02.wav
320,192,28411,1,0,0:0:0:40:LS-HKI Digital Kick 01 F#.wav
64,192,28764,1,0,0:0:0:70:Kick 02.wav
320,192,28941,1,0,0:0:0:0:
192,192,29118,1,0,0:0:0:70:electronic32.wav
320,192,29294,1,0,0:0:0:0:
448,192,29471,1,0,0:0:0:0:
64,192,29647,1,0,0:0:0:70:Kick 02.wav
192,192,29824,1,0,0:0:0:70:electronic32.wav
320,192,30000,1,0,0:0:0:0:
448,192,30177,1,0,0:0:0:70:Kick 02.wav
320,192,30530,1,0,0:0:0:70:electronic32.wav
448,192,30883,1,0,0:0:0:70:Kick 02.wav
448,192,31059,1,0,0:0:0:70:Kick 02.wav
320,192,31236,1,0,0:0:0:70:electronic32.wav
64,192,31589,1,0,0:0:0:70:Kick 02.wav
320,192,31766,1,0,0:0:0:0:
192,192,31942,1,0,0:0:0:70:electronic32.wav
320,192,32119,1,0,0:0:0:0:
448,192,32295,1,0,0:0:0:0:
64,192,32472,1,0,0:0:0:70:Kick 02.wav
192,192,32648,1,0,0:0:0:70:electronic32.wav
320,192,32825,1,0,0:0:0:0:
448,192,33001,1,0,0:0:0:70:Kick 02.wav
320,192,33355,1,0,0:0:0:70:electronic32.wav
448,192,33708,1,0,0:0:0:70:Kick 02.wav
320,192,33884,1,0,0:0:0:70:electronic32.wav
64,192,34061,1,0,0:0:0:70:Kick 02.wav
320,192,34237,1,0,0:0:0:70:electronic32.wav
192,192,34414,128,0,34767:0:0:0:70:Kick 02.wav
320,192,34767,1,0,0:0:0:40:LS-HKI Digital Kick 01 F#_S.wav
320,192,35120,1,0,0:0:0:40:LS-HKI Digital Kick 01 F#_S.wav
192,192,35473,128,0,35826:0:0:0:40:LS-HKI Digital Kick 01 F#.wav
64,192,35826,1,0,0:0:0:40:LS-HKI Digital Kick 01 F#.wav
192,192,36179,128,0,36356:0:0:0:40:LS-HKI Digital Kick 01 F#.wav
320,192,36356,128,0,36532:0:0:0:0:
192,192,36532,128,0,36885:0:0:0:40:LS-HKI Digital Kick 01 F#.wav
448,192,36885,1,0,0:0:0:40:LS-HKI Digital Kick 01 F#.wav
192,192,37239,1,0,0:0:0:40:LS-HKI Digital Kick 01 F#.wav
192,192,37592,1,0,0:0:0:40:LS-HKI Digital Kick 01 F#.wav
192,192,37945,1,0,0:0:0:40:LS-HKI Digital Kick 01 F#.wav
64,192,38121,1,0,0:0:0:0:
192,192,38298,1,0,0:0:0:40:LS-HKI Digital Kick 01 F#.wav
64,192,38474,1,0,0:0:0:0:
320,192,38651,128,0,39004:0:0:0:40:LS-HKI Digital Kick 01 F#.wav
64,192,39004,1,0,0:0:0:40:LS-HKI Digital Kick 01 F#.wav
320,192,39357,1,0,0:0:0:40:LS-HKI Digital Kick 01 F#.wav
64,192,39710,1,0,0:0:0:40:LS-HKI Digital Kick 01 F#.wav
320,192,40063,1,0,0:0:0:40:LS-HKI Digital Kick 01 F#.wav
64,192,40416,1,0,0:0:0:40:LS-HKI Digital Kick 01 F#.wav
320,192,40769,1,0,0:0:0:40:LS-HKI Digital Kick 01 F#.wav
64,192,41122,1,0,0:0:0:40:LS-HKI Digital Kick 01 F#.wav
192,192,41476,128,0,41829:0:0:0:70:Kick 02.wav
320,192,41829,1,0,0:0:0:40:LS-HKI Digital Kick 01 F#_S.wav
320,192,42182,1,0,0:0:0:40:LS-HKI Digital Kick 01 F#_S.wav
192,192,42535,128,0,42888:0:0:0:40:LS-HKI Digital Kick 01 F#.wav
64,192,42888,1,0,0:0:0:40:LS-HKI Digital Kick 01 F#.wav
192,192,43241,128,0,43418:0:0:0:40:LS-HKI Digital Kick 01 F#.wav
320,192,43418,128,0,43594:0:0:0:0:
192,192,43594,128,0,43947:0:0:0:40:LS-HKI Digital Kick 01 F#.wav
448,192,43947,1,0,0:0:0:40:LS-HKI Digital Kick 01 F#.wav
192,192,44300,128,0,44477:0:0:0:40:LS-HKI Digital Kick 01 F#.wav
192,192,44653,1,0,0:0:0:40:LS-HKI Digital Kick 01 F#.wav
192,192,45006,1,0,0:0:0:40:LS-HKI Digital Kick 01 F#.wav
64,192,45183,1,0,0:0:0:0:
192,192,45359,1,0,0:0:0:40:LS-HKI Digital Kick 01 F#.wav
64,192,45536,1,0,0:0:0:0:
320,192,45713,1,0,0:0:0:40:LS-HKI Digital Kick 01 F#.wav
448,192,45713,1,0,0:0:0:0:
320,192,46066,1,0,0:0:0:40:LS-HKI Digital Kick 01 F#.wav
448,192,46066,1,0,0:0:0:0:
320,192,46419,1,0,0:0:0:40:LS-HKI Digital Kick 01 F#.wav
448,192,46419,1,0,0:0:0:0:
320,192,46772,1,0,0:0:0:40:LS-HKI Digital Kick 01 F#.wav
448,192,46772,1,0,0:0:0:0:
64,192,47125,1,0,0:0:0:70:Kick 02.wav
320,192,47301,1,0,0:0:0:0:
192,192,47478,1,0,0:0:0:70:electronic32.wav
320,192,47655,1,0,0:0:0:0:
448,192,47831,1,0,0:0:0:0:
64,192,48008,1,0,0:0:0:70:Kick 02.wav
192,192,48184,1,0,0:0:0:70:electronic32.wav
320,192,48361,1,0,0:0:0:0:
64,192,48537,1,0,0:0:0:70:Kick 02.wav
320,192,48714,1,0,0:0:0:0:
192,192,48890,1,0,0:0:0:70:electronic32.wav
320,192,49067,1,0,0:0:0:0:
64,192,49243,1,0,0:0:0:70:Kick 02.wav
64,192,49420,1,0,0:0:0:70:Kick 02.wav
192,192,49597,1,0,0:0:0:70:electronic32.wav
320,192,49773,1,0,0:0:0:0:
64,192,49950,1,0,0:0:0:70:Kick 02.wav
320,192,50126,1,0,0:0:0:0:
192,192,50303,1,0,0:0:0:70:electronic32.wav
320,192,50479,1,0,0:0:0:0:
448,192,50656,1,0,0:0:0:0:
64,192,50832,1,0,0:0:0:70:Kick 02.wav
192,192,51009,1,0,0:0:0:70:electronic32.wav
320,192,51185,1,0,0:0:0:0:
64,192,51362,1,0,0:0:0:70:Kick 02.wav
320,192,51539,1,0,0:0:0:0:
192,192,51715,1,0,0:0:0:70:electronic32.wav
320,192,51892,1,0,0:0:0:0:
64,192,52068,1,0,0:0:0:70:Kick 02.wav
192,192,52245,1,0,0:0:0:70:electronic32.wav
448,192,52421,1,0,0:0:0:0:
192,192,52598,1,0,0:0:0:70:electronic32.wav
64,192,52774,1,0,0:0:0:70:Kick 02.wav
320,192,52951,1,0,0:0:0:0:
192,192,53127,1,0,0:0:0:70:electronic32.wav
448,192,53304,1,0,0:0:0:0:
64,192,53480,1,0,0:0:0:70:Kick 02.wav
64,192,53657,1,0,0:0:0:70:Kick 02.wav
192,192,53834,1,0,0:0:0:70:electronic32.wav
448,192,54010,1,0,0:0:0:0:
192,192,54187,128,0,54540:0:0:0:70:Kick 02.wav
448,192,54540,128,0,54893:0:0:0:70:electronic32.wav
64,192,54893,128,0,55246:0:0:0:70:Kick 02.wav
192,192,55246,1,0,0:0:0:70:electronic32.wav
64,192,55422,1,0,0:0:0:0:
448,192,55599,1,0,0:0:0:70:Kick 02.wav
192,192,55776,1,0,0:0:0:0:
320,192,55952,1,0,0:0:0:40:LS-HKI Digital Kick 01 F#.wav
64,192,56129,1,0,0:0:0:0:
448,192,56305,1,0,0:0:0:40:LS-HKI Digital Kick 01 F#.wav
448,192,56482,1,0,0:0:0:70:Kick 02.wav
320,192,56658,1,0,0:0:0:40:LS-HKI Digital Kick 01 F#.wav
64,192,56835,1,0,0:0:0:0:
320,192,57011,128,0,57364:0:0:0:70:Kick 02.wav
448,192,57364,128,0,57718:0:0:0:40:LS-HKI Digital Kick 01 F#.wav
192,192,57718,128,0,58071:0:0:0:40:LS-HKI Digital Kick 01 F#.wav
320,192,58071,1,0,0:0:0:40:LS-HKI Digital Kick 01 F#.wav
448,192,58247,1,0,0:0:0:0:
64,192,58424,1,0,0:0:0:70:Kick 02.wav
320,192,58600,1,0,0:0:0:0:
192,192,58777,1,0,0:0:0:70:electronic32.wav
448,192,58953,1,0,0:0:0:0:
64,192,59130,1,0,0:0:0:70:Kick 02.wav
64,192,59306,1,0,0:0:0:70:Kick 02.wav
192,192,59483,1,0,0:0:0:70:electronic32.wav
448,192,59659,1,0,0:0:0:0:
64,192,59836,1,0,0:0:0:70:Kick 02.wav
320,192,60013,1,0,0:0:0:0:
192,192,60189,1,0,0:0:0:70:electronic32.wav
448,192,60366,1,0,0:0:0:0:
64,192,60542,1,0,0:0:0:70:Kick 02.wav
64,192,60719,1,0,0:0:0:70:Kick 02.wav
192,192,60895,1,0,0:0:0:70:electronic32.wav
320,192,61072,1,0,0:0:0:0:
448,192,61248,1,0,0:0:0:70:Kick 02.wav
192,192,61425,1,0,0:0:0:0:
320,192,61601,1,0,0:0:0:70:electronic32.wav
64,192,61778,1,0,0:0:0:0:
448,192,61955,1,0,0:0:0:70:Kick 02.wav
448,192,62131,1,0,0:0:0:70:Kick 02.wav
320,192,62308,1,0,0:0:0:70:electronic32.wav
64,192,62484,1,0,0:0:0:0:
448,192,62661,1,0,0:0:0:70:Kick 02.wav
192,192,62837,1,0,0:0:0:0:
320,192,63014,1,0,0:0:0:70:electronic32.wav
64,192,63190,1,0,0:0:0:0:
448,192,63367,1,0,0:0:0:70:Kick 02.wav
320,192,63543,1,0,0:0:0:70:electronic32.wav
448,192,63720,1,0,0:0:0:70:Kick 02.wav
320,192,63897,1,0,0:0:0:70:electronic32.wav
64,192,64073,128,0,64426:0:0:0:70:Kick 02.wav
192,192,64426,1,0,0:0:0:70:electronic32.wav
64,192,64779,1,0,0:0:0:70:Kick 02.wav
64,192,64956,1,0,0:0:0:70:Kick 02.wav
192,192,65132,1,0,0:0:0:70:electronic32.wav
448,192,65309,1,0,0:0:0:0:
64,192,65485,1,0,0:0:0:70:Kick 02.wav
192,192,65839,1,0,0:0:0:70:electronic32.wav
448,192,66015,1,0,0:0:0:0:
64,192,66192,1,0,0:0:0:70:Kick 02.wav
64,192,66368,1,0,0:0:0:70:Kick 02.wav
192,192,66545,1,0,0:0:0:70:electronic32.wav
448,192,66898,1,0,0:0:0:70:Kick 02.wav
320,192,67251,1,0,0:0:0:40:LS-HKI Digital Kick 01 F#.wav
64,192,67427,1,0,0:0:0:0:
448,192,67604,1,0,0:0:0:40:LS-HKI Digital Kick 01 F#.wav
448,192,67780,1,0,0:0:0:70:Kick 02.wav
320,192,67957,1,0,0:0:0:40:LS-HKI Digital Kick 01 F#.wav
448,192,68310,1,0,0:0:0:70:Kick 02.wav
320,192,68663,1,0,0:0:0:40:LS-HKI Digital Kick 01 F#.wav
64,192,68840,1,0,0:0:0:0:
448,192,69016,1,0,0:0:0:40:LS-HKI Digital Kick 01 F#.wav
448,192,69193,1,0,0:0:0:70:Kick 02.wav
320,192,69369,1,0,0:0:0:40:LS-HKI Digital Kick 01 F#.wav
64,192,69722,1,0,0:0:0:70:Kick 02.wav
320,192,69899,1,0,0:0:0:0:
192,192,70076,1,0,0:0:0:70:electronic32.wav
320,192,70252,1,0,0:0:0:0:
448,192,70429,1,0,0:0:0:0:
64,192,70605,1,0,0:0:0:70:Kick 02.wav
192,192,70782,1,0,0:0:0:70:electronic32.wav
320,192,70958,1,0,0:0:0:0:
448,192,71135,1,0,0:0:0:70:Kick 02.wav
320,192,71488,1,0,0:0:0:70:electronic32.wav
448,192,71841,1,0,0:0:0:70:Kick 02.wav
448,192,72018,1,0,0:0:0:70:Kick 02.wav
320,192,72194,1,0,0:0:0:70:electronic32.wav
64,192,72547,1,0,0:0:0:70:Kick 02.wav
320,192,72724,1,0,0:0:0:0:
192,192,72900,1,0,0:0:0:70:electronic32.wav
320,192,73077,1,0,0:0:0:0:
448,192,73253,1,0,0:0:0:0:
64,192,73430,1,0,0:0:0:70:Kick 02.wav
192,192,73606,1,0,0:0:0:70:electronic32.wav
320,192,73783,1,0,0:0:0:0:
448,192,73960,1,0,0:0:0:70:Kick 02.wav
320,192,74313,1,0,0:0:0:70:electronic32.wav
448,192,74666,1,0,0:0:0:70:Kick 02.wav
320,192,74842,1,0,0:0:0:70:electronic32.wav
448,192,75019,1,0,0:0:0:70:Kick 02.wav
320,192,75195,1,0,0:0:0:70:electronic32.wav
192,192,75372,128,0,75725:0:0:0:70:Kick 02.wav
320,192,75725,1,0,0:0:0:40:LS-HKI Digital Kick 01 F#_S.wav
320,192,76078,1,0,0:0:0:40:LS-HKI Digital Kick 01 F#_S.wav
192,192,76431,128,0,76784:0:0:0:40:LS-HKI Digital Kick 01 F#.wav
64,192,76784,1,0,0:0:0:40:LS-HKI Digital Kick 01 F#.wav
192,192,77137,128,0,77314:0:0:0:40:LS-HKI Digital Kick 01 F#.wav
320,192,77314,128,0,77490:0:0:0:0:
192,192,77490,128,0,77843:0:0:0:40:LS-HKI Digital Kick 01 F#.wav
448,192,77843,1,0,0:0:0:40:LS-HKI Digital Kick 01 F#.wav
192,192,78197,1,0,0:0:0:40:LS-HKI Digital Kick 01 F#.wav
192,192,78550,1,0,0:0:0:40:LS-HKI Digital Kick 01 F#.wav
192,192,78903,1,0,0:0:0:40:LS-HKI Digital Kick 01 F#.wav
64,192,79079,1,0,0:0:0:0:
192,192,79256,1,0,0:0:0:40:LS-HKI Digital Kick 01 F#.wav
64,192,79432,1,0,0:0:0:0:
320,192,79609,128,0,79962:0:0:0:40:LS-HKI Digital Kick 01 F#.wav
64,192,79962,1,0,0:0:0:40:LS-HKI Digital Kick 01 F#.wav
320,192,80315,1,0,0:0:0:40:LS-HKI Digital Kick 01 F#.wav
64,192,80668,1,0,0:0:0:40:LS-HKI Digital Kick 01 F#.wav
320,192,81021,1,0,0:0:0:40:LS-HKI Digital Kick 01 F#.wav
64,192,81374,1,0,0:0:0:40:LS-HKI Digital Kick 01 F#.wav
320,192,81727,1,0,0:0:0:40:LS-HKI Digital Kick 01 F#.wav
64,192,82080,1,0,0:0:0:40:LS-HKI Digital Kick 01 F#.wav
192,192,82434,128,0,82787:0:0:0:70:Kick 02.wav
320,192,82787,1,0,0:0:0:40:LS-HKI Digital Kick 01 F#_S.wav
320,192,83140,1,0,0:0:0:40:LS-HKI Digital Kick 01 F#_S.wav
192,192,83493,128,0,83846:0:0:0:40:LS-HKI Digital Kick 01 F#.wav
64,192,83846,1,0,0:0:0:40:LS-HKI Digital Kick 01 F#.wav
192,192,84199,128,0,84376:0:0:0:40:LS-HKI Digital Kick 01 F#.wav
320,192,84376,128,0,84552:0:0:0:0:
192,192,84552,128,0,84905:0:0:0:40:LS-HKI Digital Kick 01 F#.wav
448,192,84905,1,0,0:0:0:40:LS-HKI Digital Kick 01 F#.wav
192,192,85258,128,0,85435:0:0:0:40:LS-HKI Digital Kick 01 F#.wav
192,192,85611,1,0,0:0:0:40:LS-HKI Digital Kick 01 F#.wav
192,192,85964,1,0,0:0:0:40:LS-HKI Digital Kick 01 F#.wav
64,192,86141,1,0,0:0:0:0:
192,192,86318,1,0,0:0:0:40:LS-HKI Digital Kick 01 F#.wav
64,192,86494,1,0,0:0:0:0:
320,192,86671,1,0,0:0:0:40:LS-HKI Digital Kick 01 F#.wav
448,192,86671,1,0,0:0:0:0:
320,192,87024,1,0,0:0:0:40:LS-HKI Digital Kick 01 F#.wav
448,192,87024,1,0,0:0:0:0:
320,192,87377,1,0,0:0:0:40:LS-HKI Digital Kick 01 F#.wav
448,192,87377,1,0,0:0:0:0:
320,192,87730,1,0,0:0:0:40:LS-HKI Digital Kick 01 F#.wav
448,192,87730,1,0,0:0:0:0:
64,192,88083,1,0,0:0:0:100:Kick #32.wav
320,192,88436,1,0,0:0:0:0:
448,192,88789,128,0,89142:0:0:0:100:Kick #31.wav
320,192,89142,1,0,0:0:0:0:
320,192,89848,1,0,0:0:0:100:Kick #31.wav
192,192,90201,128,0,90555:0:0:0:0:
64,192,90555,1,0,0:0:0:0:
448,192,90908,1,0,0:0:0:100:Kick #32.wav
192,192,91261,1,0,0:0:0:0:
320,192,91614,128,0,91967:0:0:0:100:Kick #31.wav
192,192,91967,1,0,0:0:0:0:
192,192,92673,1,0,0:0:0:100:Kick #31.wav
64,192,93026,128,0,93379:0:0:0:0:
448,192,93379,1,0,0:0:0:0:
64,192,93732,1,0,0:0:0:100:Kick #32.wav
320,192,94085,1,0,0:0:0:0:
192,192,94439,128,0,94792:0:0:0:100:Kick #31.wav
320,192,94792,1,0,0:0:0:0:
320,192,95498,1,0,0:0:0:100:Kick #31.wav
448,192,95851,128,0,96204:0:0:0:0:
320,192,96204,1,0,0:0:0:0:
448,192,96557,1,0,0:0:0:100:Kick #32.wav
320,192,96910,1,0,0:0:0:0:
64,192,97263,128,0,97616:0:0:0:100:Kick #31.wav
320,192,97616,1,0,0:0:0:0:
320,192,98322,1,0,0:0:0:100:Kick #31.wav
448,192,98676,1,0,0:0:0:0:
320,192,99029,1,0,0:0:0:0:
64,192,99382,1,0,0:0:0:100:Kick #32.wav
320,192,99735,1,0,0:0:0:0:
448,192,100088,128,0,100441:0:0:0:100:Kick #31.wav
320,192,100441,1,0,0:0:0:0:
320,192,101147,1,0,0:0:0:100:Kick #31.wav
192,192,101500,128,0,101853:0:0:0:0:
320,192,101853,1,0,0:0:0:0:
448,192,102206,1,0,0:0:0:100:Kick #32.wav
192,192,102560,1,0,0:0:0:0:
320,192,102913,128,0,103266:0:0:0:100:Kick #31.wav
192,192,103266,1,0,0:0:0:0:
192,192,103972,1,0,0:0:0:100:Kick #31.wav
448,192,104325,128,0,104678:0:0:0:0:
192,192,104678,1,0,0:0:0:0:
64,192,105031,1,0,0:0:0:100:Kick #32.wav
320,192,105384,1,0,0:0:0:0:
192,192,105737,128,0,106090:0:0:0:100:Kick #31.wav
320,192,106090,1,0,0:0:0:0:
320,192,106797,1,0,0:0:0:100:Kick #31.wav
448,192,107150,128,0,107503:0:0:0:0:
320,192,107503,1,0,0:0:0:0:
448,192,107856,1,0,0:0:0:100:Kick #32.wav
192,192,108209,1,0,0:0:0:0:
64,192,108562,128,0,108915:0:0:0:100:Kick #31.wav
320,192,108915,1,0,0:0:0:0:
320,192,109621,1,0,0:0:0:100:Kick #31.wav
448,192,109974,1,0,0:0:0:0:
192,192,110327,1,0,0:0:0:0:
64,192,112093,1,0,0:0:0:70:Kick 02.wav
320,192,112269,1,0,0:0:0:0:
192,192,112446,1,0,0:0:0:70:electronic32.wav
320,192,112622,1,0,0:0:0:0:
448,192,112799,1,0,0:0:0:0:
64,192,112976,1,0,0:0:0:70:Kick 02.wav
192,192,113152,1,0,0:0:0:70:electronic32.wav
320,192,113329,1,0,0:0:0:0:
64,192,113505,1,0,0:0:0:70:Kick 02.wav
320,192,113682,1,0,0:0:0:0:
192,192,113858,1,0,0:0:0:70:electronic32.wav
320,192,114035,1,0,0:0:0:0:
64,192,114211,1,0,0:0:0:70:Kick 02.wav
64,192,114388,1,0,0:0:0:70:Kick 02.wav
192,192,114564,1,0,0:0:0:70:electronic32.wav
320,192,114741,1,0,0:0:0:0:
64,192,114918,1,0,0:0:0:70:Kick 02.wav
320,192,115094,1,0,0:0:0:0:
192,192,115271,1,0,0:0:0:70:electronic32.wav
320,192,115447,1,0,0:0:0:0:
448,192,115624,1,0,0:0:0:0:
64,192,115800,1,0,0:0:0:70:Kick 02.wav
192,192,115977,1,0,0:0:0:70:electronic32.wav
320,192,116153,1,0,0:0:0:0:
64,192,116330,1,0,0:0:0:70:Kick 02.wav
320,192,116506,1,0,0:0:0:0:
192,192,116683,1,0,0:0:0:70:electronic32.wav
320,192,116860,1,0,0:0:0:0:
448,192,117036,1,0,0:0:0:70:Kick 02.wav
192,192,117213,1,0,0:0:0:70:electronic32.wav
320,192,117389,1,0,0:0:0:0:
192,192,117566,1,0,0:0:0:70:electronic32.wav
64,192,117742,1,0,0:0:0:70:Kick 02.wav
448,192,117919,1,0,0:0:0:0:
192,192,118095,1,0,0:0:0:70:electronic32.wav
448,192,118272,1,0,0:0:0:0:
64,192,118448,1,0,0:0:0:70:Kick 02.wav
64,192,118625,1,0,0:0:0:70:Kick 02.wav
192,192,118801,1,0,0:0:0:70:electronic32.wav
448,192,118978,1,0,0:0:0:0:
64,192,119155,1,0,0:0:0:70:Kick 02.wav
192,192,119508,1,0,0:0:0:70:electronic32.wav
320,192,119684,1,0,0:0:0:0:
64,192,119861,1,0,0:0:0:70:Kick 02.wav
64,192,120037,1,0,0:0:0:70:Kick 02.wav
192,192,120214,1,0,0:0:0:70:electronic32.wav
448,192,120567,1,0,0:0:0:70:Kick 02.wav
64,192,120743,1,0,0:0:0:0:
320,192,120920,1,0,0:0:0:40:LS-HKI Digital Kick 01 F#.wav
64,192,121097,1,0,0:0:0:0:
448,192,121273,1,0,0:0:0:40:LS-HKI Digital Kick 01 F#.wav
448,192,121450,1,0,0:0:0:70:Kick 02.wav
320,192,121626,1,0,0:0:0:40:LS-HKI Digital Kick 01 F#.wav
64,192,121803,1,0,0:0:0:0:
448,192,121979,1,0,0:0:0:70:Kick 02.wav
320,192,122332,1,0,0:0:0:40:LS-HKI Digital Kick 01 F#.wav
192,192,122509,1,0,0:0:0:0:
448,192,122685,1,0,0:0:0:40:LS-HKI Digital Kick 01 F#.wav
448,192,122862,1,0,0:0:0:70:Kick 02.wav
320,192,123039,1,0,0:0:0:40:LS-HKI Digital Kick 01 F#.wav
64,192,123392,1,0,0:0:0:70:Kick 02.wav
192,192,123745,1,0,0:0:0:70:electronic32.wav
448,192,123921,1,0,0:0:0:0:
64,192,124098,1,0,0:0:0:70:Kick 02.wav
64,192,124274,1,0,0:0:0:70:Kick 02.wav
192,192,124451,1,0,0:0:0:70:electronic32.wav
320,192,124627,1,0,0:0:0:0:
64,192,124804,1,0,0:0:0:70:Kick 02.wav
448,192,124981,1,0,0:0:0:0:
192,192,125157,1,0,0:0:0:70:electronic32.wav
320,192,125334,1,0,0:0:0:0:
64,192,125510,1,0,0:0:0:70:Kick 02.wav
64,192,125687,1,0,0:0:0:70:Kick 02.wav
192,192,125863,1,0,0:0:0:70:electronic32.wav
448,192,126216,1,0,0:0:0:70:Kick 02.wav
320,192,126569,1,0,0:0:0:70:electronic32.wav
64,192,126746,1,0,0:0:0:0:
448,192,126922,1,0,0:0:0:70:Kick 02.wav
448,192,127099,1,0,0:0:0:70:Kick 02.wav
320,192,127276,1,0,0:0:0:70:electronic32.wav
448,192,127629,1,0,0:0:0:70:Kick 02.wav
64,192,127805,1,0,0:0:0:0:
320,192,127982,1,0,0:0:0:70:electronic32.wav
192,192,128158,1,0,0:0:0:0:
448,192,128335,1,0,0:0:0:70:Kick 02.wav
320,192,128511,1,0,0:0:0:70:electronic32.wav
448,192,128688,1,0,0:0:0:70:Kick 02.wav
320,192,128864,1,0,0:0:0:70:electronic32.wav
64,192,129041,1,0,0:0:0:70:Kick 02.wav
448,192,129218,1,0,0:0:0:0:
192,192,129394,1,0,0:0:0:70:electronic32.wav
448,192,129571,1,0,0:0:0:0:
64,192,129747,1,0,0:0:0:70:Kick 02.wav
64,192,129924,1,0,0:0:0:70:Kick 02.wav
192,192,130100,1,0,0:0:0:70:electronic32.wav
448,192,130277,1,0,0:0:0:0:
64,192,130453,1,0,0:0:0:70:Kick 02.wav
192,192,130806,1,0,0:0:0:70:electronic32.wav
64,192,131160,1,0,0:0:0:70:Kick 02.wav
64,192,131336,1,0,0:0:0:70:Kick 02.wav
192,192,131513,1,0,0:0:0:70:electronic32.wav
448,192,131866,1,0,0:0:0:70:Kick 02.wav
64,192,132042,1,0,0:0:0:0:
320,192,132219,1,0,0:0:0:40:LS-HKI Digital Kick 01 F#.wav
64,192,132395,1,0,0:0:0:0:
448,192,132572,1,0,0:0:0:40:LS-HKI Digital Kick 01 F#.wav
448,192,132748,1,0,0:0:0:70:Kick 02.wav
320,192,132925,1,0,0:0:0:40:LS-HKI Digital Kick 01 F#.wav
64,192,133102,1,0,0:0:0:0:
448,192,133278,1,0,0:0:0:70:Kick 02.wav
64,192,133455,1,0,0:0:0:0:
320,192,133631,1,0,0:0:0:40:LS-HKI Digital Kick 01 F#.wav
192,192,133808,1,0,0:0:0:0:
64,192,133984,1,0,0:0:0:0:
64,192,134690,1,0,0:0:0:70:Kick 02.wav
320,192,134867,1,0,0:0:0:0:
192,192,135043,1,0,0:0:0:70:electronic32.wav
320,192,135220,1,0,0:0:0:0:
448,192,135397,1,0,0:0:0:0:
64,192,135573,1,0,0:0:0:70:Kick 02.wav
192,192,135750,1,0,0:0:0:70:electronic32.wav
320,192,135926,1,0,0:0:0:0:
448,192,136103,1,0,0:0:0:70:Kick 02.wav
320,192,136456,1,0,0:0:0:70:electronic32.wav
448,192,136809,1,0,0:0:0:70:Kick 02.wav
448,192,136985,1,0,0:0:0:70:Kick 02.wav
320,192,137162,1,0,0:0:0:70:electronic32.wav
64,192,137515,1,0,0:0:0:70:Kick 02.wav
320,192,137692,1,0,0:0:0:0:
192,192,137868,1,0,0:0:0:70:electronic32.wav
320,192,138045,1,0,0:0:0:0:
448,192,138221,1,0,0:0:0:0:
64,192,138398,1,0,0:0:0:70:Kick 02.wav
192,192,138574,1,0,0:0:0:70:electronic32.wav
448,192,138751,1,0,0:0:0:0:
64,192,138927,1,0,0:0:0:30:LS-HKI Digital Kick 01 F#.wav
64,192,139281,1,0,0:0:0:30:LS-HKI Digital Kick 01 F#.wav
64,192,139634,1,0,0:0:0:30:LS-HKI Digital Kick 01 F#.wav
64,192,139987,1,0,0:0:0:30:LS-HKI Digital Kick 01 F#.wav
