osu file format v14

[General]
AudioFilename: babi-bibi.mp3
AudioLeadIn: 0
PreviewTime: 51856
Countdown: 0
SampleSet: Soft
StackLeniency: 0.7
Mode: 3
LetterboxInBreaks: 0
SpecialStyle: 0
WidescreenStoryboard: 0

[Editor]
DistanceSpacing: 0.8
BeatDivisor: 4
GridSize: 4
TimelineZoom: 1.4

[Metadata]
Title:Theme of Rabi-Ribi
TitleUnicode:Theme of Rabi-Ribi
Artist:3R2
ArtistUnicode:3R2
Creator:Kuo Kyoka
Version:Hard
Source:Rabi-Ribi
Tags:Steam Original Soundtrack Erina Kano-Bi Ribbon Bunny Usagi CreSpirit Animen Sekai Project Plurk GemaYue Kadid Saiste Yan-K Opening UPRPRC Waero ăƒ©ăƒ“-ăƒȘビ Ichigaki
BeatmapID:989903
BeatmapSetID:462232

[Difficulty]
HPDrainRate:7.5
CircleSize:4
OverallDifficulty:7.5
ApproachRate:5
SliderMultiplier:1.4
SliderTickRate:1

[Events]
//Background and Video events
0,0,"Rabi-Ribi_01.jpg",0,0
Video,8,"Rabi-Ribi.avi"
//Break Periods
//Storyboard Layer 0 (Background)
//Storyboard Layer 1 (Fail)
//Storyboard Layer 2 (Pass)
//Storyboard Layer 3 (Foreground)
//Storyboard Sound Samples
Sample,5570,0,"bell.wav",50
Sample,6256,0,"bell.wav",50
Sample,6942,0,"bell.wav",50
Sample,7456,0,"bass.wav",45
Sample,7627,0,"bell.wav",50
Sample,8142,0,"bell.wav",50
Sample,9513,0,"bell.wav",50
Sample,9599,0,"snare.wav",40
Sample,9770,0,"snare.wav",40
Sample,9942,0,"snare.wav",40
Sample,10113,0,"snare.wav",40
Sample,10285,0,"snare.wav",40
Sample,10413,0,"snare.wav",40
Sample,10499,0,"snare.wav",40
Sample,10585,0,"snare.wav",40
Sample,10670,0,"snare.wav",40
Sample,10756,0,"snare.wav",40
Sample,10842,0,"snare.wav",40
Sample,10927,0,"snare.wav",40
Sample,11013,0,"snare.wav",40
Sample,11056,0,"bell.wav",50
Sample,11056,0,"crash.wav",45
Sample,11399,0,"bell.wav",50
Sample,11399,0,"bass.wav",45
Sample,11742,0,"bell.wav",50
Sample,11742,0,"bass.wav",45
Sample,12085,0,"bell.wav",50
Sample,12085,0,"bass.wav",45
Sample,12256,0,"bell.wav",50
Sample,12427,0,"snare.wav",40
Sample,12599,0,"bell.wav",50
Sample,12770,0,"snare.wav",40
Sample,12942,0,"bell.wav",50
Sample,13113,0,"snare.wav",40
Sample,13113,0,"bell.wav",50
Sample,13456,0,"bass.wav",45
Sample,13456,0,"bell.wav",50
Sample,13542,0,"snare.wav",40
Sample,13627,0,"snare.wav",40
Sample,13713,0,"snare.wav",40
Sample,13799,0,"bell.wav",50
Sample,13799,0,"crash.wav",45
Sample,14142,0,"bell.wav",50
Sample,14142,0,"bass.wav",45
Sample,14485,0,"bell.wav",50
Sample,14485,0,"bass.wav",45
Sample,14827,0,"bell.wav",50
Sample,14827,0,"snare.wav",40
Sample,17227,0,"bass.wav",45
Sample,17913,0,"bass.wav",45
Sample,19285,0,"bass.wav",45
Sample,19970,0,"bass.wav",45
Sample,20656,0,"bass.wav",45
Sample,22199,0,"hihat.wav",35
Sample,22542,0,"hihat.wav",35
Sample,22885,0,"hihat.wav",35
Sample,23227,0,"hihat.wav",35
Sample,24256,0,"hihat.wav",35
Sample,24942,0,"hihat.wav",35
Sample,25456,0,"bass.wav",45
Sample,25970,0,"snare.wav",40
Sample,26142,0,"crash.wav",45
Sample,32827,0,"bass.wav",45
Sample,32999,0,"bass.wav",45
Sample,35570,0,"bass.wav",45
Sample,38656,0,"bass.wav",45
Sample,39342,0,"hihat.wav",35
Sample,39513,0,"bass.wav",45
Sample,40027,0,"hihat.wav",35
Sample,40199,0,"snare.wav",40
Sample,40370,0,"hihat.wav",35
Sample,41399,0,"bass.wav",45
Sample,42256,0,"snare.wav",40
Sample,42427,0,"bass.wav",45
Sample,44142,0,"bass.wav",45
Sample,44827,0,"hihat.wav",35
Sample,45170,0,"bass.wav",45
Sample,45513,0,"hihat.wav",35
Sample,45685,0,"snare.wav",40
Sample,45856,0,"hihat.wav",35
Sample,46713,0,"bass.wav",45
Sample,47399,0,"bass.wav",45
Sample,47742,0,"bass.wav",45
Sample,48085,0,"bass.wav",45
Sample,48427,0,"bass.wav",45
Sample,48942,0,"hihat.wav",35
Sample,49285,0,"hihat.wav",35
Sample,50485,0,"bass.wav",45
Sample,52199,0,"bell.wav",50
Sample,53570,0,"bell.wav",50
Sample,54942,0,"bell.wav",50
Sample,55970,0,"bell.wav",50
Sample,56313,0,"bell.wav",50
Sample,56827,0,"bell.wav",50
Sample,57685,0,"bell.wav",50
Sample,59056,0,"bell.wav",50
Sample,59399,0,"snare.wav",40
Sample,59570,0,"bass.wav",45
Sample,59570,0,"bell.wav",50
Sample,59913,0,"bass.wav",45
Sample,60256,0,"snare.wav",40
Sample,60427,0,"bell.wav",50
Sample,61456,0,"bell.wav",50
Sample,61799,0,"snare.wav",40
Sample,61799,0,"bell.wav",50
Sample,62913,0,"snare.wav",40
Sample,63085,0,"snare.wav",40
Sample,63170,0,"bell.wav",50
Sample,63170,0,"snare.wav",40
Sample,64542,0,"bell.wav",50
Sample,65570,0,"bell.wav",50
Sample,65913,0,"crash.wav",45
Sample,66085,0,"hihat.wav",35
Sample,66427,0,"hihat.wav",35
Sample,66599,0,"crash.wav",45
Sample,66770,0,"hihat.wav",35
Sample,66942,0,"snare.wav",40
Sample,67113,0,"bass.wav",45
Sample,67285,0,"crash.wav",45
Sample,67627,0,"bass.wav",45
Sample,67799,0,"crash.wav",45
Sample,68656,0,"crash.wav",45
Sample,68827,0,"hihat.wav",35
Sample,69342,0,"crash.wav",45
Sample,69513,0,"hihat.wav",35
Sample,70027,0,"crash.wav",45
Sample,70199,0,"hihat.wav",35
Sample,70542,0,"hihat.wav",35
Sample,70713,0,"crash.wav",45
Sample,70885,0,"hihat.wav",35
Sample,71227,0,"crash.wav",45
Sample,72170,0,"snare.wav",40
Sample,72342,0,"snare.wav",40
Sample,72513,0,"snare.wav",40
Sample,72685,0,"snare.wav",40
Sample,72813,0,"snare.wav",40
Sample,72899,0,"snare.wav",40
Sample,72985,0,"snare.wav",40
Sample,73070,0,"snare.wav",40
Sample,73156,0,"snare.wav",40
Sample,73242,0,"snare.wav",40
Sample,73327,0,"snare.wav",40
Sample,73413,0,"snare.wav",40
Sample,73499,0,"snare.wav",40
Sample,73585,0,"snare.wav",40
Sample,73670,0,"snare.wav",40
Sample,73756,0,"snare.wav",40
Sample,73799,0,"bass.wav",45
Sample,74142,0,"bell.wav",50
Sample,74485,0,"bass.wav",45
Sample,74485,0,"bell.wav",50
Sample,74827,0,"bass.wav",45
Sample,74827,0,"bell.wav",50
Sample,75170,0,"bass.wav",45
Sample,75170,0,"bell.wav",50
Sample,75342,0,"bell.wav",50
Sample,75513,0,"snare.wav",40
Sample,75685,0,"bell.wav",50
Sample,75856,0,"bass.wav",45
Sample,76027,0,"bell.wav",50
Sample,76199,0,"bell.wav",50
Sample,76199,0,"bass.wav",45
Sample,76542,0,"bell.wav",50
Sample,76542,0,"bass.wav",45
Sample,76713,0,"bass.wav",45
Sample,76885,0,"bell.wav",50
Sample,77227,0,"bell.wav",50
Sample,77227,0,"snare.wav",40
Sample,77570,0,"bell.wav",50
Sample,77570,0,"snare.wav",40
Sample,77913,0,"bell.wav",50
Sample,77913,0,"snare.wav",40
Sample,78085,0,"bell.wav",50
Sample,78256,0,"snare.wav",40
Sample,78427,0,"bell.wav",50
Sample,78599,0,"bass.wav",45
Sample,78770,0,"bell.wav",50
Sample,78942,0,"bass.wav",45
Sample,78942,0,"bell.wav",50
Sample,79285,0,"bass.wav",45
Sample,79285,0,"bell.wav",50
Sample,79370,0,"snare.wav",40
Sample,79456,0,"snare.wav",40
Sample,79542,0,"snare.wav",40
Sample,79627,0,"bell.wav",50
Sample,79970,0,"snare.wav",40
Sample,79970,0,"bell.wav",50
Sample,80313,0,"snare.wav",40
Sample,80313,0,"bell.wav",50
Sample,80656,0,"snare.wav",40
Sample,80656,0,"bell.wav",50
Sample,80827,0,"bell.wav",50
Sample,80999,0,"snare.wav",40
Sample,81170,0,"bell.wav",50
Sample,81342,0,"bass.wav",45
Sample,81513,0,"bell.wav",50
Sample,81685,0,"bell.wav",50
Sample,81685,0,"bass.wav",45
Sample,82027,0,"bell.wav",50
Sample,82027,0,"bass.wav",45
Sample,82199,0,"bass.wav",45
Sample,82370,0,"bell.wav",50
Sample,82713,0,"bell.wav",50
Sample,82713,0,"snare.wav",40
Sample,83056,0,"bell.wav",50
Sample,83056,0,"snare.wav",40
Sample,83399,0,"bell.wav",50
Sample,83399,0,"snare.wav",40
Sample,84513,0,"snare.wav",40
Sample,84599,0,"snare.wav",40
Sample,84685,0,"snare.wav",40
Sample,84770,0,"bass.wav",45
Sample,84770,0,"boom.wav",50
Sample,85113,0,"crash.wav",45

[TimingPoints]
85,342.857142857143,4,2,1,20,1,0
52199,-100,4,2,1,20,0,1
61799,-100,4,2,1,20,0,0
63170,-100,4,2,1,20,0,1
72770,-100,4,2,1,20,0,0

[HitObjects]
64,192,85,5,0,0:0:0:0:
192,192,256,1,0,0:0:0:0:
320,192,427,1,0,0:0:0:0:
448,192,599,1,0,0:0:0:0:
192,192,1456,1,0,0:0:0:0:
320,192,1627,1,0,0:0:0:0:
448,192,1799,1,0,0:0:0:0:
64,192,1970,1,0,0:0:0:0:
64,192,2827,1,0,0:0:0:0:
192,192,2999,1,0,0:0:0:0:
320,192,3170,1,0,0:0:0:0:
448,192,3342,1,0,0:0:0:0:
64,192,3856,1,0,0:0:0:0:
64,192,4199,1,0,0:0:0:0:
448,192,4370,1,0,0:0:0:0:
64,192,4542,1,0,0:0:0:0:
448,192,4713,1,0,0:0:0:0:
192,192,4885,1,0,0:0:0:45:bass.wav
320,192,4970,1,0,0:0:0:45:bass.wav
448,192,5056,1,0,0:0:0:45:bass.wav
448,192,5227,1,0,0:0:0:45:bass.wav
64,192,5227,1,0,0:0:0:50:boom.wav
320,192,5313,1,0,0:0:0:0:
192,192,5399,1,0,0:0:0:0:
320,192,5485,1,0,0:0:0:0:
448,192,5570,1,0,0:0:0:45:bass.wav
64,192,5570,128,0,5913:0:0:0:45:crash.wav
448,192,5913,1,0,0:0:0:0:
320,192,6085,1,0,0:0:0:45:bass.wav
192,192,6256,128,0,6599:0:0:0:45:bass.wav
64,192,6256,1,0,0:0:0:45:crash.wav
320,192,6599,1,0,0:0:0:0:
192,192,6770,1,0,0:0:0:45:bass.wav
320,192,6942,128,0,7285:0:0:0:45:bass.wav
448,192,6942,1,0,0:0:0:45:crash.wav
64,192,7285,128,0,7627:0:0:0:0:
192,192,7627,1,0,0:0:0:45:bass.wav
448,192,7627,128,0,7970:0:0:0:45:crash.wav
320,192,7799,1,0,0:0:0:0:
64,192,7970,1,0,0:0:0:0:
448,192,8142,1,0,0:0:0:40:snare.wav
192,192,8142,128,0,9170:0:0:0:45:crash.wav
320,192,8313,1,0,0:0:0:40:snare.wav
448,192,8485,1,0,0:0:0:40:snare.wav
320,192,8656,1,0,0:0:0:40:snare.wav
448,192,8827,1,0,0:0:0:40:snare.wav
320,192,8999,1,0,0:0:0:40:snare.wav
448,192,9170,1,0,0:0:0:40:snare.wav
320,192,9342,1,0,0:0:0:40:snare.wav
192,192,9513,1,0,0:0:0:40:snare.wav
64,192,9513,128,0,9856:0:0:0:45:crash.wav
320,192,9685,1,0,0:0:0:40:snare.wav
448,192,9856,128,0,10199:0:0:0:40:snare.wav
192,192,10027,1,0,0:0:0:40:snare.wav
320,192,10199,1,0,0:0:0:40:snare.wav
64,192,10370,1,0,0:0:0:40:snare.wav
448,192,10370,1,0,0:0:0:0:
320,192,10456,1,0,0:0:0:40:snare.wav
192,192,10542,1,0,0:0:0:40:snare.wav
320,192,10627,1,0,0:0:0:40:snare.wav
64,192,10713,1,0,0:0:0:40:snare.wav
448,192,10713,1,0,0:0:0:0:
192,192,10799,1,0,0:0:0:40:snare.wav
320,192,10885,1,0,0:0:0:40:snare.wav
192,192,10970,1,0,0:0:0:40:snare.wav
448,192,11056,1,0,0:0:0:40:snare.wav
64,192,11056,128,0,11227:0:0:0:45:bass.wav
448,192,11227,1,0,0:0:0:35:hihat.wav
64,192,11399,128,0,11570:0:0:0:40:snare.wav
448,192,11570,1,0,0:0:0:35:hihat.wav
64,192,11742,128,0,11913:0:0:0:40:snare.wav
448,192,11913,1,0,0:0:0:35:hihat.wav
64,192,12085,128,0,12256:0:0:0:40:snare.wav
320,192,12256,128,0,12427:0:0:0:35:hihat.wav
64,192,12427,1,0,0:0:0:45:bass.wav
320,192,12599,128,0,12770:0:0:0:35:hihat.wav
64,192,12770,1,0,0:0:0:45:bass.wav
320,192,12942,128,0,13113:0:0:0:35:hihat.wav
192,192,13113,128,0,13285:0:0:0:45:bass.wav
448,192,13285,1,0,0:0:0:35:hihat.wav
192,192,13456,128,0,13627:0:0:0:40:snare.wav
448,192,13627,1,0,0:0:0:35:hihat.wav
448,192,13799,128,0,13970:0:0:0:40:snare.wav
64,192,13799,1,0,0:0:0:45:bass.wav
64,192,13970,1,0,0:0:0:35:hihat.wav
448,192,14142,128,0,14313:0:0:0:40:snare.wav
64,192,14313,1,0,0:0:0:35:hihat.wav
448,192,14485,128,0,14656:0:0:0:40:snare.wav
64,192,14656,1,0,0:0:0:35:hihat.wav
448,192,14827,128,0,14999:0:0:0:45:bass.wav
192,192,14999,1,0,0:0:0:45:bass.wav
64,192,14999,1,0,0:0:0:45:crash.wav
192,192,15342,1,0,0:0:0:45:bass.wav
64,192,15342,1,0,0:0:0:45:crash.wav
64,192,15685,1,0,0:0:0:45:bass.wav
192,192,15685,1,0,0:0:0:45:crash.wav
320,192,15856,1,0,0:0:0:45:bass.wav
448,192,15856,1,0,0:0:0:45:crash.wav
192,192,16199,1,0,0:0:0:50:boom.wav
64,192,16542,1,0,0:0:0:45:bass.wav
448,192,16542,1,0,0:0:0:45:crash.wav
192,192,16713,1,0,0:0:0:35:hihat.wav
320,192,16885,1,0,0:0:0:45:bass.wav
64,192,16885,1,0,0:0:0:0:
448,192,17056,1,0,0:0:0:35:hihat.wav
64,192,17399,1,0,0:0:0:35:hihat.wav
192,192,17570,1,0,0:0:0:45:bass.wav
448,192,17570,1,0,0:0:0:0:
320,192,17742,1,0,0:0:0:35:hihat.wav
64,192,18085,1,0,0:0:0:35:hihat.wav
448,192,18256,1,0,0:0:0:45:bass.wav
320,192,18256,1,0,0:0:0:0:
64,192,18427,1,0,0:0:0:35:hihat.wav
448,192,18599,1,0,0:0:0:45:bass.wav
320,192,18770,1,0,0:0:0:35:hihat.wav
192,192,18942,1,0,0:0:0:45:bass.wav
64,192,18942,1,0,0:0:0:0:
320,192,19113,1,0,0:0:0:35:hihat.wav
192,192,19456,1,0,0:0:0:35:hihat.wav
320,192,19627,1,0,0:0:0:45:bass.wav
64,192,19627,1,0,0:0:0:0:
448,192,19799,1,0,0:0:0:35:hihat.wav
64,192,20142,1,0,0:0:0:35:hihat.wav
192,192,20313,1,0,0:0:0:45:bass.wav
448,192,20313,1,0,0:0:0:0:
320,192,20485,1,0,0:0:0:35:hihat.wav
64,192,20827,1,0,0:0:0:35:hihat.wav
320,192,20999,1,0,0:0:0:45:bass.wav
448,192,20999,1,0,0:0:0:0:
64,192,21170,1,0,0:0:0:35:hihat.wav
192,192,21342,1,0,0:0:0:45:bass.wav
320,192,21513,1,0,0:0:0:35:hihat.wav
448,192,21685,1,0,0:0:0:45:bass.wav
64,192,21685,1,0,0:0:0:0:
192,192,21856,1,0,0:0:0:35:hihat.wav
448,192,22027,128,0,22199:0:0:0:45:bass.wav
320,192,22027,1,0,0:0:0:0:
320,192,22370,1,0,0:0:0:45:bass.wav
448,192,22370,128,0,22542:0:0:0:0:
320,192,22713,128,0,22885:0:0:0:45:bass.wav
192,192,22713,1,0,0:0:0:0:
192,192,23056,128,0,23227:0:0:0:45:bass.wav
64,192,23056,1,0,0:0:0:0:
448,192,23399,1,0,0:0:0:45:bass.wav
64,192,23570,128,0,23742:0:0:0:35:hihat.wav
192,192,23742,128,0,23913:0:0:0:45:bass.wav
448,192,23742,1,0,0:0:0:0:
320,192,23913,128,0,24085:0:0:0:35:hihat.wav
448,192,24085,128,0,24256:0:0:0:45:bass.wav
320,192,24427,1,0,0:0:0:45:bass.wav
64,192,24427,128,0,24599:0:0:0:0:
192,192,24599,128,0,24770:0:0:0:35:hihat.wav
320,192,24770,128,0,24942:0:0:0:45:bass.wav
448,192,25113,128,0,25285:0:0:0:45:bass.wav
64,192,25113,1,0,0:0:0:0:
192,192,25285,128,0,25456:0:0:0:35:hihat.wav
320,192,25627,128,0,25799:0:0:0:35:hihat.wav
64,192,25799,1,0,0:0:0:45:bass.wav
448,192,25799,1,0,0:0:0:40:snare.wav
320,192,25885,1,0,0:0:0:40:snare.wav
192,192,25970,1,0,0:0:0:35:hihat.wav
320,192,26056,1,0,0:0:0:40:snare.wav
448,192,26142,1,0,0:0:0:40:snare.wav
64,192,26142,1,0,0:0:0:45:bass.wav
192,192,26485,1,0,0:0:0:45:bass.wav
64,192,26485,1,0,0:0:0:45:crash.wav
320,192,26656,1,0,0:0:0:45:bass.wav
448,192,26656,1,0,0:0:0:45:crash.wav
192,192,26999,1,0,0:0:0:45:bass.wav
320,192,26999,1,0,0:0:0:45:crash.wav
192,192,27342,1,0,0:0:0:45:bass.wav
64,192,27342,1,0,0:0:0:45:crash.wav
320,192,27513,1,0,0:0:0:45:crash.wav
448,192,27513,1,0,0:0:0:45:bass.wav
64,192,27513,1,0,0:0:0:0:
192,192,27685,128,0,27856:0:0:0:35:hihat.wav
64,192,27856,1,0,0:0:0:45:bass.wav
320,192,27856,128,0,28027:0:0:0:40:snare.wav
448,192,28027,128,0,28199:0:0:0:35:hihat.wav
192,192,28199,1,0,0:0:0:45:bass.wav
64,192,28370,128,0,28542:0:0:0:35:hihat.wav
192,192,28542,128,0,28713:0:0:0:45:bass.wav
448,192,28542,1,0,0:0:0:40:snare.wav
320,192,28713,128,0,28885:0:0:0:35:hihat.wav
64,192,28885,1,0,0:0:0:45:bass.wav
192,192,29056,128,0,29227:0:0:0:35:hihat.wav
448,192,29227,1,0,0:0:0:45:bass.wav
64,192,29227,1,0,0:0:0:40:snare.wav
192,192,29399,128,0,29570:0:0:0:35:hihat.wav
64,192,29570,1,0,0:0:0:45:bass.wav
448,192,29570,128,0,29742:0:0:0:0:
320,192,29742,128,0,29913:0:0:0:35:hihat.wav
192,192,29913,128,0,30085:0:0:0:45:bass.wav
448,192,29913,1,0,0:0:0:40:snare.wav
64,192,30085,128,0,30256:0:0:0:35:hihat.wav
320,192,30256,1,0,0:0:0:45:bass.wav
320,192,30427,128,0,30599:0:0:0:35:hihat.wav
192,192,30599,128,0,30770:0:0:0:45:bass.wav
448,192,30599,1,0,0:0:0:40:snare.wav
64,192,30770,128,0,30942:0:0:0:35:hihat.wav
320,192,30942,1,0,0:0:0:45:bass.wav
448,192,31113,128,0,31285:0:0:0:35:hihat.wav
320,192,31285,128,0,31456:0:0:0:45:bass.wav
64,192,31285,1,0,0:0:0:40:snare.wav
192,192,31456,128,0,31627:0:0:0:35:hihat.wav
448,192,31627,1,0,0:0:0:45:bass.wav
320,192,31799,128,0,31970:0:0:0:35:hihat.wav
64,192,31970,1,0,0:0:0:45:bass.wav
448,192,31970,1,0,0:0:0:40:snare.wav
320,192,32142,128,0,32313:0:0:0:35:hihat.wav
448,192,32313,1,0,0:0:0:45:bass.wav
64,192,32313,128,0,32485:0:0:0:0:
192,192,32485,128,0,32656:0:0:0:35:hihat.wav
320,192,32656,128,0,32827:0:0:0:45:bass.wav
64,192,32656,1,0,0:0:0:40:snare.wav
448,192,32827,128,0,32999:0:0:0:35:hihat.wav
64,192,32999,128,0,33170:0:0:0:45:crash.wav
192,192,32999,1,0,0:0:0:0:
448,192,33170,1,0,0:0:0:35:hihat.wav
64,192,33342,128,0,33513:0:0:0:45:bass.wav
192,192,33342,1,0,0:0:0:40:snare.wav
448,192,33513,1,0,0:0:0:35:hihat.wav
64,192,33685,128,0,33856:0:0:0:45:bass.wav
448,192,33856,128,0,34027:0:0:0:35:hihat.wav
64,192,34027,1,0,0:0:0:45:bass.wav
192,192,34027,128,0,34199:0:0:0:40:snare.wav
320,192,34199,128,0,34370:0:0:0:35:hihat.wav
448,192,34370,1,0,0:0:0:45:bass.wav
64,192,34542,128,0,34713:0:0:0:35:hihat.wav
192,192,34713,128,0,34885:0:0:0:45:bass.wav
448,192,34713,1,0,0:0:0:40:snare.wav
320,192,34885,128,0,35056:0:0:0:35:hihat.wav
448,192,35056,128,0,35227:0:0:0:45:bass.wav
64,192,35227,1,0,0:0:0:35:hihat.wav
448,192,35399,1,0,0:0:0:45:bass.wav
192,192,35399,128,0,35570:0:0:0:40:snare.wav
320,192,35570,128,0,35742:0:0:0:35:hihat.wav
64,192,35742,1,0,0:0:0:45:bass.wav
448,192,35742,128,0,35913:0:0:0:45:crash.wav
192,192,35913,1,0,0:0:0:35:hihat.wav
64,192,36085,128,0,36256:0:0:0:40:snare.wav
448,192,36085,1,0,0:0:0:45:bass.wav
192,192,36256,128,0,36427:0:0:0:35:hihat.wav
320,192,36427,128,0,36599:0:0:0:45:bass.wav
64,192,36599,1,0,0:0:0:35:hihat.wav
192,192,36770,1,0,0:0:0:45:bass.wav
448,192,36770,1,0,0:0:0:40:snare.wav
64,192,36942,1,0,0:0:0:35:hihat.wav
320,192,37113,1,0,0:0:0:45:bass.wav
448,192,37113,1,0,0:0:0:45:crash.wav
192,192,37456,1,0,0:0:0:45:crash.wav
320,192,37456,1,0,0:0:0:45:bass.wav
192,192,37799,1,0,0:0:0:45:bass.wav
64,192,37799,1,0,0:0:0:45:crash.wav
320,192,38142,1,0,0:0:0:0:
192,192,38227,1,0,0:0:0:0:
448,192,38313,1,0,0:0:0:0:
64,192,38313,1,0,0:0:0:0:
320,192,38399,1,0,0:0:0:0:
192,192,38485,1,0,0:0:0:45:crash.wav
64,192,38485,1,0,0:0:0:45:bass.wav
192,192,38656,1,0,0:0:0:35:hihat.wav
64,192,38827,1,0,0:0:0:45:bass.wav
448,192,38827,1,0,0:0:0:40:snare.wav
448,192,38999,128,0,39342:0:0:0:35:hihat.wav
64,192,39085,1,0,0:0:0:45:bass.wav
64,192,39342,1,0,0:0:0:45:bass.wav
192,192,39513,1,0,0:0:0:40:snare.wav
320,192,39685,1,0,0:0:0:45:bass.wav
448,192,39685,1,0,0:0:0:35:hihat.wav
192,192,39856,1,0,0:0:0:45:bass.wav
64,192,39856,1,0,0:0:0:0:
320,192,40027,1,0,0:0:0:45:bass.wav
448,192,40085,1,0,0:0:0:0:
64,192,40142,1,0,0:0:0:0:
192,192,40199,1,0,0:0:0:45:bass.wav
320,192,40370,128,0,40713:0:0:0:45:bass.wav
64,192,40542,128,0,40885:0:0:0:45:crash.wav
192,192,40542,1,0,0:0:0:45:bass.wav
192,192,40885,1,0,0:0:0:0:
320,192,41056,1,0,0:0:0:0:
448,192,41227,1,0,0:0:0:45:bass.wav
64,192,41227,128,0,41570:0:0:0:45:crash.wav
192,192,41399,1,0,0:0:0:35:hihat.wav
448,192,41570,1,0,0:0:0:45:bass.wav
320,192,41570,1,0,0:0:0:40:snare.wav
192,192,41742,128,0,41913:0:0:0:35:hihat.wav
448,192,41827,1,0,0:0:0:45:bass.wav
192,192,42085,128,0,42256:0:0:0:45:bass.wav
448,192,42085,1,0,0:0:0:35:hihat.wav
64,192,42256,1,0,0:0:0:45:bass.wav
192,192,42427,128,0,42599:0:0:0:35:hihat.wav
320,192,42599,1,0,0:0:0:45:crash.wav
448,192,42599,128,0,42856:0:0:0:45:bass.wav
320,192,42942,128,0,43199:0:0:0:45:bass.wav
448,192,42942,1,0,0:0:0:45:crash.wav
192,192,43285,1,0,0:0:0:45:crash.wav
64,192,43285,128,0,43542:0:0:0:45:bass.wav
192,192,43627,128,0,43885:0:0:0:45:crash.wav
64,192,43627,1,0,0:0:0:45:bass.wav
192,192,43970,1,0,0:0:0:45:bass.wav
448,192,43970,1,0,0:0:0:45:crash.wav
320,192,44142,1,0,0:0:0:35:hihat.wav
64,192,44313,1,0,0:0:0:40:snare.wav
448,192,44313,1,0,0:0:0:45:bass.wav
64,192,44485,128,0,44827:0:0:0:35:hihat.wav
448,192,44570,1,0,0:0:0:45:bass.wav
448,192,44827,1,0,0:0:0:45:bass.wav
64,192,44999,1,0,0:0:0:45:bass.wav
320,192,44999,1,0,0:0:0:40:snare.wav
192,192,45170,1,0,0:0:0:35:hihat.wav
448,192,45342,1,0,0:0:0:45:bass.wav
64,192,45342,128,0,45513:0:0:0:0:
192,192,45513,128,0,45685:0:0:0:45:bass.wav
320,192,45685,128,0,45856:0:0:0:45:bass.wav
448,192,45856,128,0,46199:0:0:0:45:bass.wav
64,192,46027,128,0,46370:0:0:0:45:crash.wav
192,192,46027,1,0,0:0:0:45:bass.wav
192,192,46370,1,0,0:0:0:0:
320,192,46542,1,0,0:0:0:0:
448,192,46713,1,0,0:0:0:45:crash.wav
64,192,46713,1,0,0:0:0:40:snare.wav
192,192,46885,1,0,0:0:0:35:hihat.wav
448,192,47056,1,0,0:0:0:40:snare.wav
320,192,47056,128,0,47227:0:0:0:45:bass.wav
64,192,47227,128,0,47399:0:0:0:35:hihat.wav
448,192,47399,1,0,0:0:0:40:snare.wav
192,192,47570,128,0,47742:0:0:0:35:hihat.wav
448,192,47742,1,0,0:0:0:40:snare.wav
320,192,47913,128,0,48085:0:0:0:35:hihat.wav
448,192,48085,1,0,0:0:0:40:snare.wav
320,192,48256,128,0,48427:0:0:0:35:hihat.wav
448,192,48427,1,0,0:0:0:40:snare.wav
320,192,48599,128,0,48770:0:0:0:35:hihat.wav
448,192,48770,1,0,0:0:0:40:snare.wav
64,192,48770,128,0,48942:0:0:0:45:bass.wav
448,192,49113,1,0,0:0:0:40:snare.wav
192,192,49113,128,0,49285:0:0:0:45:bass.wav
448,192,49285,1,0,0:0:0:0:
448,192,49456,1,0,0:0:0:40:snare.wav
320,192,49456,128,0,49627:0:0:0:45:crash.wav
64,192,49456,1,0,0:0:0:45:bass.wav
64,192,49627,1,0,0:0:0:40:snare.wav
192,192,49627,1,0,0:0:0:0:
320,192,49799,128,0,49970:0:0:0:40:snare.wav
448,192,49799,1,0,0:0:0:45:bass.wav
64,192,49970,1,0,0:0:0:40:snare.wav
192,192,49970,1,0,0:0:0:0:
448,192,50142,1,0,0:0:0:40:snare.wav
64,192,50142,1,0,0:0:0:45:bass.wav
192,192,50227,1,0,0:0:0:40:snare.wav
320,192,50313,1,0,0:0:0:40:snare.wav
448,192,50313,1,0,0:0:0:0:
192,192,50399,1,0,0:0:0:40:snare.wav
64,192,50485,1,0,0:0:0:40:snare.wav
448,192,50485,1,0,0:0:0:0:
320,192,50570,1,0,0:0:0:40:snare.wav
192,192,50656,1,0,0:0:0:40:snare.wav
64,192,50656,1,0,0:0:0:0:
320,192,50742,1,0,0:0:0:40:snare.wav
64,192,50999,1,0,0:0:0:45:bass.wav
448,192,50999,1,0,0:0:0:45:crash.wav
192,192,50999,1,0,0:0:0:0:
192,192,51170,1,0,0:0:0:45:bass.wav
64,192,51170,1,0,0:0:0:45:crash.wav
448,192,51170,1,0,0:0:0:0:
192,192,51342,1,0,0:0:0:45:crash.wav
320,192,51342,1,0,0:0:0:45:bass.wav
320,192,51513,1,0,0:0:0:45:crash.wav
448,192,51513,1,0,0:0:0:45:bass.wav
64,192,51513,1,0,0:0:0:0:
64,192,51856,1,0,0:0:0:50:boom.wav
448,192,51856,1,0,0:0:0:0:
192,192,51942,1,0,0:0:0:0:
320,192,52027,1,0,0:0:0:0:
192,192,52113,1,0,0:0:0:0:
448,192,52199,128,0,52542:0:0:0:45:bass.wav
64,192,52199,1,0,0:0:0:45:crash.wav
320,192,52370,1,0,0:0:0:35:hihat.wav
192,192,52542,1,0,0:0:0:40:snare.wav
64,192,52542,1,0,0:0:0:45:bass.wav
320,192,52713,128,0,53056:0:0:0:35:hihat.wav
448,192,52885,1,0,0:0:0:45:bass.wav
64,192,53056,1,0,0:0:0:35:hihat.wav
192,192,53227,128,0,53570:0:0:0:40:snare.wav
448,192,53227,1,0,0:0:0:45:bass.wav
64,192,53399,1,0,0:0:0:35:hihat.wav
448,192,53570,128,0,54256:0:0:0:45:bass.wav
320,192,53742,1,0,0:0:0:35:hihat.wav
192,192,53913,1,0,0:0:0:40:snare.wav
64,192,53913,1,0,0:0:0:45:bass.wav
320,192,54085,1,0,0:0:0:35:hihat.wav
64,192,54256,1,0,0:0:0:45:bass.wav
192,192,54427,1,0,0:0:0:35:hihat.wav
448,192,54599,1,0,0:0:0:40:snare.wav
320,192,54599,1,0,0:0:0:45:bass.wav
192,192,54770,1,0,0:0:0:35:hihat.wav
64,192,54942,128,0,55285:0:0:0:45:bass.wav
448,192,55113,1,0,0:0:0:35:hihat.wav
320,192,55285,1,0,0:0:0:45:bass.wav
192,192,55285,1,0,0:0:0:40:snare.wav
448,192,55456,128,0,55799:0:0:0:35:hihat.wav
64,192,55627,1,0,0:0:0:45:bass.wav
192,192,55799,1,0,0:0:0:35:hihat.wav
448,192,55970,1,0,0:0:0:45:bass.wav
320,192,55970,1,0,0:0:0:40:snare.wav
192,192,56142,1,0,0:0:0:35:hihat.wav
320,192,56142,1,0,0:0:0:45:bass.wav
64,192,56313,1,0,0:0:0:45:bass.wav
192,192,56313,1,0,0:0:0:45:crash.wav
192,192,56656,1,0,0:0:0:45:bass.wav
64,192,56656,1,0,0:0:0:40:snare.wav
320,192,56827,128,0,57170:0:0:0:45:bass.wav
448,192,56827,1,0,0:0:0:45:crash.wav
192,192,57170,1,0,0:0:0:40:snare.wav
64,192,57170,1,0,0:0:0:45:bass.wav
448,192,57342,1,0,0:0:0:40:snare.wav
192,192,57513,1,0,0:0:0:40:snare.wav
64,192,57513,1,0,0:0:0:45:bass.wav
448,192,57685,128,0,58370:0:0:0:45:crash.wav
320,192,57685,1,0,0:0:0:45:bass.wav
64,192,57856,1,0,0:0:0:35:hihat.wav
192,192,58027,1,0,0:0:0:40:snare.wav
320,192,58027,1,0,0:0:0:45:bass.wav
64,192,58199,128,0,58370:0:0:0:35:hihat.wav
320,192,58370,1,0,0:0:0:45:bass.wav
192,192,58542,1,0,0:0:0:35:hihat.wav
448,192,58713,1,0,0:0:0:40:snare.wav
320,192,58713,1,0,0:0:0:45:bass.wav
192,192,58885,1,0,0:0:0:35:hihat.wav
64,192,59056,1,0,0:0:0:45:bass.wav
448,192,59056,128,0,59227:0:0:0:45:crash.wav
320,192,59227,128,0,59399:0:0:0:35:hihat.wav
192,192,59399,128,0,59570:0:0:0:45:bass.wav
64,192,59570,128,0,59913:0:0:0:35:hihat.wav
448,192,59570,1,0,0:0:0:45:crash.wav
448,192,59913,1,0,0:0:0:40:snare.wav
320,192,59913,1,0,0:0:0:0:
192,192,60085,1,0,0:0:0:40:snare.wav
448,192,60256,1,0,0:0:0:0:
320,192,60256,1,0,0:0:0:45:bass.wav
64,192,60427,1,0,0:0:0:45:bass.wav
192,192,60427,128,0,60770:0:0:0:45:crash.wav
64,192,60599,1,0,0:0:0:35:hihat.wav
320,192,60770,1,0,0:0:0:45:bass.wav
448,192,60770,128,0,60942:0:0:0:40:snare.wav
64,192,60942,128,0,61113:0:0:0:35:hihat.wav
320,192,61113,1,0,0:0:0:45:bass.wav
320,192,61285,128,0,61627:0:0:0:35:hihat.wav
448,192,61456,1,0,0:0:0:40:snare.wav
192,192,61456,1,0,0:0:0:45:bass.wav
64,192,61627,128,0,61799:0:0:0:35:hihat.wav
320,192,61799,1,0,0:0:0:45:bass.wav
448,192,61799,128,0,62485:0:0:0:45:crash.wav
192,192,61970,1,0,0:0:0:40:snare.wav
320,192,62142,1,0,0:0:0:40:snare.wav
192,192,62313,1,0,0:0:0:40:snare.wav
320,192,62485,1,0,0:0:0:40:snare.wav
192,192,62656,1,0,0:0:0:40:snare.wav
320,192,62827,1,0,0:0:0:40:snare.wav
192,192,62999,1,0,0:0:0:40:snare.wav
448,192,63170,1,0,0:0:0:45:crash.wav
320,192,63170,128,0,63513:0:0:0:45:bass.wav
64,192,63342,1,0,0:0:0:35:hihat.wav
448,192,63513,1,0,0:0:0:45:bass.wav
192,192,63513,1,0,0:0:0:40:snare.wav
64,192,63685,128,0,64027:0:0:0:35:hihat.wav
320,192,63856,1,0,0:0:0:45:bass.wav
192,192,64027,1,0,0:0:0:35:hihat.wav
448,192,64199,1,0,0:0:0:45:bass.wav
64,192,64199,1,0,0:0:0:40:snare.wav
320,192,64370,1,0,0:0:0:35:hihat.wav
192,192,64542,128,0,64885:0:0:0:45:bass.wav
64,192,64542,1,0,0:0:0:45:crash.wav
448,192,64713,1,0,0:0:0:35:hihat.wav
64,192,64885,1,0,0:0:0:40:snare.wav
320,192,64885,1,0,0:0:0:45:bass.wav
448,192,65056,128,0,65399:0:0:0:35:hihat.wav
64,192,65227,1,0,0:0:0:45:bass.wav
192,192,65399,1,0,0:0:0:35:hihat.wav
320,192,65570,1,0,0:0:0:40:snare.wav
448,192,65570,1,0,0:0:0:45:bass.wav
192,192,65742,1,0,0:0:0:35:hihat.wav
64,192,65913,128,0,66170:0:0:0:50:bell.wav
448,192,65913,1,0,0:0:0:45:bass.wav
192,192,66256,128,0,66513:0:0:0:40:snare.wav
64,192,66256,1,0,0:0:0:45:bass.wav
320,192,66599,128,0,66856:0:0:0:50:bell.wav
192,192,66599,1,0,0:0:0:45:bass.wav
448,192,66942,128,0,67199:0:0:0:50:bell.wav
320,192,66942,1,0,0:0:0:45:bass.wav
192,192,67113,1,0,0:0:0:35:hihat.wav
448,192,67285,1,0,0:0:0:50:bell.wav
64,192,67285,1,0,0:0:0:45:bass.wav
192,192,67456,1,0,0:0:0:35:hihat.wav
320,192,67627,1,0,0:0:0:40:snare.wav
448,192,67799,1,0,0:0:0:50:bell.wav
64,192,67799,128,0,68142:0:0:0:45:bass.wav
320,192,68142,1,0,0:0:0:40:snare.wav
448,192,68142,1,0,0:0:0:45:bass.wav
64,192,68313,1,0,0:0:0:40:snare.wav
192,192,68399,1,0,0:0:0:0:
320,192,68485,1,0,0:0:0:40:snare.wav
448,192,68485,1,0,0:0:0:45:bass.wav
192,192,68570,1,0,0:0:0:0:
64,192,68656,1,0,0:0:0:50:bell.wav
448,192,68656,1,0,0:0:0:45:bass.wav
448,192,68999,1,0,0:0:0:45:bass.wav
64,192,68999,128,0,69170:0:0:0:0:
192,192,69170,128,0,69342:0:0:0:35:hihat.wav
448,192,69342,1,0,0:0:0:50:bell.wav
320,192,69342,128,0,69513:0:0:0:45:bass.wav
448,192,69685,1,0,0:0:0:45:bass.wav
192,192,69685,128,0,69856:0:0:0:0:
320,192,69856,128,0,70027:0:0:0:35:hihat.wav
64,192,70027,1,0,0:0:0:50:bell.wav
448,192,70027,128,0,70627:0:0:0:45:bass.wav
64,192,70370,128,0,70627:0:0:0:45:bass.wav
192,192,70370,1,0,0:0:0:0:
64,192,70713,1,0,0:0:0:50:bell.wav
448,192,70713,1,0,0:0:0:45:bass.wav
320,192,70885,1,0,0:0:0:0:
192,192,71056,1,0,0:0:0:45:bass.wav
64,192,71056,1,0,0:0:0:0:
448,192,71227,1,0,0:0:0:50:bell.wav
320,192,71227,128,0,72256:0:0:0:40:snare.wav
64,192,71399,1,0,0:0:0:40:snare.wav
448,192,71570,1,0,0:0:0:40:snare.wav
64,192,71742,1,0,0:0:0:40:snare.wav
448,192,71913,1,0,0:0:0:40:snare.wav
64,192,72085,1,0,0:0:0:40:snare.wav
448,192,72256,1,0,0:0:0:40:snare.wav
192,192,72427,1,0,0:0:0:40:snare.wav
320,192,72599,1,0,0:0:0:40:snare.wav
64,192,72770,1,0,0:0:0:40:snare.wav
448,192,72770,1,0,0:0:0:45:bass.wav
320,192,72856,1,0,0:0:0:40:snare.wav
64,192,72942,1,0,0:0:0:40:snare.wav
192,192,73027,1,0,0:0:0:40:snare.wav
448,192,73113,1,0,0:0:0:40:snare.wav
320,192,73199,1,0,0:0:0:40:snare.wav
64,192,73285,1,0,0:0:0:40:snare.wav
192,192,73370,1,0,0:0:0:40:snare.wav
320,192,73456,1,0,0:0:0:40:snare.wav
448,192,73542,1,0,0:0:0:40:snare.wav
64,192,73627,1,0,0:0:0:40:snare.wav
192,192,73713,1,0,0:0:0:40:snare.wav
320,192,73799,1,0,0:0:0:50:boom.wav
448,192,73799,1,0,0:0:0:40:snare.wav
320,192,73970,1,0,0:0:0:45:bass.wav
448,192,74142,1,0,0:0:0:45:bass.wav
192,192,74142,1,0,0:0:0:45:crash.wav
64,192,74142,128,0,74313:0:0:0:40:snare.wav
448,192,74313,1,0,0:0:0:35:hihat.wav
64,192,74485,128,0,74656:0:0:0:40:snare.wav
448,192,74656,1,0,0:0:0:35:hihat.wav
64,192,74827,128,0,74999:0:0:0:40:snare.wav
448,192,74999,1,0,0:0:0:35:hihat.wav
64,192,75170,128,0,75342:0:0:0:40:snare.wav
320,192,75342,128,0,75513:0:0:0:35:hihat.wav
64,192,75513,1,0,0:0:0:45:bass.wav
320,192,75685,128,0,75856:0:0:0:35:hihat.wav
64,192,75856,1,0,0:0:0:40:snare.wav
320,192,76027,128,0,76199:0:0:0:35:hihat.wav
192,192,76199,128,0,76370:0:0:0:40:snare.wav
448,192,76370,1,0,0:0:0:35:hihat.wav
192,192,76542,128,0,76713:0:0:0:40:snare.wav
448,192,76713,1,0,0:0:0:35:hihat.wav
64,192,76885,1,0,0:0:0:40:snare.wav
320,192,76885,1,0,0:0:0:45:bass.wav
448,192,76885,128,0,77056:0:0:0:45:crash.wav
64,192,77056,1,0,0:0:0:35:hihat.wav
448,192,77227,128,0,77399:0:0:0:45:bass.wav
64,192,77399,1,0,0:0:0:35:hihat.wav
448,192,77570,128,0,77742:0:0:0:45:bass.wav
64,192,77742,1,0,0:0:0:35:hihat.wav
448,192,77913,128,0,78085:0:0:0:45:bass.wav
192,192,78085,128,0,78256:0:0:0:35:hihat.wav
448,192,78256,1,0,0:0:0:45:bass.wav
192,192,78427,128,0,78599:0:0:0:35:hihat.wav
448,192,78599,1,0,0:0:0:40:snare.wav
192,192,78770,128,0,78942:0:0:0:35:hihat.wav
320,192,78942,128,0,79113:0:0:0:40:snare.wav
64,192,79113,1,0,0:0:0:35:hihat.wav
320,192,79285,128,0,79456:0:0:0:40:snare.wav
64,192,79456,1,0,0:0:0:35:hihat.wav
64,192,79627,128,0,79799:0:0:0:45:crash.wav
192,192,79627,1,0,0:0:0:40:snare.wav
448,192,79627,1,0,0:0:0:45:bass.wav
448,192,79799,1,0,0:0:0:35:hihat.wav
64,192,79970,128,0,80142:0:0:0:45:bass.wav
448,192,80142,1,0,0:0:0:35:hihat.wav
64,192,80313,128,0,80485:0:0:0:45:bass.wav
448,192,80485,1,0,0:0:0:35:hihat.wav
64,192,80656,128,0,80827:0:0:0:45:bass.wav
320,192,80827,128,0,80999:0:0:0:35:hihat.wav
64,192,80999,1,0,0:0:0:45:bass.wav
320,192,81170,128,0,81342:0:0:0:35:hihat.wav
64,192,81342,1,0,0:0:0:40:snare.wav
320,192,81513,128,0,81685:0:0:0:35:hihat.wav
192,192,81685,128,0,81856:0:0:0:40:snare.wav
448,192,81856,1,0,0:0:0:35:hihat.wav
192,192,82027,128,0,82199:0:0:0:40:snare.wav
448,192,82199,1,0,0:0:0:35:hihat.wav
64,192,82370,1,0,0:0:0:45:crash.wav
320,192,82370,1,0,0:0:0:40:snare.wav
448,192,82370,128,0,82542:0:0:0:45:bass.wav
64,192,82542,1,0,0:0:0:35:hihat.wav
448,192,82713,128,0,82885:0:0:0:45:bass.wav
64,192,82885,1,0,0:0:0:35:hihat.wav
448,192,83056,128,0,83227:0:0:0:45:bass.wav
64,192,83227,1,0,0:0:0:35:hihat.wav
448,192,83399,128,0,83570:0:0:0:45:bass.wav
192,192,83570,1,0,0:0:0:45:bass.wav
64,192,83570,1,0,0:0:0:45:crash.wav
320,192,83913,1,0,0:0:0:45:crash.wav
192,192,83913,1,0,0:0:0:45:bass.wav
320,192,84256,1,0,0:0:0:45:bass.wav
448,192,84256,1,0,0:0:0:45:crash.wav
192,192,84427,128,0,84770:0:0:0:40:snare.wav
64,192,84427,128,0,84770:0:0:0:45:bass.wav
448,192,84770,1,0,0:0:0:40:snare.wav
64,192,85113,1,0,0:0:0:45:bass.wav
448,192,85542,1,0,0:0:0:0:
320,192,85885,1,0,0:0:0:0:
192,192,86227,1,0,0:0:0:0:
64,192,86570,128,0,88885:0:0:0:0:
448,192,86913,128,0,88885:0:0:0:0:
