osu file format v14

[General]
AudioFilename: audio.mp3
AudioLeadIn: 0
PreviewTime: 52520
Countdown: 0
SampleSet: Soft
StackLeniency: 0.7
Mode: 3
LetterboxInBreaks: 0
SpecialStyle: 0
WidescreenStoryboard: 1

[Editor]
DistanceSpacing: 0.8
BeatDivisor: 4
GridSize: 4
TimelineZoom: 1.8

[Metadata]
Title:Theme of Rabi-Ribi
TitleUnicode:Theme of Rabi-Ribi
Artist:3R2
ArtistUnicode:3R2
Creator:ExPew
Version:7K Hard
Source:Rabi-Ribi
Tags:Steam Opening Rizqy kano-bi CreSpirit Animen Sekai Project Plurk GemaYue Erina Ribbon UPRPRC Kadid Saiste Yan-K Waero ăƒ©ăƒ“-ăƒȘビ
BeatmapID:898255
BeatmapSetID:413748

[Difficulty]
HPDrainRate:7
CircleSize:7
OverallDifficulty:8
ApproachRate:5
SliderMultiplier:1.4
SliderTickRate:1

[Events]
//Background and Video events
0,0,"Rabi-Ribi_01.jpg",0,0
Video,760,"Rabi-Ribi.avi"
//Break Periods
//Storyboard Layer 0 (Background)
//Storyboard Layer 1 (Fail)
//Storyboard Layer 2 (Pass)
//Storyboard Layer 3 (Foreground)
//Storyboard Sound Samples

[TimingPoints]
835,342.857142857143,4,2,0,40,1,0
52949,-100,4,2,0,40,0,1
62549,-100,4,2,0,40,0,0
63920,-100,4,2,0,40,0,1
73520,-100,4,2,0,40,0,0

[HitObjects]
256,192,834,5,0,0:0:0:0:
329,192,1006,1,0,0:0:0:0:
402,192,1177,1,0,0:0:0:0:
475,192,1349,1,2,0:0:0:0:
182,192,2206,1,0,0:0:0:0:
256,192,2377,1,0,0:0:0:0:
329,192,2549,1,0,0:0:0:0:
402,192,2720,1,2,0:0:0:0:
109,192,3577,1,0,0:0:0:0:
182,192,3749,1,0,0:0:0:0:
256,192,3920,1,0,0:0:0:0:
329,192,4092,1,2,0:0:0:0:
109,192,4606,1,0,0:0:0:0:
36,192,4949,1,0,0:0:0:0:
109,192,5120,1,0,0:0:0:0:
182,192,5292,1,0,0:0:0:0:
256,192,5463,1,0,0:0:0:0:
329,192,5635,1,0,0:0:0:0:
402,192,5806,1,0,0:0:0:0:
109,192,5977,1,0,0:0:0:0:
475,192,5977,1,0,0:0:0:50:Clap.wav
182,192,6063,1,0,0:0:0:0:
256,192,6149,1,0,0:0:0:0:
329,192,6235,1,0,0:0:0:0:
36,192,6320,1,0,0:0:0:50:Kick.wav
182,192,6320,1,0,0:0:0:50:Crash.wav
475,192,6320,1,0,0:0:0:0:
182,192,6663,1,0,0:0:0:0:
329,192,6835,1,0,0:0:0:0:
182,192,7006,1,0,0:0:0:50:Crash.wav
36,192,7006,1,0,0:0:0:50:Kick.wav
475,192,7006,1,0,0:0:0:0:
109,192,7349,1,0,0:0:0:0:
256,192,7520,1,0,0:0:0:0:
182,192,7692,1,0,0:0:0:50:Crash.wav
36,192,7692,1,0,0:0:0:50:Kick.wav
402,192,7692,1,0,0:0:0:0:
475,192,8035,1,0,0:0:0:0:
182,192,8377,1,0,0:0:0:50:Crash.wav
36,192,8377,1,0,0:0:0:50:Kick.wav
402,192,8377,1,0,0:0:0:0:
329,192,8549,1,0,0:0:0:0:
256,192,8720,1,0,0:0:0:0:
182,192,8892,1,0,0:0:0:50:Crash.wav
36,192,8892,1,0,0:0:0:50:Kick.wav
402,192,8892,1,0,0:0:0:0:
329,192,9063,1,0,0:0:0:50:Snare.wav
109,192,9235,1,0,0:0:0:50:Snare.wav
329,192,9406,1,0,0:0:0:50:Snare.wav
109,192,9577,1,0,0:0:0:50:Snare.wav
329,192,9749,1,0,0:0:0:50:Snare.wav
109,192,9920,1,0,0:0:0:50:Snare.wav
329,192,10092,1,0,0:0:0:50:Snare.wav
475,192,10263,1,0,0:0:0:50:Crash.wav
109,192,10263,1,0,0:0:0:50:Snare.wav
329,192,10435,1,0,0:0:0:50:Snare.wav
475,192,10520,1,0,0:0:0:50:Snare.wav
36,192,10606,1,0,0:0:0:50:Snare.wav
182,192,10692,1,0,0:0:0:50:Snare.wav
475,192,10777,1,0,0:0:0:50:Snare.wav
329,192,10863,1,0,0:0:0:50:Snare.wav
182,192,10949,1,0,0:0:0:50:Snare.wav
36,192,11035,1,0,0:0:0:50:Snare.wav
329,192,11120,1,0,0:0:0:50:Snare.wav
475,192,11206,1,0,0:0:0:50:Snare.wav
36,192,11292,1,0,0:0:0:50:Snare.wav
182,192,11377,1,0,0:0:0:50:Snare.wav
475,192,11463,1,0,0:0:0:50:Snare.wav
329,192,11549,1,0,0:0:0:50:Snare.wav
182,192,11635,1,0,0:0:0:50:Snare.wav
256,192,11720,1,0,0:0:0:50:Snare.wav
329,192,11806,1,0,0:0:0:50:Snare.wav
36,192,11806,1,0,0:0:0:50:Crash.wav
475,192,11806,1,0,0:0:0:0:
182,192,11977,1,0,0:0:0:35:Hats.wav
329,192,12149,1,0,0:0:0:50:Snare.wav
475,192,12149,1,0,0:0:0:0:
182,192,12320,1,0,0:0:0:35:Hats.wav
329,192,12492,1,0,0:0:0:50:Snare.wav
475,192,12492,1,0,0:0:0:0:
182,192,12663,1,0,0:0:0:35:Hats.wav
329,192,12835,1,0,0:0:0:50:Snare.wav
475,192,12835,1,0,0:0:0:0:
182,192,13006,1,0,0:0:0:35:Hats.wav
36,192,13006,1,0,0:0:0:0:
329,192,13177,1,0,0:0:0:50:Snare.wav
182,192,13349,1,0,0:0:0:35:Hats.wav
36,192,13349,1,0,0:0:0:0:
329,192,13520,1,0,0:0:0:50:Snare.wav
182,192,13692,1,0,0:0:0:35:Hats.wav
36,192,13692,1,0,0:0:0:0:
402,192,13863,1,0,0:0:0:50:Snare.wav
256,192,13863,1,0,0:0:0:0:
109,192,14035,1,0,0:0:0:35:Hats.wav
402,192,14206,1,0,0:0:0:50:Snare.wav
256,192,14206,1,0,0:0:0:0:
109,192,14377,1,0,0:0:0:35:Hats.wav
329,192,14549,1,0,0:0:0:50:Snare.wav
36,192,14549,1,0,0:0:0:50:Crash.wav
475,192,14549,1,0,0:0:0:0:
182,192,14720,1,0,0:0:0:35:Hats.wav
329,192,14892,1,0,0:0:0:50:Snare.wav
475,192,14892,1,0,0:0:0:0:
182,192,15063,1,0,0:0:0:35:Hats.wav
329,192,15235,1,0,0:0:0:50:Snare.wav
475,192,15235,1,0,0:0:0:0:
182,192,15406,1,0,0:0:0:35:Hats.wav
329,192,15577,1,0,0:0:0:50:Snare.wav
475,192,15577,1,0,0:0:0:0:
182,192,15749,1,0,0:0:0:50:Crash.wav
36,192,15749,1,0,0:0:0:0:
182,192,16092,1,0,0:0:0:50:Crash.wav
36,192,16092,1,0,0:0:0:0:
182,192,16435,1,0,0:0:0:50:Crash.wav
36,192,16435,1,0,0:0:0:0:
256,192,16606,1,0,0:0:0:50:Crash.wav
402,192,16606,1,0,0:0:0:0:
475,192,16949,1,0,0:0:0:50:Clap.wav
475,192,17292,1,0,0:0:0:50:Crash.wav
36,192,17292,1,0,0:0:0:50:Kick.wav
182,192,17463,1,0,0:0:0:0:
256,192,17635,1,0,0:0:0:0:
329,192,17806,1,0,0:0:0:0:
109,192,18149,1,0,0:0:0:0:
182,192,18320,1,0,0:0:0:0:
256,192,18492,1,0,0:0:0:0:
329,192,18835,1,0,0:0:0:0:
329,192,19177,1,0,0:0:0:0:
475,192,19349,1,0,0:0:0:0:
329,192,19520,1,0,0:0:0:0:
182,192,19692,1,0,0:0:0:0:
36,192,19863,1,0,0:0:0:0:
329,192,20206,1,0,0:0:0:0:
402,192,20377,1,0,0:0:0:0:
475,192,20549,1,0,0:0:0:0:
36,192,20892,1,0,0:0:0:0:
109,192,21063,1,0,0:0:0:0:
182,192,21235,1,0,0:0:0:0:
329,192,21577,1,0,0:0:0:0:
182,192,21920,1,0,0:0:0:0:
329,192,22092,1,0,0:0:0:0:
182,192,22263,1,0,0:0:0:0:
329,192,22435,1,0,0:0:0:0:
402,192,22606,1,0,0:0:0:0:
256,192,22777,1,0,0:0:0:50:Kick.wav
475,192,22777,1,0,0:0:0:0:
256,192,23120,1,0,0:0:0:50:Kick.wav
475,192,23120,1,0,0:0:0:0:
182,192,23463,1,0,0:0:0:50:Kick.wav
402,192,23463,1,0,0:0:0:0:
109,192,23806,1,0,0:0:0:50:Kick.wav
329,192,23806,1,0,0:0:0:0:
36,192,24149,1,0,0:0:0:50:Kick.wav
256,192,24149,1,0,0:0:0:0:
475,192,24320,1,2,0:0:0:0:
109,192,24492,1,2,0:0:0:0:
256,192,24663,1,2,0:0:0:0:
402,192,24835,1,2,0:0:0:0:
36,192,25177,1,0,0:0:0:0:
182,192,25349,1,0,0:0:0:0:
329,192,25520,1,0,0:0:0:0:
109,192,25863,1,0,0:0:0:0:
256,192,26035,1,0,0:0:0:0:
329,192,26377,1,0,0:0:0:0:
329,192,26720,1,0,0:0:0:0:
182,192,26892,1,0,0:0:0:50:Crash.wav
475,192,26892,1,0,0:0:0:50:Kick.wav
109,192,27235,1,0,0:0:0:50:Crash.wav
402,192,27235,1,0,0:0:0:50:Kick.wav
182,192,27406,1,0,0:0:0:50:Crash.wav
475,192,27406,1,0,0:0:0:50:Kick.wav
36,192,27749,1,0,0:0:0:50:Crash.wav
329,192,27749,1,0,0:0:0:50:Kick.wav
109,192,28092,1,0,0:0:0:50:Crash.wav
402,192,28092,1,0,0:0:0:50:Kick.wav
109,192,28263,1,0,0:0:0:50:Crash.wav
402,192,28263,1,0,0:0:0:50:Kick.wav
329,192,28435,1,0,0:0:0:0:
475,192,28606,1,0,0:0:0:50:Snare.wav
256,192,28606,1,0,0:0:0:0:
402,192,28777,1,0,0:0:0:0:
182,192,29120,1,0,0:0:0:0:
36,192,29292,1,0,0:0:0:50:Snare.wav
256,192,29292,1,0,0:0:0:0:
109,192,29463,1,0,0:0:0:0:
329,192,29806,1,0,0:0:0:0:
109,192,29977,1,0,0:0:0:50:Snare.wav
329,192,30149,1,0,0:0:0:0:
475,192,30320,1,0,0:0:0:0:
402,192,30492,1,0,0:0:0:0:
109,192,30663,1,0,0:0:0:50:Snare.wav
329,192,30663,1,0,0:0:0:0:
256,192,30835,1,0,0:0:0:0:
36,192,31177,1,0,0:0:0:0:
329,192,31349,1,0,0:0:0:50:Snare.wav
109,192,31349,1,0,0:0:0:0:
182,192,31520,1,0,0:0:0:0:
329,192,31863,1,0,0:0:0:0:
182,192,32035,1,0,0:0:0:50:Snare.wav
402,192,32035,1,0,0:0:0:0:
475,192,32206,1,0,0:0:0:0:
329,192,32549,1,0,0:0:0:0:
36,192,32720,1,0,0:0:0:50:Snare.wav
256,192,32892,1,0,0:0:0:0:
402,192,33063,1,0,0:0:0:0:
182,192,33235,1,0,0:0:0:0:
36,192,33406,1,0,0:0:0:50:Snare.wav
329,192,33406,1,0,0:0:0:0:
402,192,33577,1,0,0:0:0:0:
329,192,33749,1,0,0:0:0:50:Kick.wav
109,192,33749,1,0,0:0:0:50:Crash.wav
475,192,33749,1,0,0:0:0:0:
475,192,34092,1,0,0:0:0:0:
329,192,34092,1,0,0:0:0:50:Snare.wav
329,192,34435,1,0,0:0:0:50:Kick.wav
475,192,34435,1,0,0:0:0:0:
402,192,34606,1,0,0:0:0:0:
256,192,34777,1,0,0:0:0:0:
109,192,34777,1,0,0:0:0:50:Snare.wav
182,192,34949,1,0,0:0:0:0:
182,192,35292,1,2,0:0:0:0:
329,192,35463,1,0,0:0:0:50:Snare.wav
36,192,35463,1,2,0:0:0:0:
182,192,35635,1,2,0:0:0:0:
256,192,35806,1,2,0:0:0:0:
402,192,36149,1,0,0:0:0:50:Snare.wav
109,192,36149,1,0,0:0:0:0:
256,192,36320,1,0,0:0:0:0:
36,192,36492,1,0,0:0:0:50:Crash.wav
329,192,36492,1,0,0:0:0:0:
475,192,36835,1,0,0:0:0:50:Snare.wav
182,192,36835,1,0,0:0:0:0:
329,192,37006,1,0,0:0:0:0:
256,192,37177,1,0,0:0:0:0:
402,192,37520,1,0,0:0:0:50:Snare.wav
109,192,37520,1,0,0:0:0:0:
475,192,37863,1,0,0:0:0:50:Crash.wav
182,192,37863,1,0,0:0:0:50:Kick.wav
329,192,38206,1,0,0:0:0:50:Crash.wav
36,192,38206,1,0,0:0:0:50:Kick.wav
475,192,38549,1,0,0:0:0:50:Crash.wav
182,192,38549,1,0,0:0:0:50:Kick.wav
256,192,38892,1,2,0:0:0:0:
109,192,39235,1,0,0:0:0:50:Kick.wav
109,192,39406,1,0,0:0:0:50:Kick.wav
329,192,39577,1,0,0:0:0:50:Snare.wav
182,192,39749,1,0,0:0:0:35:Hats.wav
36,192,39835,1,0,0:0:0:50:Kick.wav
109,192,40092,1,0,0:0:0:50:Kick.wav
329,192,40263,1,0,0:0:0:50:Snare.wav
109,192,40435,1,0,0:0:0:50:Kick.wav
109,192,40606,1,0,0:0:0:50:Kick.wav
109,192,40777,1,0,0:0:0:50:Kick.wav
329,192,40949,1,0,0:0:0:50:Snare.wav
109,192,41120,1,0,0:0:0:50:Kick.wav
402,192,41292,1,0,0:0:0:50:Crash.wav
109,192,41292,1,0,0:0:0:50:Kick.wav
109,192,41977,1,0,0:0:0:50:Kick.wav
402,192,41977,1,0,0:0:0:50:Crash.wav
109,192,42149,1,0,0:0:0:50:Kick.wav
329,192,42320,1,0,0:0:0:50:Snare.wav
182,192,42492,1,0,0:0:0:35:Hats.wav
36,192,42577,1,0,0:0:0:50:Kick.wav
109,192,42835,1,0,0:0:0:50:Kick.wav
329,192,43006,1,0,0:0:0:50:Snare.wav
109,192,43177,1,0,0:0:0:50:Kick.wav
402,192,43349,1,0,0:0:0:50:Crash.wav
109,192,43349,1,0,0:0:0:50:Kick.wav
329,192,43692,1,0,0:0:0:50:Crash.wav
36,192,43692,1,0,0:0:0:50:Kick.wav
109,192,44035,1,0,0:0:0:50:Kick.wav
402,192,44035,1,0,0:0:0:50:Crash.wav
329,192,44377,1,0,0:0:0:50:Crash.wav
36,192,44377,1,0,0:0:0:50:Kick.wav
402,192,44720,1,0,0:0:0:50:Crash.wav
109,192,44720,1,0,0:0:0:50:Kick.wav
109,192,44892,1,0,0:0:0:50:Kick.wav
329,192,45063,1,0,0:0:0:50:Snare.wav
182,192,45235,1,0,0:0:0:35:Hats.wav
36,192,45320,1,0,0:0:0:50:Kick.wav
109,192,45577,1,0,0:0:0:50:Kick.wav
329,192,45749,1,0,0:0:0:50:Snare.wav
109,192,45920,1,0,0:0:0:50:Kick.wav
109,192,46092,1,0,0:0:0:50:Kick.wav
109,192,46263,1,0,0:0:0:50:Kick.wav
329,192,46435,1,0,0:0:0:50:Snare.wav
109,192,46606,1,0,0:0:0:50:Kick.wav
402,192,46777,1,0,0:0:0:50:Crash.wav
109,192,46777,1,0,0:0:0:50:Kick.wav
475,192,47463,1,0,0:0:0:50:Crash.wav
109,192,47463,1,0,0:0:0:50:Kick.wav
329,192,47463,1,0,0:0:0:50:Snare.wav
36,192,47806,1,0,0:0:0:50:Kick.wav
256,192,47806,1,0,0:0:0:50:Snare.wav
109,192,48149,1,0,0:0:0:50:Kick.wav
329,192,48149,1,0,0:0:0:50:Snare.wav
36,192,48492,1,0,0:0:0:50:Kick.wav
256,192,48492,1,0,0:0:0:50:Snare.wav
109,192,48835,1,0,0:0:0:50:Kick.wav
329,192,48835,1,0,0:0:0:50:Snare.wav
402,192,49177,1,0,0:0:0:50:Snare.wav
182,192,49177,1,0,0:0:0:50:Kick.wav
109,192,49520,1,0,0:0:0:50:Kick.wav
329,192,49520,1,0,0:0:0:50:Snare.wav
182,192,49863,1,0,0:0:0:50:Kick.wav
402,192,49863,1,0,0:0:0:50:Snare.wav
475,192,50206,1,0,0:0:0:50:Snare.wav
256,192,50206,1,0,0:0:0:50:Crash.wav
109,192,50377,1,0,0:0:0:50:Snare.wav
402,192,50549,1,0,0:0:0:50:Snare.wav
36,192,50720,1,0,0:0:0:50:Snare.wav
475,192,50892,1,0,0:0:0:50:Snare.wav
329,192,50977,1,0,0:0:0:50:Snare.wav
182,192,51063,1,0,0:0:0:50:Snare.wav
36,192,51149,1,0,0:0:0:50:Snare.wav
475,192,51235,1,0,0:0:0:50:Snare.wav
329,192,51320,1,0,0:0:0:50:Snare.wav
182,192,51406,1,0,0:0:0:50:Snare.wav
36,192,51492,1,0,0:0:0:50:Snare.wav
182,192,51749,1,0,0:0:0:50:Crash.wav
36,192,51749,1,0,0:0:0:50:Kick.wav
329,192,51920,1,0,0:0:0:50:Crash.wav
475,192,51920,1,0,0:0:0:50:Kick.wav
182,192,52092,1,0,0:0:0:50:Crash.wav
36,192,52092,1,0,0:0:0:50:Kick.wav
329,192,52263,1,0,0:0:0:50:Crash.wav
475,192,52263,1,0,0:0:0:50:Kick.wav
182,192,52606,128,0,52949:0:0:0:0:
329,192,52949,1,0,0:0:0:50:Kick.wav
36,192,52949,1,0,0:0:0:50:Crash.wav
475,192,52949,128,0,53292:0:0:0:0:
109,192,53292,1,0,0:0:0:50:Kick.wav
402,192,53292,1,0,0:0:0:50:Snare.wav
182,192,53463,128,0,53806:0:0:0:0:
329,192,53635,1,0,0:0:0:50:Kick.wav
109,192,53977,1,0,0:0:0:50:Kick.wav
402,192,53977,1,0,0:0:0:50:Snare.wav
256,192,53977,128,0,54320:0:0:0:0:
182,192,54320,1,0,0:0:0:50:Kick.wav
475,192,54320,128,0,55006:0:0:0:0:
402,192,54663,1,0,0:0:0:50:Snare.wav
109,192,54663,1,0,0:0:0:50:Kick.wav
182,192,55006,1,0,0:0:0:50:Kick.wav
329,192,55177,1,0,0:0:0:0:
402,192,55349,1,0,0:0:0:50:Snare.wav
109,192,55349,1,0,0:0:0:50:Kick.wav
256,192,55349,1,0,0:0:0:0:
182,192,55520,1,0,0:0:0:0:
329,192,55692,1,0,0:0:0:50:Kick.wav
475,192,55692,128,0,56035:0:0:0:0:
109,192,56035,1,0,0:0:0:50:Kick.wav
256,192,56035,1,0,0:0:0:50:Snare.wav
182,192,56206,128,0,56549:0:0:0:0:
475,192,56377,1,0,0:0:0:50:Kick.wav
329,192,56720,1,0,0:0:0:50:Kick.wav
109,192,56720,1,0,0:0:0:50:Snare.wav
329,192,56892,1,0,0:0:0:50:Kick.wav
36,192,57063,1,0,0:0:0:50:Kick.wav
256,192,57063,1,0,0:0:0:50:Crash.wav
475,192,57063,1,0,0:0:0:0:
329,192,57406,1,0,0:0:0:50:Snare.wav
109,192,57406,1,0,0:0:0:0:
402,192,57577,1,0,0:0:0:50:Crash.wav
182,192,57577,1,0,0:0:0:0:
256,192,57920,1,0,0:0:0:0:
475,192,57920,1,0,0:0:0:50:Kick.wav
402,192,58092,1,0,0:0:0:50:Snare.wav
182,192,58092,1,0,0:0:0:0:
109,192,58263,1,0,0:0:0:0:
329,192,58263,1,0,0:0:0:50:Kick.wav
256,192,58435,1,0,0:0:0:50:Kick.wav
475,192,58435,1,0,0:0:0:50:Crash.wav
36,192,58435,128,0,59120:0:0:0:0:
402,192,58777,1,0,0:0:0:50:Snare.wav
182,192,58777,1,0,0:0:0:50:Kick.wav
256,192,59120,1,0,0:0:0:50:Kick.wav
109,192,59292,1,0,0:0:0:0:
475,192,59463,1,0,0:0:0:50:Snare.wav
182,192,59463,1,0,0:0:0:50:Kick.wav
329,192,59463,1,0,0:0:0:0:
36,192,59635,1,0,0:0:0:0:
109,192,59806,1,0,0:0:0:50:Kick.wav
402,192,59806,1,0,0:0:0:50:Crash.wav
256,192,59806,1,0,0:0:0:0:
329,192,59977,1,0,0:0:0:0:
256,192,60149,1,0,0:0:0:50:Snare.wav
402,192,60149,1,0,0:0:0:0:
475,192,60320,1,0,0:0:0:50:Crash.wav
36,192,60320,1,0,0:0:0:50:Kick.wav
182,192,60320,128,0,60663:0:0:0:0:
475,192,60663,1,0,0:0:0:50:Snare.wav
329,192,60835,1,0,0:0:0:50:Snare.wav
109,192,60835,1,0,0:0:0:0:
402,192,61006,1,0,0:0:0:50:Kick.wav
182,192,61006,1,0,0:0:0:0:
475,192,61177,1,0,0:0:0:50:Crash.wav
36,192,61177,1,0,0:0:0:50:Kick.wav
256,192,61177,1,0,0:0:0:0:
256,192,61520,1,0,0:0:0:50:Snare.wav
109,192,61520,1,0,0:0:0:50:Kick.wav
402,192,61520,1,0,0:0:0:0:
475,192,61692,1,0,0:0:0:0:
36,192,61863,1,0,0:0:0:50:Kick.wav
402,192,62035,128,0,62377:0:0:0:0:
256,192,62206,1,0,0:0:0:50:Snare.wav
109,192,62206,1,0,0:0:0:50:Kick.wav
36,192,62377,1,0,0:0:0:0:
475,192,62549,1,0,0:0:0:50:Snare.wav
329,192,62549,1,0,0:0:0:50:Crash.wav
256,192,62549,128,0,63235:0:0:0:0:
36,192,62720,1,0,0:0:0:50:Snare.wav
475,192,62892,1,0,0:0:0:50:Snare.wav
36,192,63063,1,0,0:0:0:50:Snare.wav
475,192,63235,1,0,0:0:0:50:Snare.wav
36,192,63406,1,0,0:0:0:50:Snare.wav
182,192,63577,1,0,0:0:0:50:Snare.wav
402,192,63663,1,0,0:0:0:50:Snare.wav
109,192,63749,1,0,0:0:0:50:Snare.wav
329,192,63835,1,0,0:0:0:50:Snare.wav
36,192,63920,1,0,0:0:0:50:Kick.wav
182,192,63920,1,0,0:0:0:50:Crash.wav
475,192,63920,128,0,64263:0:0:0:0:
109,192,64263,1,0,0:0:0:50:Kick.wav
402,192,64263,1,0,0:0:0:50:Snare.wav
329,192,64435,128,0,64777:0:0:0:0:
36,192,64606,1,0,0:0:0:50:Kick.wav
109,192,64949,1,0,0:0:0:50:Kick.wav
402,192,64949,1,0,0:0:0:50:Snare.wav
182,192,64949,128,0,65292:0:0:0:0:
36,192,65292,1,0,0:0:0:50:Kick.wav
475,192,65292,128,0,65635:0:0:0:0:
402,192,65635,1,0,0:0:0:50:Snare.wav
109,192,65635,1,0,0:0:0:50:Kick.wav
329,192,65806,128,0,66063:0:0:0:0:
36,192,65977,1,0,0:0:0:50:Kick.wav
182,192,66149,1,0,0:0:0:0:
402,192,66320,1,0,0:0:0:50:Snare.wav
109,192,66320,1,0,0:0:0:50:Kick.wav
256,192,66320,1,0,0:0:0:0:
329,192,66492,1,0,0:0:0:0:
475,192,66663,1,0,0:0:0:50:Crash.wav
36,192,66663,1,0,0:0:0:50:Kick.wav
182,192,66663,128,0,67006:0:0:0:0:
256,192,67006,1,0,0:0:0:50:Kick.wav
402,192,67006,1,0,0:0:0:50:Snare.wav
182,192,67349,1,0,0:0:0:50:Kick.wav
109,192,67349,128,0,67692:0:0:0:0:
329,192,67692,1,0,0:0:0:50:Kick.wav
475,192,67692,1,0,0:0:0:50:Snare.wav
256,192,67863,1,0,0:0:0:50:Kick.wav
36,192,68035,1,0,0:0:0:50:Kick.wav
182,192,68035,1,0,0:0:0:50:Crash.wav
402,192,68035,128,0,68377:0:0:0:0:
109,192,68377,1,0,0:0:0:50:Snare.wav
182,192,68549,1,0,0:0:0:50:Crash.wav
36,192,68549,1,0,0:0:0:50:Kick.wav
329,192,68549,128,0,69063:0:0:0:0:
109,192,68892,1,0,0:0:0:50:Snare.wav
182,192,69063,1,0,0:0:0:50:Snare.wav
109,192,69235,1,0,0:0:0:50:Snare.wav
475,192,69406,1,0,0:0:0:50:Snare.wav
256,192,69406,1,0,0:0:0:50:Crash.wav
329,192,69406,128,0,69749:0:0:0:0:
402,192,69749,1,0,0:0:0:50:Snare.wav
36,192,69749,1,0,0:0:0:0:
182,192,69920,1,0,0:0:0:0:
475,192,70092,1,0,0:0:0:50:Snare.wav
329,192,70092,128,0,70435:0:0:0:0:
402,192,70435,1,0,0:0:0:50:Snare.wav
109,192,70435,1,0,0:0:0:0:
256,192,70606,1,0,0:0:0:0:
36,192,70777,1,0,0:0:0:50:Snare.wav
109,192,70777,1,0,0:0:0:50:Crash.wav
402,192,70777,128,0,71120:0:0:0:0:
256,192,71120,1,0,0:0:0:50:Snare.wav
475,192,71120,128,0,71463:0:0:0:0:
109,192,71463,1,0,0:0:0:50:Snare.wav
182,192,71463,1,0,0:0:0:0:
329,192,71635,1,0,0:0:0:0:
109,192,71806,1,0,0:0:0:50:Snare.wav
402,192,71806,1,0,0:0:0:0:
182,192,71977,1,0,0:0:0:50:Snare.wav
36,192,71977,1,0,0:0:0:50:Crash.wav
475,192,71977,128,0,73006:0:0:0:0:
329,192,72149,1,0,0:0:0:50:Snare.wav
109,192,72320,1,0,0:0:0:50:Snare.wav
329,192,72492,1,0,0:0:0:50:Snare.wav
109,192,72663,1,0,0:0:0:50:Snare.wav
329,192,72835,1,0,0:0:0:50:Snare.wav
182,192,72920,1,0,0:0:0:50:Snare.wav
36,192,73006,1,0,0:0:0:50:Snare.wav
182,192,73092,1,0,0:0:0:50:Snare.wav
329,192,73177,1,0,0:0:0:50:Snare.wav
475,192,73263,1,0,0:0:0:50:Snare.wav
329,192,73349,1,0,0:0:0:50:Snare.wav
182,192,73435,1,0,0:0:0:50:Snare.wav
36,192,73520,1,0,0:0:0:50:Snare.wav
475,192,73606,1,0,0:0:0:50:Snare.wav
329,192,73692,1,0,0:0:0:50:Snare.wav
36,192,73777,1,0,0:0:0:50:Snare.wav
182,192,73863,1,0,0:0:0:50:Snare.wav
402,192,73949,1,0,0:0:0:50:Snare.wav
256,192,74035,1,0,0:0:0:50:Snare.wav
109,192,74120,1,0,0:0:0:50:Snare.wav
329,192,74206,1,0,0:0:0:50:Snare.wav
475,192,74292,1,0,0:0:0:50:Snare.wav
182,192,74377,1,0,0:0:0:50:Snare.wav
36,192,74463,1,0,0:0:0:50:Snare.wav
475,192,74549,1,0,0:0:0:50:Clap.wav
329,192,74892,1,0,0:0:0:50:Snare.wav
36,192,74892,1,0,0:0:0:50:Crash.wav
475,192,74892,1,0,0:0:0:0:
182,192,75063,1,0,0:0:0:35:Hats.wav
329,192,75235,1,0,0:0:0:50:Snare.wav
475,192,75235,1,0,0:0:0:0:
182,192,75406,1,0,0:0:0:35:Hats.wav
329,192,75577,1,0,0:0:0:50:Snare.wav
475,192,75577,1,0,0:0:0:0:
182,192,75749,1,0,0:0:0:35:Hats.wav
329,192,75920,1,0,0:0:0:50:Snare.wav
475,192,75920,1,0,0:0:0:0:
182,192,76092,1,0,0:0:0:35:Hats.wav
36,192,76092,1,0,0:0:0:0:
329,192,76263,1,0,0:0:0:50:Snare.wav
182,192,76435,1,0,0:0:0:35:Hats.wav
36,192,76435,1,0,0:0:0:0:
329,192,76606,1,0,0:0:0:50:Snare.wav
182,192,76777,1,0,0:0:0:35:Hats.wav
36,192,76777,1,0,0:0:0:0:
402,192,76949,1,0,0:0:0:50:Snare.wav
256,192,76949,1,0,0:0:0:0:
109,192,77120,1,0,0:0:0:35:Hats.wav
402,192,77292,1,0,0:0:0:50:Snare.wav
256,192,77292,1,0,0:0:0:0:
109,192,77463,1,0,0:0:0:35:Hats.wav
475,192,77635,1,0,0:0:0:0:
36,192,77635,1,0,0:0:0:50:Crash.wav
329,192,77635,1,0,0:0:0:50:Snare.wav
182,192,77806,1,0,0:0:0:35:Hats.wav
475,192,77977,1,0,0:0:0:0:
329,192,77977,1,0,0:0:0:50:Snare.wav
182,192,78149,1,0,0:0:0:35:Hats.wav
475,192,78320,1,0,0:0:0:0:
329,192,78320,1,0,0:0:0:50:Snare.wav
182,192,78492,1,0,0:0:0:35:Hats.wav
475,192,78663,1,0,0:0:0:0:
329,192,78663,1,0,0:0:0:50:Snare.wav
36,192,78835,1,0,0:0:0:0:
182,192,78835,1,0,0:0:0:35:Hats.wav
329,192,79006,1,0,0:0:0:50:Snare.wav
36,192,79177,1,0,0:0:0:0:
182,192,79177,1,0,0:0:0:35:Hats.wav
329,192,79349,1,0,0:0:0:50:Snare.wav
36,192,79520,1,0,0:0:0:0:
182,192,79520,1,0,0:0:0:35:Hats.wav
256,192,79692,1,0,0:0:0:0:
402,192,79692,1,0,0:0:0:50:Snare.wav
109,192,79863,1,0,0:0:0:35:Hats.wav
256,192,80035,1,0,0:0:0:0:
402,192,80035,1,0,0:0:0:50:Snare.wav
109,192,80206,1,0,0:0:0:35:Hats.wav
329,192,80377,1,0,0:0:0:50:Snare.wav
36,192,80377,1,0,0:0:0:50:Crash.wav
475,192,80377,1,0,0:0:0:0:
182,192,80549,1,0,0:0:0:35:Hats.wav
329,192,80720,1,0,0:0:0:50:Snare.wav
475,192,80720,1,0,0:0:0:0:
182,192,80892,1,0,0:0:0:35:Hats.wav
329,192,81063,1,0,0:0:0:50:Snare.wav
475,192,81063,1,0,0:0:0:0:
182,192,81235,1,0,0:0:0:35:Hats.wav
329,192,81406,1,0,0:0:0:50:Snare.wav
475,192,81406,1,0,0:0:0:0:
182,192,81577,1,0,0:0:0:35:Hats.wav
36,192,81577,1,0,0:0:0:0:
329,192,81749,1,0,0:0:0:50:Snare.wav
182,192,81920,1,0,0:0:0:35:Hats.wav
36,192,81920,1,0,0:0:0:0:
329,192,82092,1,0,0:0:0:50:Snare.wav
182,192,82263,1,0,0:0:0:35:Hats.wav
36,192,82263,1,0,0:0:0:0:
402,192,82435,1,0,0:0:0:50:Snare.wav
256,192,82435,1,0,0:0:0:0:
109,192,82606,1,0,0:0:0:35:Hats.wav
402,192,82777,1,0,0:0:0:50:Snare.wav
256,192,82777,1,0,0:0:0:0:
109,192,82949,1,0,0:0:0:35:Hats.wav
329,192,83120,1,0,0:0:0:50:Snare.wav
36,192,83120,1,0,0:0:0:50:Crash.wav
475,192,83120,1,0,0:0:0:0:
182,192,83292,1,0,0:0:0:35:Hats.wav
329,192,83463,1,0,0:0:0:50:Snare.wav
475,192,83463,1,0,0:0:0:0:
182,192,83635,1,0,0:0:0:35:Hats.wav
329,192,83806,1,0,0:0:0:50:Snare.wav
475,192,83806,1,0,0:0:0:0:
182,192,83977,1,0,0:0:0:35:Hats.wav
329,192,84149,1,0,0:0:0:50:Snare.wav
475,192,84149,1,0,0:0:0:0:
182,192,84320,1,0,0:0:0:50:Crash.wav
36,192,84320,1,0,0:0:0:50:Kick.wav
182,192,84663,1,0,0:0:0:50:Crash.wav
36,192,84663,1,0,0:0:0:50:Kick.wav
182,192,85006,1,0,0:0:0:50:Crash.wav
36,192,85006,1,0,0:0:0:50:Kick.wav
475,192,85177,1,0,0:0:0:50:Crash.wav
329,192,85177,1,0,0:0:0:50:Snare.wav
182,192,85263,1,0,0:0:0:50:Snare.wav
36,192,85349,1,0,0:0:0:50:Snare.wav
256,192,85435,1,0,0:0:0:50:Snare.wav
475,192,85520,1,0,0:0:0:50:Clap.wav
36,192,85863,1,0,0:0:0:0:
182,192,85920,1,0,0:0:0:0:
329,192,85977,1,0,0:0:0:0:
475,192,86035,1,0,0:0:0:0:
