osu file format v14

[General]
AudioFilename: audio.mp3
AudioLeadIn: 0
PreviewTime: 51856
Countdown: 0
SampleSet: Soft
StackLeniency: 0.7
Mode: 2
LetterboxInBreaks: 0
WidescreenStoryboard: 1

[Editor]
Bookmarks: 16542,19799,23399,38485,48770,52199,90599,91627
DistanceSpacing: 1
BeatDivisor: 4
GridSize: 4
TimelineZoom: 2.499999

[Metadata]
Title:Theme of Rabi-Ribi
TitleUnicode:Theme of Rabi-Ribi
Artist:3R2
ArtistUnicode:3R2
Creator:[_-Kukkai-_]
Version:Novice
Source:Rabi-Ribi
Tags:Steam Original Soundtrack Erina Kano-Bi Ribbon Bunny Usagi CreSpirit Animen Sekai Project Plurk GemaYue Kadid Saiste Yan-K Opening UPRPRC Waero ラビ-リビ 酷思特CreSpirit Dapuluous
BeatmapID:1986242
BeatmapSetID:937172

[Difficulty]
HPDrainRate:3
CircleSize:2.5
OverallDifficulty:6
ApproachRate:6
SliderMultiplier:1.4
SliderTickRate:1

[Events]
//Background and Video events
Video,0,"Rabi-Ribi.avi"
0,0,"1.png",0,0
//Break Periods
//Storyboard Layer 0 (Background)
//Storyboard Layer 1 (Fail)
//Storyboard Layer 2 (Pass)
//Storyboard Layer 3 (Foreground)
//Storyboard Sound Samples

[TimingPoints]
80,342.857142857143,4,2,1,30,1,0
5222,-100,4,2,1,60,0,0
52194,-100,4,2,1,60,0,1
61794,-100,4,2,1,60,0,0
63165,-100,4,2,1,60,0,1
72765,-100,4,2,1,60,0,0
85108,-100,4,2,1,30,0,0
87165,-100,4,2,1,5,0,0

[Colours]
Combo1 : 128,128,255
Combo2 : 138,43,226
Combo3 : 247,61,91
Combo4 : 109,91,81

[HitObjects]
388,344,80,5,0,0:2:0:0:
176,344,594,2,0,P|120:248|188:180,1,210,0|0,0:2|0:2,0:0:0:0:
336,340,1451,2,0,P|384:224|328:180,1,210,0|0,0:2|0:2,0:0:0:0:
188,152,2308,6,0,L|116:80,2,70,0|0|0,0:2|0:2|0:2,0:0:0:0:
260,360,2822,2,0,L|436:224,1,210,0|0,0:2|0:2,0:0:0:0:
216,224,3851,1,0,0:2:0:0:
288,224,4022,6,0,P|348:132|280:52,1,210,0|0,0:2|0:2,0:0:0:0:
160,56,4880,1,0,0:2:0:0:
300,352,5222,1,4,0:1:0:0:
124,228,5565,6,0,P|124:300|164:356,1,140,4|0,3:2|0:2,0:0:0:0:
336,224,6251,2,0,P|380:168|336:108,1,140,4|0,3:2|0:2,0:0:0:0:
192,348,6937,6,0,L|352:348,1,140,4|0,3:2|0:2,0:0:0:0:
480,232,7622,2,0,L|316:232,1,140,4|0,3:2|0:0,0:0:0:0:
260,236,8137,1,4,3:2:0:0:
116,360,9165,5,8,0:1:0:0:
272,360,9508,2,0,L|436:360,2,140,8|8|8,0:1|0:1|0:1,0:0:0:0:
184,296,10365,2,0,P|132:224|192:132,1,210,0|0,0:1|0:1,0:0:0:0:
264,176,11051,6,0,L|428:144,1,140,4|8,3:2|3:1,0:0:0:0:
228,80,11737,2,0,L|88:80,1,140,8|8,3:1|3:1,0:0:0:0:
144,244,12251,1,0,0:0:0:0:
216,360,12422,2,0,L|216:204,1,140,8|8,3:1|3:1,0:0:0:0:
352,208,13108,2,0,L|200:208,1,140,8|8,3:1|3:1,0:0:0:0:
360,368,13794,6,0,L|508:312,2,140,4|8|8,3:2|3:1|3:1,0:0:0:0:
220,360,14822,1,8,3:1:0:0:
220,280,14994,2,0,L|380:280,2,140,4|4|4,3:2|3:2|3:2,0:0:0:0:
140,276,15851,2,0,L|140:108,1,140,4|4,3:2|3:1,0:0:0:0:
296,360,16537,6,0,P|332:288|292:248,1,140,4|0,3:2|3:2,0:0:0:0:
176,360,17222,2,0,P|144:280|188:224,1,140,0|0,3:2|3:2,0:0:0:0:
296,220,17908,2,0,L|296:64,1,140,0|0,3:2|3:2,0:0:0:0:
412,224,18594,1,0,3:2:0:0:
447,168,18765,1,0,0:2:0:0:
406,117,18936,1,0,3:2:0:0:
256,360,19280,6,0,L|108:300,1,140,0|0,3:2|3:2,0:0:0:0:
248,260,19965,2,0,L|400:200,1,140,0|0,3:2|3:2,0:0:0:0:
256,144,20651,2,0,L|108:80,2,140,0|0|0,3:2|3:2|3:2,0:0:0:0:
388,352,21680,6,0,L|460:296,2,70,0|0|0,3:2|0:2|3:2,0:0:0:0:
276,352,22365,1,0,3:2:0:0:
160,352,22708,1,0,3:2:0:0:
276,352,23051,1,0,3:2:0:0:
416,360,23394,5,0,3:2:0:0:
344,276,23565,2,0,L|344:196,1,70,0|0,0:1|3:1,0:0:0:0:
408,176,23908,2,0,L|332:112,1,70,0|0,0:1|3:1,0:0:0:0:
176,352,24422,6,0,L|112:304,2,70,0|0|0,3:2|0:2|3:2,0:0:0:0:
288,352,25108,1,0,3:2:0:0:
376,352,25280,1,0,0:2:0:0:
216,296,25622,1,0,0:2:0:0:
80,160,25965,1,8,0:1:0:0:
176,156,26137,5,4,3:2:0:0:
328,152,26480,2,0,L|328:56,1,70,4|4,3:2|3:2,0:0:0:0:
188,52,26994,2,0,L|44:124,1,140,4|4,3:2|3:2,0:0:0:0:
136,172,27508,5,4,3:2:0:0:
272,176,27851,1,8,3:1:0:0:
396,176,28194,2,0,P|424:112|376:48,1,140,0|8,3:2|3:1,0:0:0:0:
212,352,28880,6,0,L|68:264,2,140,0|8|0,3:2|3:1|3:2,0:0:0:0:
360,352,29908,1,8,3:1:0:0:
220,352,30251,5,0,3:2:0:0:
80,356,30594,2,0,P|60:284|96:228,1,140,8|0,3:1|3:2,0:0:0:0:
220,228,31280,1,8,3:1:0:0:
352,236,31622,6,0,L|224:136,1,140,0|8,3:2|3:1,0:0:0:0:
396,368,32308,2,0,P|436:296|388:252,1,140,0|8,3:2|3:1,0:0:0:0:
236,260,32994,5,4,3:2:0:0:
96,260,33337,1,8,3:1:0:0:
236,260,33680,2,0,P|304:184|216:116,1,210,0|0,3:2|0:2,0:0:0:0:
96,108,34537,1,0,0:1:0:0:
166,108,34708,1,8,3:1:0:0:
236,108,34879,1,0,0:1:0:0:
236,172,35051,1,0,3:1:0:0:
68,368,35394,6,0,L|68:260,1,70,8|0,3:1|0:2,0:0:0:0:
140,296,35737,1,4,3:2:0:0:
308,284,36080,1,8,3:1:0:0:
236,284,36251,1,0,0:2:0:0:
164,288,36422,1,0,3:2:0:0:
312,216,36765,1,8,3:1:0:0:
140,104,37108,6,0,L|8:192,2,140,4|4|4,3:2|3:2|3:2,0:0:0:0:
280,116,38137,1,0,0:2:0:0:
144,364,38480,6,0,L|68:304,2,70,4|0|8,3:2|3:2|0:1,0:0:0:0:
248,368,39080,2,0,L|380:368,1,105,0|0,0:2|3:2,0:0:0:0:
408,268,39508,1,8,0:1:0:0:
348,268,39680,1,0,3:2:0:0:
240,272,39851,6,0,P|204:216|248:160,1,140,0|8,3:2|0:1,0:0:0:0:
312,156,40365,2,0,L|408:156,1,70,0|4,3:2|3:2,0:0:0:0:
208,272,40880,1,0,0:2:0:0:
348,276,41222,6,0,L|416:208,2,70,4|0|8,3:2|0:2|3:1,0:0:0:0:
240,280,41822,2,0,L|112:284,1,105,0|0,3:2|3:2,0:0:0:0:
135,283,42251,1,8,0:1:0:0:
276,200,42594,5,4,3:2:0:0:
416,200,42937,1,4,3:2:0:0:
276,200,43280,2,0,L|116:200,1,140,4|4,3:2|3:2,0:0:0:0:
284,356,43965,6,0,L|352:308,2,70,4|0|8,3:2|3:2|0:1,0:0:0:0:
176,364,44565,2,0,P|152:316|180:272,1,105,0|0,3:2|3:2,0:0:0:0:
248,280,44994,1,8,0:1:0:0:
388,280,45337,2,0,P|452:224|420:168,1,140,0|8,3:2|3:1,0:0:0:0:
388,140,45851,1,0,0:0:0:0:
316,140,46022,1,4,3:2:0:0:
172,136,46365,5,0,0:2:0:0:
328,368,46708,2,0,P|372:308|324:268,1,140,4|8,3:2|3:1,0:0:0:0:
196,264,47394,2,0,L|360:216,1,140,8|8,3:1|3:1,0:0:0:0:
172,176,48080,6,0,L|16:132,2,140,8|8|8,3:1|3:1|3:1,0:0:0:0:
312,176,49108,1,8,3:1:0:0:
168,316,49451,6,0,P|132:252|172:200,1,140,4|8,3:2|3:1,0:0:0:0:
304,192,50137,2,0,L|144:164,1,140,8|8,3:1|3:1,0:0:0:0:
166,167,50651,1,8,0:1:0:0:
316,352,50994,5,4,3:2:0:0:
367,307,51165,1,4,3:2:0:0:
360,240,51336,1,4,3:2:0:0:
302,208,51508,1,0,3:2:0:0:
152,208,51851,1,4,0:1:0:0:
328,360,52194,6,0,P|360:296|320:236,1,140,6|8,3:2|3:1,0:0:0:0:
168,232,52880,2,0,L|312:204,1,140,0|8,3:2|3:1,0:0:0:0:
148,368,53565,6,0,P|64:288|164:176,1,280,2|0,3:2|3:2,0:0:0:0:
284,176,54594,1,8,3:1:0:0:
424,188,54937,2,0,P|472:136|416:96,1,140,2|8,3:2|3:1,0:0:0:0:
292,264,55622,2,0,L|156:204,1,140,0|8,3:2|3:1,0:0:0:0:
296,140,56308,5,6,3:2:0:0:
436,136,56651,2,0,L|436:56,1,70,8|6,3:1|3:2,0:0:0:0:
288,368,57165,1,0,3:2:0:0:
231,328,57336,1,8,0:1:0:0:
173,288,57507,1,0,0:0:0:0:
244,264,57680,6,0,P|328:164|228:56,1,280,6|0,3:2|3:2,0:0:0:0:
104,68,58708,1,8,3:1:0:0:
248,344,59051,2,0,L|408:340,1,140,6|8,3:2|3:1,0:0:0:0:
316,268,59565,1,6,3:2:0:0:
168,188,60080,1,8,0:1:0:0:
336,192,60422,6,0,P|368:104|336:76,1,140,6|8,3:2|3:1,0:0:0:0:
273,70,60937,1,0,0:0:0:0:
133,73,61280,2,0,L|217:73,1,70,0|8,0:0|3:1,0:0:0:0:
340,72,61794,2,0,P|380:200|264:264,1,280,6|0,3:2|0:2,0:0:0:0:
126,359,62822,5,8,0:1:0:0:
296,360,63165,2,0,P|340:304|288:256,1,140,6|8,3:2|3:1,0:0:0:0:
160,240,63851,2,0,P|116:188|168:136,1,140,0|8,3:2|3:1,0:0:0:0:
300,368,64537,6,0,L|424:284,1,140,2|8,3:2|3:1,0:0:0:0:
346,216,65051,1,0,0:0:0:0:
206,208,65394,1,0,0:0:0:0:
134,208,65565,1,8,3:1:0:0:
206,208,65737,1,0,0:0:0:0:
285,369,65908,6,0,P|317:289|273:245,1,140,6|8,3:2|3:1,0:0:0:0:
152,244,66594,2,0,P|116:304|156:364,1,140,2|8,3:2|3:1,0:0:0:0:
300,352,67280,6,0,L|100:244,1,210,6|2,3:2|3:2,0:0:0:0:
328,212,68308,1,8,0:1:0:0:
188,356,68651,6,0,L|40:304,1,140,6|8,3:2|3:1,0:0:0:0:
212,280,69337,2,0,L|348:216,1,140,2|8,3:2|3:1,0:0:0:0:
184,364,70022,6,0,P|148:296|192:240,1,140,6|8,3:2|3:1,0:0:0:0:
332,228,70708,2,0,P|376:164|324:108,1,140,2|2,3:2|3:2,0:0:0:0:
268,112,71222,1,4,0:2:0:0:
104,384,72251,6,0,L|104:288,1,70,8|8,0:1|0:1,0:0:0:0:
172,312,72594,1,8,0:1:0:0:
248,372,72765,2,0,P|328:136|216:32,1,420,4|12,0:2|0:1,0:0:0:0:
80,376,74137,6,0,P|48:304|88:244,1,140,4|8,3:2|3:1,0:0:0:0:
216,236,74822,2,0,P|256:168|208:120,1,140,8|8,3:1|3:1,0:0:0:0:
84,316,75508,6,0,L|208:248,1,140,8|8,3:1|3:1,0:0:0:0:
339,293,76194,1,8,3:1:0:0:
272,270,76365,1,0,0:2:0:0:
206,247,76536,1,8,3:1:0:0:
360,196,76880,6,0,P|392:116|348:60,1,140,4|8,3:2|3:1,0:0:0:0:
224,196,77565,2,0,P|188:124|224:76,1,140,8|8,3:1|3:1,0:0:0:0:
360,364,78251,6,0,L|224:292,1,140,8|8,3:1|3:1,0:0:0:0:
108,356,78937,1,8,3:1:0:0:
171,327,79108,1,0,0:2:0:0:
235,298,79279,1,8,3:1:0:0:
380,280,79622,6,0,P|408:196|372:152,1,140,4|8,3:2|3:1,0:0:0:0:
244,168,80308,2,0,P|216:88|256:40,1,140,8|8,3:1|3:1,0:0:0:0:
388,360,80994,6,0,L|244:300,1,140,8|8,3:1|3:1,0:0:0:0:
129,359,81680,1,8,3:1:0:0:
193,332,81851,1,0,0:2:0:0:
258,305,82022,1,8,3:1:0:0:
400,284,82365,6,0,P|440:224|388:160,1,140,4|8,3:2|3:1,0:0:0:0:
268,160,83051,2,0,P|236:84|272:48,1,140,8|8,3:1|3:1,0:0:0:0:
340,44,83565,5,4,3:2:0:0:
480,40,83908,1,4,3:2:0:0:
344,124,84251,1,4,3:2:0:0:
272,360,84422,2,0,L|124:288,1,140,8|12,3:1|0:1,0:0:0:0:
296,240,85108,6,0,L|296:144,1,70,4|0,0:2|0:2,0:0:0:0:
192,172,85537,1,0,0:0:0:0:
60,172,85880,1,0,0:0:0:0:
192,172,86222,1,0,0:0:0:0:
336,164,86565,2,0,L|196:236,1,140,0|0,0:2|0:2,0:0:0:0:
256,192,87165,12,0,90594,0:0:0:0:
