osu file format v14

[General]
AudioFilename: audio.mp3
AudioLeadIn: 0
PreviewTime: 51856
Countdown: 0
SampleSet: Soft
StackLeniency: 0.7
Mode: 2
LetterboxInBreaks: 0
WidescreenStoryboard: 1

[Editor]
Bookmarks: 19799,38485,48770,52199,90599,91627
DistanceSpacing: 0.9
BeatDivisor: 4
GridSize: 4
TimelineZoom: 2.799999

[Metadata]
Title:Theme of Rabi-Ribi
TitleUnicode:Theme of Rabi-Ribi
Artist:3R2
ArtistUnicode:3R2
Creator:[_-Kukkai-_]
Version:Normal
Source:Rabi-Ribi
Tags:Steam Original Soundtrack Erina Kano-Bi Ribbon Bunny Usagi CreSpirit Animen Sekai Project Plurk GemaYue Kadid Saiste Yan-K Opening UPRPRC Waero ラビ-リビ 酷思特CreSpirit Dapuluous
BeatmapID:1986097
BeatmapSetID:937172

[Difficulty]
HPDrainRate:4
CircleSize:3
OverallDifficulty:7
ApproachRate:7
SliderMultiplier:1.4
SliderTickRate:1

[Events]
//Background and Video events
Video,0,"Rabi-Ribi.avi"
0,0,"2.png",0,0
//Break Periods
//Storyboard Layer 0 (Background)
//Storyboard Layer 1 (Fail)
//Storyboard Layer 2 (Pass)
//Storyboard Layer 3 (Foreground)
//Storyboard Sound Samples

[TimingPoints]
80,342.857142857143,4,2,1,30,1,0
5222,-100,4,2,1,60,0,0
52194,-100,4,2,1,60,0,1
61794,-100,4,2,1,60,0,0
63165,-100,4,2,1,60,0,1
72765,-100,4,2,1,60,0,0
85108,-100,4,2,1,30,0,0
87165,-100,4,2,1,5,0,0

[Colours]
Combo1 : 128,128,255
Combo2 : 138,43,226
Combo3 : 255,60,60
Combo4 : 225,105,180

[HitObjects]
124,356,80,5,0,0:2:0:0:
356,248,594,2,0,L|125:245,1,210,0|0,0:2|0:2,0:0:0:0:
300,324,1451,6,0,P|358:234|296:176,1,210,0|0,0:2|0:2,0:0:0:0:
152,356,2308,2,0,L|64:296,2,70,0|0|0,0:2|0:2|0:2,0:0:0:0:
232,356,2822,5,0,0:2:0:0:
84,236,3337,2,0,L|344:236,1,210,0|0,0:2|0:2,0:0:0:0:
364,236,4022,1,0,0:2:0:0:
124,348,4537,2,0,P|92:272|132:235,1,140,0|0,0:2|0:2,0:0:0:0:
396,232,5222,1,4,0:1:0:0:
204,368,5565,6,0,L|32:368,1,140,4|0,3:2|0:2,0:0:0:0:
136,296,6080,1,0,0:2:0:0:
308,372,6251,2,0,L|460:372,1,140,4|0,3:2|0:2,0:0:0:0:
380,300,6766,1,0,0:2:0:0:
204,268,6937,6,0,L|204:96,1,140,4|0,3:2|0:2,0:0:0:0:
272,80,7451,1,0,0:2:0:0:
448,244,7622,2,0,P|480:176|432:116,1,140,4|0,3:2|0:0,0:0:0:0:
268,376,8137,5,4,3:2:0:0:
206,344,8308,1,8,0:1:0:0:
172,284,8479,1,8,0:1:0:0:
175,215,8651,1,8,0:1:0:0:
216,160,8822,1,8,0:1:0:0:
281,135,8994,1,8,0:1:0:0:
352,128,9165,2,0,L|416:176,1,70,8|8,0:1|0:1,0:0:0:0:
232,368,9508,6,0,L|232:204,1,140,8|8,0:1|0:1,0:0:0:0:
360,356,10194,1,8,0:1:0:0:
408,336,10365,2,0,P|460:268|384:188,1,210,0|0,0:1|0:1,0:0:0:0:
192,368,11051,6,0,P|152:300|220:256,1,140,4|8,3:2|3:1,0:0:0:0:
328,240,11737,2,0,P|364:164|328:128,1,140,8|8,3:1|3:1,0:0:0:0:
260,120,12251,1,0,0:2:0:0:
192,232,12422,6,0,L|344:200,1,140,8|8,3:1|3:1,0:0:0:0:
168,116,13108,2,0,L|104:72,2,70,8|0|8,3:1|0:2|3:1,0:0:0:0:
416,360,13794,2,0,L|252:360,1,140,4|8,3:2|3:1,0:0:0:0:
128,360,14480,2,0,P|112:280|132:224,1,140,8|8,3:1|3:1,0:0:0:0:
312,252,14994,5,4,3:2:0:0:
132,248,15337,1,4,3:2:0:0:
276,252,15680,1,4,3:2:0:0:
456,264,15851,2,0,P|472:200|444:124,1,140,4|4,3:2|3:1,0:0:0:0:
184,216,16537,5,4,3:2:0:0:
108,220,16708,2,0,L|32:152,2,70,0|0|0,0:2|3:2|0:2,0:0:0:0:
276,224,17394,2,0,L|348:172,2,70,0|0|0,0:2|3:2|0:2,0:0:0:0:
116,360,18080,6,0,P|88:268|136:244,1,140,0|0,0:2|0:2,0:0:0:0:
180,244,18594,2,0,L|260:244,2,70,0|0|0,3:2|0:2|3:2,0:0:0:0:
104,244,19108,1,0,0:2:0:0:
248,224,19451,6,0,L|332:156,2,70,0|0|0,0:2|3:2|0:2,0:0:0:0:
80,220,20137,2,0,L|20:164,2,70,0|0|0,0:2|3:2|0:2,0:0:0:0:
252,216,20822,1,0,0:2:0:0:
112,272,21165,2,0,L|32:272,2,70,0|0|0,0:2|3:2|0:2,0:0:0:0:
184,264,21680,2,0,L|280:264,1,70,0|0,3:2|0:2,0:0:0:0:
176,196,22022,6,0,P|148:112|200:72,1,140,0|0,3:2|3:2,0:0:0:0:
328,156,22708,2,0,L|152:156,1,140,0|0,3:2|3:2,0:0:0:0:
464,80,23394,5,0,3:2:0:0:
392,80,23565,1,0,0:1:0:0:
322,80,23736,1,0,3:1:0:0:
252,80,23907,1,0,0:1:0:0:
324,80,24080,1,0,3:1:0:0:
152,356,24422,2,0,L|152:272,1,70,0|0,3:2|0:2,0:0:0:0:
224,264,24765,6,0,L|376:268,1,140,0|0,3:2|3:2,0:0:0:0:
296,200,25280,2,0,L|128:200,1,140,0|0,0:2|0:2,0:0:0:0:
156,200,25794,1,8,3:1:0:0:
416,196,26137,5,4,3:2:0:0:
264,360,26480,2,0,L|348:360,1,70,4|4,3:2|3:2,0:0:0:0:
456,288,26994,2,0,P|472:212|440:148,1,140,4|4,3:2|3:2,0:0:0:0:
256,156,27508,5,4,3:2:0:0:
184,160,27680,2,0,L|120:104,2,70,0|8|0,0:2|3:1|0:2,0:0:0:0:
328,360,28365,1,0,0:2:0:0:
241,320,28536,1,8,3:1:0:0:
155,280,28707,1,0,0:2:0:0:
300,248,29051,6,0,P|332:172|296:136,1,140,0|0,0:2|0:2,0:0:0:0:
224,140,29565,2,0,L|136:140,2,70,0|0|8,3:2|0:2|3:1,0:0:0:0:
298,137,30080,1,0,0:2:0:0:
152,360,30422,6,0,L|76:304,2,70,0|8|0,0:2|3:1|0:2,0:0:0:0:
324,368,31108,2,0,L|396:308,2,70,0|8|0,0:2|3:1|0:2,0:0:0:0:
152,348,31794,6,0,P|120:264|176:220,1,140,0|0,0:2|0:2,0:0:0:0:
220,232,32308,1,0,3:2:0:0:
292,224,32480,2,0,L|384:224,2,70,0|8|0,0:2|3:1|0:2,0:0:0:0:
108,236,32994,5,4,3:2:0:0:
252,240,33337,1,8,3:1:0:0:
112,184,33680,2,0,L|40:184,2,70,0|0|8,3:2|0:2|3:1,0:0:0:0:
184,184,34194,1,0,0:2:0:0:
316,192,34537,1,0,0:1:0:0:
380,192,34708,1,8,3:1:0:0:
380,132,34879,1,0,0:1:0:0:
312,132,35051,1,0,3:1:0:0:
120,368,35394,6,0,L|100:292,1,70,8|0,3:1|0:2,0:0:0:0:
280,308,35737,2,0,P|320:236|264:204,1,140,4|8,3:2|3:1,0:0:0:0:
216,208,36251,1,0,0:2:0:0:
148,208,36422,1,0,3:2:0:0:
292,136,36765,1,8,3:1:0:0:
24,172,37108,6,0,L|168:172,2,140,4|4|4,3:2|3:2|3:2,0:0:0:0:
176,360,38137,2,0,L|248:360,1,70,0|0,0:2|0:2,0:0:0:0:
432,292,38480,6,0,L|500:240,2,70,4|0|8,3:2|3:2|0:1,0:0:0:0:
356,296,38994,1,0,3:2:0:0:
216,288,39337,2,0,L|144:288,2,70,0|8|0,3:2|0:1|3:2,0:0:0:0:
332,276,39851,6,0,L|164:276,1,140,0|8,3:2|0:1,0:0:0:0:
192,276,40365,1,0,3:2:0:0:
380,264,40537,1,4,3:2:0:0:
380,264,40880,2,0,L|380:160,1,70,0|0,0:2|0:2,0:0:0:0:
192,356,41222,6,0,P|152:280|212:240,1,140,4|8,3:2|3:1,0:0:0:0:
252,240,41737,1,0,0:2:0:0:
400,264,42080,1,0,3:2:0:0:
310,232,42251,1,8,0:1:0:0:
220,200,42422,1,0,3:2:0:0:
400,264,42594,6,0,P|432:172|384:136,1,140,4|4,3:2|3:2,0:0:0:0:
268,156,43280,1,4,3:2:0:0:
362,142,43451,1,0,0:2:0:0:
456,129,43622,1,4,3:2:0:0:
120,160,43965,6,0,L|40:160,2,70,4|0|8,3:2|3:2|0:1,0:0:0:0:
192,156,44480,1,0,0:2:0:0:
336,296,44822,2,0,L|336:172,1,70,0|8,3:2|0:1,0:0:0:0:
264,224,45165,1,0,3:2:0:0:
192,220,45337,6,0,L|104:220,1,70,0|0,3:2|3:2,0:0:0:0:
192,152,45680,2,0,L|276:152,1,70,8|0,0:1|3:2,0:0:0:0:
72,152,46022,1,4,3:2:0:0:
232,356,46365,2,0,L|312:352,1,70,0|0,0:2|0:2,0:0:0:0:
108,280,46708,6,0,P|72:212|132:168,1,140,4|8,3:2|3:1,0:0:0:0:
268,164,47394,2,0,L|120:104,1,140,8|8,3:1|3:1,0:0:0:0:
284,360,48080,6,0,L|284:168,1,140,8|8,3:1|3:1,0:0:0:0:
128,224,48765,2,0,P|92:148|148:112,1,140,8|8,3:1|3:1,0:0:0:0:
200,112,49280,1,0,0:2:0:0:
400,364,49451,6,0,P|432:288|392:256,1,140,4|8,3:2|3:1,0:0:0:0:
248,240,50137,1,8,3:1:0:0:
189,208,50308,1,8,0:1:0:0:
187,141,50479,1,8,3:1:0:0:
244,107,50651,1,8,0:1:0:0:
388,96,50994,5,4,3:2:0:0:
318,96,51165,1,4,3:2:0:0:
248,96,51336,1,4,3:2:0:0:
178,96,51508,1,0,3:2:0:0:
460,260,51851,2,0,L|460:168,1,70,4|0,0:1|0:2,0:0:0:0:
280,352,52194,6,0,L|136:352,1,140,6|8,3:2|3:1,0:0:0:0:
216,288,52708,2,0,L|404:288,1,140,0|0,0:2|0:2,0:0:0:0:
356,288,53222,1,8,3:1:0:0:
68,244,53565,2,0,L|392:244,1,280,2|0,3:2|3:2,0:0:0:0:
276,164,54422,2,0,L|196:164,2,70,0|8|0,0:0|3:1|0:0,0:0:0:0:
448,172,54937,6,0,P|484:108|436:64,1,140,2|8,3:2|3:1,0:0:0:0:
372,60,55451,2,0,L|216:60,1,140,0|0,0:2|0:2,0:0:0:0:
304,60,55965,2,0,L|388:60,1,70,8|0,3:1|3:2,0:0:0:0:
192,320,56308,6,0,P|172:240|212:172,1,140,6|8,3:2|3:1,0:0:0:0:
352,364,56822,2,0,P|388:288|320:256,1,140,6|0,3:2|3:2,0:0:0:0:
284,264,57337,2,0,L|208:264,1,70,8|0,0:1|3:2,0:0:0:0:
400,376,57680,6,0,P|464:228|344:140,1,280,6|0,3:2|3:2,0:0:0:0:
328,144,58537,1,0,0:0:0:0:
258,144,58708,1,8,3:1:0:0:
188,144,58879,1,0,0:0:0:0:
364,280,59051,6,0,L|440:276,2,70,6|0|8,3:2|0:2|3:1,0:0:0:0:
168,356,59565,2,0,P|132:284|204:220,1,140,6|0,3:2|0:2,0:0:0:0:
232,224,60080,2,0,L|320:224,1,70,8|8,0:1|0:1,0:0:0:0:
100,212,60422,6,0,P|60:148|116:108,1,140,6|8,3:2|3:1,0:0:0:0:
176,104,60937,1,0,0:2:0:0:
324,240,61280,2,0,P|360:168|308:132,1,140,0|0,0:2|0:2,0:0:0:0:
136,376,61794,5,6,3:2:0:0:
75,343,61965,1,0,0:2:0:0:
41,283,62136,1,8,0:1:0:0:
44,214,62308,1,0,0:2:0:0:
84,157,62479,1,0,0:2:0:0:
147,130,62651,1,0,0:2:0:0:
220,120,62822,2,0,L|308:120,1,70,8|8,0:1|0:1,0:0:0:0:
104,352,63165,6,0,P|64:288|108:256,1,140,6|8,3:2|3:1,0:0:0:0:
180,256,63680,2,0,L|348:256,1,140,0|0,0:2|0:2,0:0:0:0:
248,188,64194,2,0,L|168:188,1,70,8|0,3:1|0:2,0:0:0:0:
364,352,64537,6,0,P|404:288|356:248,1,140,2|8,3:2|3:1,0:0:0:0:
296,248,65051,2,0,L|112:248,1,140,0|0,0:2|0:0,0:0:0:0:
228,184,65565,2,0,L|312:184,1,70,8|0,3:1|0:0,0:0:0:0:
112,96,65908,6,0,L|284:96,2,140,6|8|2,3:2|3:1|3:2,0:0:0:0:
268,372,66937,2,0,L|268:256,1,70,8|0,3:1|3:2,0:0:0:0:
92,264,67280,6,0,L|16:264,2,70,6|0|8,3:2|0:2|3:1,0:0:0:0:
284,256,67794,2,0,L|440:256,1,140,2|0,3:2|3:2,0:0:0:0:
424,256,68308,1,8,0:1:0:0:
348,256,68480,1,0,3:2:0:0:
156,356,68651,6,0,L|-8:356,1,140,6|8,3:2|3:1,0:0:0:0:
88,292,69165,1,0,0:0:0:0:
288,348,69337,2,0,L|428:348,1,140,2|8,3:2|3:1,0:0:0:0:
360,272,69851,1,0,0:0:0:0:
160,280,70022,6,0,P|124:196|180:164,1,140,6|8,3:2|3:1,0:0:0:0:
300,160,70708,2,0,L|384:160,2,70,2|0|2,3:2|0:0|3:2,0:0:0:0:
116,348,71222,5,4,0:2:0:0:
59,308,71393,1,8,0:1:0:0:
32,244,71564,1,0,0:0:0:0:
42,176,71736,1,8,0:1:0:0:
87,124,71907,1,0,0:0:0:0:
153,103,72079,1,8,0:1:0:0:
228,104,72251,2,0,L|148:104,1,70,8|8,0:1|0:1,0:0:0:0:
444,344,72765,5,4,0:2:0:0:
368,344,72937,2,0,L|208:344,1,140,0|0,0:1|0:1,0:0:0:0:
156,276,73451,2,0,L|248:276,1,70,0|0,0:1|0:1,0:0:0:0:
304,272,73794,2,0,L|304:192,1,70,12|0,0:1|0:1,0:0:0:0:
120,196,74137,6,8,L|56:56,1,140,4|8,3:2|3:1,0:0:0:0:
208,260,74822,2,0,L|376:260,1,140,8|8,3:1|3:1,0:0:0:0:
204,188,75508,6,0,P|168:116|224:84,1,140,8|8,3:1|3:1,0:0:0:0:
344,232,76194,1,8,3:1:0:0:
399,194,76365,1,0,0:2:0:0:
399,127,76536,1,8,3:1:0:0:
342,92,76708,1,0,0:2:0:0:
160,372,76880,6,0,L|4:372,2,140,4|8|8,3:2|3:1|3:1,0:0:0:0:
300,376,77908,1,8,3:1:0:0:
164,308,78251,6,0,P|132:228|188:188,1,140,8|8,3:1|3:1,0:0:0:0:
312,368,78937,1,8,3:1:0:0:
231,317,79108,1,0,0:2:0:0:
150,267,79279,1,8,3:1:0:0:
80,192,79451,1,0,0:2:0:0:
272,196,79622,6,0,P|308:128|256:80,1,140,4|8,3:2|3:1,0:0:0:0:
124,200,80308,2,0,P|88:128|152:88,1,140,8|8,3:1|3:1,0:0:0:0:
272,360,80994,6,0,L|128:360,1,140,8|8,3:1|3:1,0:0:0:0:
268,284,81680,1,8,3:1:0:0:
328,255,81851,1,0,0:2:0:0:
330,189,82022,1,8,3:1:0:0:
272,157,82194,1,0,0:2:0:0:
84,140,82365,6,0,L|244:140,2,140,4|8|8,3:2|3:1|3:1,0:0:0:0:
232,360,83394,1,8,3:1:0:0:
48,272,83565,5,4,3:2:0:0:
188,272,83908,1,4,3:2:0:0:
328,272,84251,1,4,3:2:0:0:
256,232,84422,1,8,3:1:0:0:
220,202,84507,1,8,0:1:0:0:
208,156,84593,1,8,0:1:0:0:
224,113,84679,1,8,0:1:0:0:
263,86,84764,1,12,0:1:0:0:
412,360,85108,6,0,L|412:260,1,70,4|0,0:2|0:2,0:0:0:0:
304,264,85537,2,0,L|152:264,2,140,0|0|0,0:0|0:0|0:0,0:0:0:0:
444,260,86565,1,0,0:2:0:0:
168,184,86908,1,0,0:2:0:0:
256,192,87165,12,0,90594,0:0:0:0:
