osu file format v14

[General]
AudioFilename: audio.mp3
AudioLeadIn: 0
PreviewTime: 51856
Countdown: 0
SampleSet: Soft
StackLeniency: 0.7
Mode: 2
LetterboxInBreaks: 0
WidescreenStoryboard: 1

[Editor]
Bookmarks: 19799,38485,48770,52199,90599,91627
DistanceSpacing: 0.8
BeatDivisor: 4
GridSize: 4
TimelineZoom: 1.9

[Metadata]
Title:Theme of Rabi-Ribi
TitleUnicode:Theme of Rabi-Ribi
Artist:3R2
ArtistUnicode:3R2
Creator:[_-Kukkai-_]
Version:Hell
Source:Rabi-Ribi
Tags:Steam Original Soundtrack Erina Kano-Bi Ribbon Bunny Usagi CreSpirit Animen Sekai Project Plurk GemaYue Kadid Saiste Yan-K Opening UPRPRC Waero ラビ-リビ 酷思特CreSpirit Dapuluous
BeatmapID:1957867
BeatmapSetID:937172

[Difficulty]
HPDrainRate:6
CircleSize:4
OverallDifficulty:9
ApproachRate:9
SliderMultiplier:2.1
SliderTickRate:2

[Events]
//Background and Video events
Video,0,"Rabi-Ribi.avi"
0,0,"4.png",0,0
//Break Periods
//Storyboard Layer 0 (Background)
//Storyboard Layer 1 (Fail)
//Storyboard Layer 2 (Pass)
//Storyboard Layer 3 (Foreground)
//Storyboard Sound Samples

[TimingPoints]
80,342.857142857143,4,2,1,30,1,0
5222,-100,4,2,1,60,0,0
52194,-100,4,2,1,60,0,1
61794,-100,4,2,1,60,0,0
63165,-100,4,2,1,60,0,1
72765,-100,4,2,1,60,0,0
85108,-100,4,2,1,30,0,0
87165,-100,4,2,1,5,0,0

[Colours]
Combo1 : 128,128,255
Combo2 : 138,43,226
Combo3 : 146,200,142
Combo4 : 130,125,132

[HitObjects]
208,240,80,6,0,L|68:240,2,105,0|0|0,0:2|0:2|0:2,0:0:0:0:
340,240,594,1,0,0:2:0:0:
104,136,1108,1,0,0:2:0:0:
328,132,1451,6,0,L|444:132,1,105,0|0,0:2|0:2,0:0:0:0:
433,132,1794,2,0,L|320:132,1,105,0|0,0:2|0:2,0:0:0:0:
116,344,2308,2,0,L|236:344,2,105,0|0|0,0:2|0:2|0:2,0:0:0:0:
348,256,2822,6,0,L|476:256,2,105,0|0|0,0:2|0:2|0:2,0:0:0:0:
216,260,3337,1,0,0:2:0:0:
456,184,3851,1,0,0:2:0:0:
172,188,4022,6,0,L|60:188,2,105,0|0|0,0:2|0:2|0:2,0:0:0:0:
332,368,4537,2,0,L|332:244,1,105,0|0,0:2|0:2,0:0:0:0:
172,256,4880,2,0,L|116:256,2,52.5,0|0|0,0:2|0:2|0:2,0:0:0:0:
440,248,5222,2,0,L|500:248,1,52.5,4|0,0:1|0:2,0:0:0:0:
496,188,5394,2,0,L|432:188,1,52.5,0|0,0:2|0:2,0:0:0:0:
228,188,5565,6,0,L|0:188,1,210,4|0,3:2|0:2,0:0:0:0:
124,136,6080,1,0,0:2:0:0:
432,184,6251,2,0,P|492:152|416:60,1,210,4|0,3:2|0:2,0:0:0:0:
328,52,6766,1,0,0:2:0:0:
56,184,6937,6,0,L|272:184,1,210,4|0,3:2|0:2,0:0:0:0:
160,112,7452,1,0,0:2:0:0:
448,280,7622,2,0,L|448:152,1,105,4|0,3:2|0:0,0:0:0:0:
316,180,7965,1,0,0:0:0:0:
40,368,8137,6,0,L|160:368,5,105,4|8|8|8|8|0,3:2|0:1|0:1|0:1|0:1|0:0,0:0:0:0:
304,364,9165,2,0,L|196:364,1,105,8|8,0:1|0:1,0:0:0:0:
432,280,9508,2,0,L|492:280,1,52.5,8|8,0:1|0:1,0:0:0:0:
484,220,9680,6,0,L|400:220,1,52.5,8|8,0:1|0:1,0:0:0:0:
192,224,9851,2,0,L|132:224,1,52.5,8|8,0:1|0:1,0:0:0:0:
140,164,10023,2,0,L|224:164,1,52.5,8|8,0:1|0:1,0:0:0:0:
356,156,10194,2,0,L|356:84,1,52.5,8|8,0:1|0:1,0:0:0:0:
292,88,10365,6,0,L|292:16,1,52.5,8|0,0:1|0:1,0:0:0:0:
348,32,10537,2,0,L|436:32,1,52.5,0|0,0:1|0:1,0:0:0:0:
208,300,10708,1,0,0:0:0:0:
183,292,10750,1,0,0:0:0:0:
165,273,10793,1,0,0:0:0:0:
159,248,10836,1,0,0:0:0:0:
166,223,10879,1,0,0:0:0:0:
185,205,10922,1,0,0:0:0:0:
210,199,10965,1,0,0:0:0:0:
376,216,11051,6,0,L|376:80,1,105,4|0,3:2|0:2,0:0:0:0:
216,164,11394,2,0,L|216:36,1,105,8|0,3:1|0:2,0:0:0:0:
376,216,11737,2,0,L|376:92,1,105,8|0,3:1|0:2,0:0:0:0:
136,360,12080,1,8,3:1:0:0:
292,300,12251,6,0,L|292:180,1,105,0|8,0:2|3:1,0:0:0:0:
132,224,12594,2,0,L|132:104,1,105,0|8,0:2|3:1,0:0:0:0:
412,112,12937,1,0,0:2:0:0:
252,112,13108,2,0,L|108:112,1,105,8|0,3:1|0:2,0:0:0:0:
308,224,13451,2,0,L|432:224,1,105,8|0,3:1|0:2,0:0:0:0:
136,208,13794,6,0,L|136:72,1,105,4|0,3:2|0:2,0:0:0:0:
296,156,14137,2,0,L|296:28,1,105,8|0,3:1|0:2,0:0:0:0:
136,208,14480,2,0,L|136:84,1,105,8|0,3:1|0:2,0:0:0:0:
376,352,14823,1,8,3:1:0:0:
132,296,14994,5,4,3:2:0:0:
336,204,15337,1,4,3:2:0:0:
136,292,15680,1,4,3:2:0:0:
404,300,15851,2,0,P|452:264|380:196,1,157.5,4|0,3:2|0:2,0:0:0:0:
208,192,16194,1,4,3:1:0:0:
504,184,16537,5,4,3:2:0:0:
376,104,16708,2,0,L|500:104,1,105,0|0,0:2|3:2,0:0:0:0:
248,360,17051,2,0,L|248:236,1,105,0|0,0:2|3:2,0:0:0:0:
360,204,17394,2,0,L|216:204,1,105,0|0,0:2|3:2,0:0:0:0:
488,360,17737,6,0,L|488:248,1,105,0|0,0:2|3:2,0:0:0:0:
332,260,18080,2,0,L|332:140,1,105,0|0,0:2|3:2,0:0:0:0:
444,140,18422,1,0,0:2:0:0:
312,148,18594,2,0,L|184:148,2,105,0|0|0,3:2|0:2|3:2,0:0:0:0:
80,368,19108,6,0,L|80:248,1,105,0|0,0:2|3:2,0:0:0:0:
196,212,19451,2,0,L|76:212,1,105,0|0,0:2|3:2,0:0:0:0:
268,364,19794,2,0,L|268:240,1,105,0|0,0:2|3:2,0:0:0:0:
152,208,20137,2,0,L|272:208,1,105,0|0,0:2|3:2,0:0:0:0:
24,360,20480,6,0,L|24:244,1,105,0|0,0:2|3:2,0:0:0:0:
184,224,20822,2,0,L|184:104,1,105,0|0,0:2|3:2,0:0:0:0:
76,112,21165,1,0,0:2:0:0:
236,108,21337,2,0,L|128:108,1,105,0|0,3:2|0:2,0:0:0:0:
264,176,21680,2,0,L|384:176,1,105,0|0,3:2|0:2,0:0:0:0:
112,372,22022,6,0,L|112:248,1,105,0|0,3:2|0:2,0:0:0:0:
272,368,22365,2,0,L|272:248,1,105,0|0,3:2|0:2,0:0:0:0:
108,232,22708,2,0,L|136:120,1,105,0|0,3:2|0:2,0:0:0:0:
300,232,23051,2,0,L|316:116,1,105,0|0,3:2|0:2,0:0:0:0:
20,128,23394,5,0,3:2:0:0:
176,128,23565,2,0,L|64:128,2,105,0|0|0,0:1|3:1|0:1,0:0:0:0:
456,356,24080,2,0,L|456:240,1,105,0|0,3:1|0:2,0:0:0:0:
328,188,24422,2,0,L|448:188,1,105,0|0,3:2|0:2,0:0:0:0:
192,368,24765,6,0,L|192:244,1,105,0|0,3:2|0:2,0:0:0:0:
320,260,25108,1,0,3:2:0:0:
164,192,25280,2,0,L|48:192,1,105,0|0,0:2|3:2,0:0:0:0:
216,188,25622,1,0,0:2:0:0:
324,188,25794,2,0,L|380:188,1,52.5,8|8,3:1|0:1,0:0:0:0:
376,188,25965,2,0,L|304:188,1,52.5,8|8,0:1|0:1,0:0:0:0:
96,188,26137,5,4,3:2:0:0:
352,112,26480,1,4,3:2:0:0:
224,112,26651,1,4,3:2:0:0:
452,112,26994,1,4,3:2:0:0:
128,340,27337,1,4,3:2:0:0:
264,280,27508,5,4,3:2:0:0:
128,280,27679,2,0,L|4:280,1,105,0|8,0:2|3:1,0:0:0:0:
264,360,28022,2,0,L|284:240,1,105,0|0,0:2|3:2,0:0:0:0:
152,204,28365,2,0,L|296:204,1,105,0|8,0:2|3:1,0:0:0:0:
24,360,28708,6,0,L|16:248,1,105,0|0,0:2|3:2,0:0:0:0:
180,260,29051,2,0,L|200:140,1,105,0|8,0:2|3:1,0:0:0:0:
68,140,29393,1,0,0:2:0:0:
200,148,29565,2,0,L|328:148,2,105,0|0|8,3:2|0:2|3:1,0:0:0:0:
432,368,30079,6,0,L|448:244,1,105,0|0,0:2|3:2,0:0:0:0:
316,212,30422,2,0,L|436:212,1,105,0|8,0:2|3:1,0:0:0:0:
244,364,30765,2,0,L|228:240,1,105,0|0,0:2|3:2,0:0:0:0:
360,208,31108,2,0,L|240:208,1,105,0|8,0:2|3:1,0:0:0:0:
488,360,31451,6,0,L|488:244,1,105,0|0,0:2|3:2,0:0:0:0:
328,224,31793,2,0,L|304:104,1,105,0|8,0:2|3:1,0:0:0:0:
436,112,32136,1,0,0:2:0:0:
276,108,32308,2,0,L|384:108,1,105,0|0,3:2|0:2,0:0:0:0:
248,176,32651,2,0,L|128:176,1,105,8|0,3:1|0:2,0:0:0:0:
416,372,32994,6,0,L|424:252,1,105,4|0,3:2|0:2,0:0:0:0:
176,372,33337,2,0,L|168:252,1,105,8|0,3:1|0:2,0:0:0:0:
328,236,33680,2,0,L|180:236,2,105,0|0|8,3:2|0:2|3:1,0:0:0:0:
60,232,34194,6,0,L|60:112,1,105,0|0,0:2|3:2,0:0:0:0:
192,120,34537,2,0,L|304:120,2,105,0|8|0,0:1|3:1|0:1,0:0:0:0:
460,360,35051,2,0,L|480:236,1,105,0|0,3:1|0:2,0:0:0:0:
344,200,35394,2,0,L|456:200,1,105,8|0,3:1|0:2,0:0:0:0:
144,360,35737,6,0,L|124:228,1,105,4|0,3:2|0:2,0:0:0:0:
260,236,36080,2,0,L|128:236,1,105,8|0,3:1|0:2,0:0:0:0:
396,236,36422,2,0,L|488:152,1,105,0|0,3:2|0:2,0:0:0:0:
144,236,36765,2,0,L|52:152,1,105,8|0,3:1|0:2,0:0:0:0:
356,132,37108,5,4,3:2:0:0:
80,136,37451,1,4,3:2:0:0:
356,132,37794,1,4,3:2:0:0:
92,352,38137,1,0,0:2:0:0:
67,343,38179,1,0,0:2:0:0:
49,325,38222,1,0,0:2:0:0:
42,300,38265,1,0,0:2:0:0:
48,274,38308,1,0,0:2:0:0:
65,255,38351,1,0,0:2:0:0:
89,246,38394,1,0,0:2:0:0:
268,240,38480,6,0,L|372:240,2,105,4|0|8,3:2|3:2|0:1,0:0:0:0:
160,240,38994,2,0,L|104:240,2,52.5,0|0|0,3:2|0:2|0:2,0:0:0:0:
292,232,39337,2,0,L|292:112,1,105,0|8,3:2|0:1,0:0:0:0:
184,124,39680,1,0,3:2:0:0:
420,112,39851,6,0,P|444:64|412:8,1,105,0|0,3:2|3:2,0:0:0:0:
389,19,40080,1,0,0:0:0:0:
343,19,40137,1,0,0:0:0:0:
296,20,40194,1,8,0:1:0:0:
424,20,40365,1,0,3:2:0:0:
112,28,40537,1,4,3:2:0:0:
344,360,40880,2,0,L|344:244,1,105,0|0,0:2|0:2,0:0:0:0:
112,248,41222,6,0,L|112:132,1,105,4|0,3:2|0:2,0:0:0:0:
232,136,41565,1,8,3:1:0:0:
352,136,41737,2,0,L|416:136,2,52.5,0|0|0,0:2|3:2|0:2,0:0:0:0:
220,364,42080,2,0,L|220:248,1,105,0|8,3:2|0:1,0:0:0:0:
328,240,42422,2,0,L|384:240,1,52.5,0|0,3:2|0:2,0:0:0:0:
124,240,42594,6,0,P|68:208|120:160,1,157.5,4|0,3:2|0:2,0:0:0:0:
328,240,42937,2,0,P|384:208|332:160,1,157.5,4|0,3:2|0:2,0:0:0:0:
152,168,43280,2,0,L|36:168,1,105,4|0,3:2|0:2,0:0:0:0:
332,152,43622,2,0,L|444:152,1,105,4|0,3:2|0:2,0:0:0:0:
185,241,43965,6,0,L|81:241,2,105,4|0|8,3:2|3:2|0:1,0:0:0:0:
293,241,44479,2,0,L|349:241,2,52.5,0|0|0,0:2|3:2|0:2,0:0:0:0:
161,233,44822,2,0,L|161:113,1,105,0|8,3:2|0:1,0:0:0:0:
269,125,45165,1,0,3:2:0:0:
33,113,45336,6,0,P|9:65|41:9,1,105,0|0,3:2|3:2,0:0:0:0:
157,21,45679,1,8,0:1:0:0:
29,21,45850,1,0,0:0:0:0:
341,29,46022,1,4,3:2:0:0:
168,360,46365,2,0,L|168:244,1,105,0|0,0:2|0:2,0:0:0:0:
432,356,46708,6,0,L|432:232,1,105,4|0,3:2|0:2,0:0:0:0:
300,252,47051,1,8,3:1:0:0:
432,248,47222,2,0,L|432:144,1,105,0|8,0:2|3:1,0:0:0:0:
300,136,47565,2,0,L|168:136,1,105,0|8,0:2|3:1,0:0:0:0:
344,72,47908,6,0,L|456:72,1,105,0|8,0:2|3:1,0:0:0:0:
312,16,48251,2,0,L|448:16,1,105,0|8,0:2|3:1,0:0:0:0:
284,16,48594,1,0,0:2:0:0:
128,24,48765,2,0,L|-8:24,1,105,8|0,3:1|0:2,0:0:0:0:
288,360,49108,1,8,3:1:0:0:
160,292,49280,1,0,0:2:0:0:
408,292,49451,6,0,L|416:168,1,105,4|8,3:2|0:1,0:0:0:0:
260,184,49794,1,8,3:1:0:0:
128,180,49965,2,0,L|120:108,1,52.5,8|0,0:1|0:0,0:0:0:0:
324,348,50137,2,0,L|324:288,1,52.5,8|8,3:1|0:1,0:0:0:0:
256,280,50308,2,0,L|256:204,1,52.5,8|8,0:1|0:1,0:0:0:0:
324,196,50480,2,0,L|404:196,1,52.5,8|8,3:1|0:1,0:0:0:0:
184,196,50651,2,0,L|128:196,1,52.5,8|8,0:1|0:1,0:0:0:0:
324,100,50994,5,4,3:2:0:0:
168,100,51165,1,4,3:2:0:0:
324,100,51337,1,4,3:2:0:0:
84,356,51508,2,0,P|36:316|120:260,1,157.5,0|0,3:2|0:2,0:0:0:0:
356,240,51851,2,0,L|424:240,1,52.5,4|0,0:1|0:2,0:0:0:0:
408,240,52022,2,0,L|336:240,1,52.5,0|0,0:2|0:2,0:0:0:0:
164,240,52194,6,0,L|36:240,2,105,6|0|8,3:2|0:2|3:1,0:0:0:0:
352,236,52708,2,0,L|496:236,2,105,0|0|0,0:2|3:2|0:2,0:0:0:0:
59,240,53222,2,0,L|59:116,1,105,8|0,3:1|0:2,0:0:0:0:
324,356,53565,6,0,L|440:356,1,105,2|0,3:2|0:2,0:0:0:0:
268,252,53908,2,0,L|112:252,2,105,8|0|0,3:1|0:2|3:2,0:0:0:0:
84,136,54422,2,0,L|200:136,2,105,0|8|0,0:0|3:1|0:0,0:0:0:0:
316,240,54937,6,0,L|444:240,2,105,2|0|8,3:2|0:2|3:1,0:0:0:0:
136,240,55451,2,0,L|-8:240,2,105,0|0|0,0:2|3:2|0:2,0:0:0:0:
372,252,55965,1,8,3:1:0:0:
212,188,56137,1,0,3:2:0:0:
456,360,56308,6,0,L|456:240,1,105,6|0,3:2|0:2,0:0:0:0:
188,252,56651,1,8,3:1:0:0:
424,248,56822,2,0,P|480:224|408:128,1,210,6|0,3:2|3:2,0:0:0:0:
296,120,57337,2,0,L|400:120,1,105,8|0,0:1|3:2,0:0:0:0:
124,352,57680,6,0,L|16:352,4,105,6|0|8|0|0,3:2|0:2|3:1|0:2|3:2,0:0:0:0:
308,352,58537,2,0,L|308:220,1,105,0|8,0:0|3:1,0:0:0:0:
128,240,58880,1,0,0:0:0:0:
392,168,59051,5,6,3:2:0:0:
287,168,59222,1,0,0:2:0:0:
182,168,59393,1,8,3:1:0:0:
428,368,59565,2,0,P|492:324|404:256,1,210,6|0,3:2|0:2,0:0:0:0:
280,260,60080,2,0,L|384:260,1,105,8|8,0:1|0:1,0:0:0:0:
68,376,60422,6,0,L|68:240,1,105,6|0,3:2|0:2,0:0:0:0:
368,260,60765,1,8,3:1:0:0:
132,264,60937,2,0,L|20:264,1,105,0|0,0:2|3:2,0:0:0:0:
184,200,61280,2,0,L|312:200,1,105,0|8,0:2|3:1,0:0:0:0:
128,128,61622,1,0,0:2:0:0:
456,360,61794,6,0,L|456:232,1,105,6|0,3:2|0:2,0:0:0:0:
324,372,62137,2,0,L|324:256,1,105,8|0,0:1|0:2,0:0:0:0:
192,368,62480,2,0,L|192:256,1,105,0|0,0:2|0:2,0:0:0:0:
352,192,62822,2,0,L|412:192,1,52.5,8|8,0:1|0:1,0:0:0:0:
404,192,62994,2,0,L|328:192,1,52.5,8|8,0:1|0:1,0:0:0:0:
132,196,63165,6,0,L|16:196,2,105,6|0|8,3:2|0:2|3:1,0:0:0:0:
368,184,63680,2,0,L|488:184,2,105,0|0|0,0:2|3:2|0:2,0:0:0:0:
104,364,64194,2,0,L|104:220,1,105,8|0,3:1|0:2,0:0:0:0:
380,196,64537,6,0,L|496:196,2,105,2|0|8,3:2|0:2|3:1,0:0:0:0:
144,200,65051,2,0,L|144:80,1,105,0|0,0:2|3:2,0:0:0:0:
380,88,65394,2,0,L|264:88,2,105,0|8|0,0:0|3:1|0:0,0:0:0:0:
128,360,65908,6,0,L|12:360,1,105,6|0,3:2|0:2,0:0:0:0:
348,356,66251,2,0,L|484:360,1,105,8|0,3:1|0:2,0:0:0:0:
32,308,66594,2,0,L|32:180,1,105,2|0,3:2|0:2,0:0:0:0:
264,192,66937,2,0,L|156:192,1,105,8|0,3:1|3:2,0:0:0:0:
392,104,67280,6,0,L|516:104,2,105,6|0|8,3:2|0:2|3:1,0:0:0:0:
160,352,67794,2,0,P|104:320|168:224,1,210,2|0,3:2|3:2,0:0:0:0:
344,224,68308,2,0,L|416:224,1,52.5,8|0,0:1|0:2,0:0:0:0:
344,224,68480,2,0,L|268:224,1,52.5,0|0,3:2|0:2,0:0:0:0:
48,224,68651,6,0,L|264:224,1,210,6|8,3:2|3:1,0:0:0:0:
148,152,69165,1,0,0:0:0:0:
464,224,69337,2,0,L|248:224,1,210,2|8,3:2|3:1,0:0:0:0:
364,152,69851,1,0,0:0:0:0:
100,356,70022,6,0,L|100:240,1,105,6|0,3:2|0:2,0:0:0:0:
256,240,70365,2,0,L|256:108,1,105,8|0,3:1|0:2,0:0:0:0:
92,116,70708,2,0,L|216:116,2,105,2|0|2,3:2|0:0|3:2,0:0:0:0:
356,364,71222,6,0,L|492:364,4,105,4|8|8|8|8,0:2|0:1|0:1|0:1|0:1,0:0:0:0:
464,284,72080,2,0,L|464:204,1,52.5,8|8,0:1|0:1,0:0:0:0:
276,212,72251,2,0,L|276:140,1,52.5,8|8,0:1|0:1,0:0:0:0:
344,132,72422,2,0,L|344:56,1,52.5,8|8,0:1|0:1,0:0:0:0:
184,72,72594,2,0,L|108:72,1,52.5,8|8,0:1|0:1,0:0:0:0:
284,368,72765,5,4,0:2:0:0:
308,360,72807,1,0,0:1:0:0:
328,342,72850,1,0,0:1:0:0:
338,318,72893,1,0,0:1:0:0:
337,292,72936,1,0,0:1:0:0:
325,269,72979,1,0,0:1:0:0:
305,253,73022,1,0,0:1:0:0:
279,247,73065,1,0,0:1:0:0:
240,248,73108,5,0,0:1:0:0:
266,249,73150,1,0,0:1:0:0:
292,246,73193,1,0,0:1:0:0:
316,237,73236,1,0,0:1:0:0:
338,223,73279,1,0,0:1:0:0:
357,205,73322,1,0,0:1:0:0:
372,183,73365,1,0,0:1:0:0:
382,159,73408,1,0,0:1:0:0:
352,160,73451,5,0,0:1:0:0:
325,161,73493,1,0,0:1:0:0:
299,157,73536,1,0,0:1:0:0:
274,149,73579,1,0,0:1:0:0:
251,137,73622,1,0,0:1:0:0:
231,120,73665,1,0,0:1:0:0:
214,101,73708,1,0,0:1:0:0:
424,364,73794,2,0,P|460:336|472:264,1,105,12|0,0:1|0:1,0:0:0:0:
208,352,74137,6,0,L|92:352,1,105,4|0,3:2|0:2,0:0:0:0:
264,296,74480,2,0,L|380:296,1,105,8|0,3:1|0:2,0:0:0:0:
204,232,74822,2,0,L|92:232,1,105,8|0,3:1|0:2,0:0:0:0:
372,228,75165,1,8,3:1:0:0:
140,232,75337,6,0,L|116:124,1,105,0|8,0:2|3:1,0:0:0:0:
276,232,75680,2,0,L|300:124,1,105,0|8,0:2|3:1,0:0:0:0:
60,116,76022,1,0,0:2:0:0:
224,116,76194,2,0,L|364:116,1,105,8|0,3:1|0:2,0:0:0:0:
160,48,76537,2,0,L|28:48,1,105,8|0,3:1|0:2,0:0:0:0:
304,352,76880,6,0,L|420:352,1,105,4|0,3:2|0:2,0:0:0:0:
248,296,77223,2,0,L|132:296,1,105,8|0,3:1|0:2,0:0:0:0:
308,232,77565,2,0,L|420:232,1,105,8|0,3:1|0:2,0:0:0:0:
140,228,77908,1,8,3:1:0:0:
372,232,78080,6,0,L|396:124,1,105,0|8,0:2|3:1,0:0:0:0:
236,232,78423,2,0,L|212:124,1,105,0|8,0:2|3:1,0:0:0:0:
452,116,78765,1,0,0:2:0:0:
288,116,78937,2,0,L|148:116,1,105,8|0,3:1|0:2,0:0:0:0:
340,48,79280,2,0,L|472:48,1,105,8|0,3:1|0:2,0:0:0:0:
144,368,79622,6,0,L|20:368,1,105,4|0,3:2|0:2,0:0:0:0:
192,288,79965,2,0,L|84:288,1,105,8|0,3:1|0:2,0:0:0:0:
248,216,80308,2,0,L|124:216,1,105,8|0,3:1|0:2,0:0:0:0:
400,208,80651,1,8,3:1:0:0:
136,216,80822,6,0,L|148:108,1,105,0|8,0:2|3:1,0:0:0:0:
308,216,81165,2,0,L|296:108,1,105,0|8,0:2|3:1,0:0:0:0:
56,104,81508,1,0,0:2:0:0:
212,96,81680,2,0,L|324:96,1,105,8|0,3:1|0:2,0:0:0:0:
160,40,82022,2,0,L|40:40,1,105,8|0,3:1|0:2,0:0:0:0:
368,368,82365,6,0,L|492:368,1,105,4|0,3:2|0:2,0:0:0:0:
320,288,82708,2,0,L|428:288,1,105,8|0,3:1|0:2,0:0:0:0:
264,216,83051,2,0,L|388:216,1,105,8|0,3:1|0:2,0:0:0:0:
112,208,83394,1,8,3:1:0:0:
352,128,83565,5,4,3:2:0:0:
108,128,83908,1,4,3:2:0:0:
352,128,84251,1,4,3:2:0:0:
120,72,84422,2,0,L|60:72,1,52.5,8|8,3:1|0:1,0:0:0:0:
120,72,84594,2,0,L|180:72,1,52.5,8|8,0:1|0:1,0:0:0:0:
416,64,84765,1,12,0:1:0:0:
164,368,85108,5,4,0:2:0:0:
135,350,85165,1,0,0:2:0:0:
136,316,85222,1,0,0:2:0:0:
165,300,85279,1,0,0:2:0:0:
316,292,85537,2,0,L|504:176,2,210,0|0|0,0:0|0:0|0:0,0:0:0:0:
104,300,86565,1,0,0:2:0:0:
412,176,86908,1,0,0:2:0:0:
256,192,87165,12,0,90594,0:0:0:0:
