osu file format v14

[General]
AudioFilename: audio.mp3
AudioLeadIn: 0
PreviewTime: 51856
Countdown: 0
SampleSet: Soft
StackLeniency: 0.7
Mode: 2
LetterboxInBreaks: 0
WidescreenStoryboard: 1

[Editor]
Bookmarks: 11056,14999,16199,19799,38485,46370,48770,49799,50142,52199,90599,91627
DistanceSpacing: 1
BeatDivisor: 4
GridSize: 4
TimelineZoom: 2.799999

[Metadata]
Title:Theme of Rabi-Ribi
TitleUnicode:Theme of Rabi-Ribi
Artist:3R2
ArtistUnicode:3R2
Creator:[_-Kukkai-_]
Version:Hard
Source:Rabi-Ribi
Tags:Steam Original Soundtrack Erina Kano-Bi Ribbon Bunny Usagi CreSpirit Animen Sekai Project Plurk GemaYue Kadid Saiste Yan-K Opening UPRPRC Waero ラビ-リビ 酷思特CreSpirit Dapuluous
BeatmapID:1984999
BeatmapSetID:937172

[Difficulty]
HPDrainRate:5
CircleSize:3.5
OverallDifficulty:8
ApproachRate:8
SliderMultiplier:2.1
SliderTickRate:2

[Events]
//Background and Video events
Video,0,"Rabi-Ribi.avi"
0,0,"3.png",0,0
//Break Periods
//Storyboard Layer 0 (Background)
//Storyboard Layer 1 (Fail)
//Storyboard Layer 2 (Pass)
//Storyboard Layer 3 (Foreground)
//Storyboard Sound Samples

[TimingPoints]
80,342.857142857143,4,2,1,30,1,0
5222,-100,4,2,1,60,0,0
52194,-100,4,2,1,60,0,1
61794,-100,4,2,1,60,0,0
63165,-100,4,2,1,60,0,1
72765,-100,4,2,1,60,0,0
85108,-100,4,2,1,30,0,0
87165,-100,4,2,1,5,0,0

[Colours]
Combo1 : 128,128,255
Combo2 : 138,43,226
Combo3 : 227,207,155
Combo4 : 225,105,180

[HitObjects]
352,336,80,6,0,L|436:256,2,105,0|0|0,0:2|0:2|0:2,0:0:0:0:
176,336,594,1,0,0:2:0:0:
396,244,1108,1,0,0:2:0:0:
140,244,1451,5,0,0:2:0:0:
51,199,1622,1,0,0:2:0:0:
53,99,1793,1,0,0:2:0:0:
143,58,1965,1,0,0:2:0:0:
292,56,2308,2,0,L|212:124,2,105,0|0|0,0:2|0:2|0:2,0:0:0:0:
464,360,2822,6,0,L|464:244,1,105,0|0,0:2|0:2,0:0:0:0:
360,256,3165,1,0,0:2:0:0:
192,252,3337,1,0,0:2:0:0:
336,120,3851,1,0,0:2:0:0:
128,120,4022,6,0,L|40:44,2,105,0|0|0,0:2|0:2|0:2,0:0:0:0:
304,360,4537,2,0,L|304:240,1,105,0|0,0:2|0:2,0:0:0:0:
146,248,4880,2,0,L|78:248,2,52.5,0|0|0,0:2|0:2|0:2,0:0:0:0:
382,244,5222,2,0,L|441:217,2,52.5,4|0|0,0:1|0:0|0:0,0:0:0:0:
92,220,5565,6,0,P|40:184|96:72,1,210,4|0,3:2|0:2,0:0:0:0:
184,104,6080,1,0,0:2:0:0:
416,220,6251,2,0,P|472:160|412:52,1,210,4|0,3:2|0:2,0:0:0:0:
324,104,6766,1,0,0:2:0:0:
60,364,6937,6,0,B|60:256|196:216,1,210,4|0,3:2|0:2,0:0:0:0:
64,184,7451,1,0,0:2:0:0:
360,180,7622,2,0,L|448:96,2,105,4|0|0,3:2|0:0|0:0,0:0:0:0:
68,360,8137,6,0,L|64:244,1,105,4|8,3:2|0:1,0:0:0:0:
156,240,8480,2,0,L|152:88,1,105,8|8,0:1|0:1,0:0:0:0:
248,128,8822,2,0,L|248:8,1,105,8|8,0:1|0:1,0:0:0:0:
76,360,9165,2,0,L|68:240,1,105,8|8,0:1|0:1,0:0:0:0:
320,232,9508,5,8,0:1:0:0:
364,204,9593,1,8,0:1:0:0:
408,176,9679,1,8,0:1:0:0:
248,144,9851,2,0,L|200:104,2,52.5,8|8|8,0:1|0:1|0:1,0:0:0:0:
356,136,10194,1,8,0:1:0:0:
248,176,10365,1,8,0:1:0:0:
208,145,10450,1,0,0:1:0:0:
212,95,10536,1,0,0:1:0:0:
316,60,10708,2,0,L|380:12,2,52.5,0|0|0,0:1|0:1|0:1,0:0:0:0:
80,360,11051,6,0,L|16:264,1,105,4|0,3:2|0:2,0:0:0:0:
144,240,11394,2,0,L|236:120,1,105,8|0,3:1|0:2,0:0:0:0:
96,152,11737,2,0,L|24:60,1,105,8|0,3:1|0:2,0:0:0:0:
140,56,12080,1,8,3:1:0:0:
320,348,12251,6,0,L|424:280,1,105,0|8,0:2|3:1,0:0:0:0:
304,236,12594,2,0,L|204:156,1,105,0|8,0:2|3:1,0:0:0:0:
328,132,12937,1,0,0:2:0:0:
156,332,13108,2,0,L|156:224,1,105,8|0,3:1|0:2,0:0:0:0:
332,200,13451,2,0,L|340:92,1,105,8|0,3:1|0:2,0:0:0:0:
100,368,13794,6,0,L|4:288,1,105,4|0,3:2|0:2,0:0:0:0:
128,280,14137,2,0,L|224:212,1,105,8|0,3:1|0:2,0:0:0:0:
112,180,14480,2,0,L|8:108,1,105,8|0,3:1|0:2,0:0:0:0:
132,64,14822,1,8,3:1:0:0:
387,117,14994,5,4,3:2:0:0:
235,117,15337,1,4,3:2:0:0:
387,49,15680,1,4,3:2:0:0:
219,357,15851,2,0,L|192:253,1,105,4|0,3:2|0:0,0:0:0:0:
438,250,16194,1,4,3:1:0:0:
290,144,16537,5,4,3:2:0:0:
386,144,16708,2,0,L|271:95,1,105,0|0,0:2|3:2,0:0:0:0:
176,40,17051,2,0,L|176:160,1,105,0|0,0:2|3:2,0:0:0:0:
277,118,17394,2,0,L|188:176,1,105,0|0,0:2|3:2,0:0:0:0:
300,352,17737,6,0,L|300:232,1,105,0|0,0:2|3:2,0:0:0:0:
196,252,18080,2,0,L|408:184,1,210,0|0,0:2|0:2,0:0:0:0:
292,136,18594,2,0,L|188:48,2,105,0|0|0,3:2|0:2|3:2,0:0:0:0:
452,148,19108,1,0,0:2:0:0:
280,352,19451,6,0,L|396:276,1,105,0|0,0:2|3:2,0:0:0:0:
268,268,19794,2,0,L|268:160,1,105,0|0,0:2|3:2,0:0:0:0:
160,156,20137,2,0,L|256:96,1,105,0|0,0:2|3:2,0:0:0:0:
152,352,20480,6,0,L|152:240,1,105,0|0,0:2|3:2,0:0:0:0:
252,252,20822,2,0,L|44:176,1,210,0|0,0:2|0:2,0:0:0:0:
160,200,21337,2,0,L|160:92,1,105,0|0,3:2|0:2,0:0:0:0:
56,96,21680,2,0,L|168:28,1,105,0|0,3:2|0:2,0:0:0:0:
336,372,22022,6,0,L|396:280,1,105,0|0,3:2|0:2,0:0:0:0:
200,268,22365,2,0,L|148:156,1,105,0|0,3:2|0:2,0:0:0:0:
348,168,22708,2,0,L|348:60,1,105,0|0,3:2|0:2,0:0:0:0:
180,160,23051,2,0,L|180:20,1,105,0|0,3:2|0:2,0:0:0:0:
376,328,23394,5,0,3:2:0:0:
376,220,23565,2,0,L|280:144,2,105,0|0|0,0:1|3:1|0:1,0:0:0:0:
188,152,24080,1,0,3:1:0:0:
352,364,24422,2,0,L|352:256,1,105,0|0,3:2|0:2,0:0:0:0:
180,256,24765,6,0,L|180:148,1,105,0|0,3:2|0:2,0:0:0:0:
276,152,25108,1,0,3:2:0:0:
96,152,25280,2,0,L|96:40,1,105,0|0,0:2|3:2,0:0:0:0:
256,41,25622,1,0,0:2:0:0:
369,36,25794,2,0,L|421:24,2,52.5,8|8|8,3:1|0:1|0:1,0:0:0:0:
123,352,26137,5,4,3:2:0:0:
299,268,26480,1,4,3:2:0:0:
115,192,26651,1,4,3:2:0:0:
301,174,26994,2,0,L|101:86,1,210,4|4,3:2|3:2,0:0:0:0:
352,364,27508,5,4,3:2:0:0:
444,304,27680,2,0,L|444:192,1,105,0|8,0:2|3:1,0:0:0:0:
272,196,28022,2,0,L|272:72,1,105,0|0,0:2|3:2,0:0:0:0:
368,96,28365,2,0,L|272:28,1,105,0|8,0:2|3:1,0:0:0:0:
132,364,28708,6,0,L|132:232,1,105,0|0,0:2|3:2,0:0:0:0:
304,248,29051,2,0,L|304:128,1,105,0|8,0:2|3:1,0:0:0:0:
208,136,29394,1,0,0:2:0:0:
304,143,29565,2,0,L|392:52,2,105,0|0|8,3:2|0:2|3:1,0:0:0:0:
124,352,30080,6,0,L|124:224,1,105,0|0,0:2|3:2,0:0:0:0:
216,232,30422,2,0,L|124:160,1,105,0|8,0:2|3:1,0:0:0:0:
308,228,30765,2,0,L|308:100,1,105,0|0,0:2|3:2,0:0:0:0:
220,108,31108,2,0,L|320:56,1,105,0|8,0:2|3:1,0:0:0:0:
132,240,31451,6,0,L|132:128,1,105,0|0,0:2|3:2,0:0:0:0:
300,248,31794,2,0,L|300:100,1,105,0|8,0:2|3:1,0:0:0:0:
136,120,32137,2,0,L|240:40,2,105,0|0|0,0:2|3:2|0:2,0:0:0:0:
252,128,32651,2,0,L|352:60,1,105,8|0,3:1|0:2,0:0:0:0:
56,356,32994,6,0,L|52:240,1,105,4|0,3:2|0:2,0:0:0:0:
232,248,33337,2,0,L|236:128,1,105,8|0,3:1|0:2,0:0:0:0:
128,124,33680,2,0,L|36:44,2,105,0|0|8,3:2|0:2|3:1,0:0:0:0:
300,120,34194,1,0,0:2:0:0:
180,356,34365,5,0,3:2:0:0:
180,272,34537,2,0,L|300:204,2,105,0|8|0,0:1|3:1|0:1,0:0:0:0:
364,184,35051,1,0,3:1:0:0:
204,88,35394,2,0,L|324:12,1,105,8|0,3:1|0:2,0:0:0:0:
40,364,35737,6,0,L|40:248,1,105,4|0,3:2|0:2,0:0:0:0:
140,244,36080,2,0,L|48:172,1,105,8|0,3:1|0:2,0:0:0:0:
220,240,36422,2,0,L|340:156,1,105,0|0,3:2|0:2,0:0:0:0:
152,144,36765,2,0,L|48:64,1,105,8|0,3:1|0:2,0:0:0:0:
324,129,37108,5,4,3:2:0:0:
168,121,37451,1,4,3:2:0:0:
324,129,37794,1,4,3:2:0:0:
132,364,38137,1,0,0:2:0:0:
107,356,38179,1,0,0:2:0:0:
88,338,38222,1,0,0:2:0:0:
81,313,38265,1,0,0:2:0:0:
86,287,38308,1,0,0:2:0:0:
336,248,38480,6,0,L|428:160,2,105,4|0|8,3:2|3:2|0:1,0:0:0:0:
160,248,38994,2,0,P|116:200|176:84,1,210,0|0,3:2|3:2,0:0:0:0:
264,132,39508,2,0,L|176:68,1,105,8|0,0:1|3:2,0:0:0:0:
348,348,39851,6,0,L|348:220,1,105,0|0,3:2|3:2,0:0:0:0:
316,244,40080,1,0,0:2:0:0:
284,244,40137,1,0,0:2:0:0:
252,244,40194,1,8,0:1:0:0:
144,240,40365,1,0,3:2:0:0:
398,155,40537,1,4,3:2:0:0:
268,147,40880,2,0,L|384:75,1,105,0|0,0:2|0:2,0:0:0:0:
120,360,41222,6,0,P|72:300|128:192,1,210,4|8,3:2|3:1,0:0:0:0:
276,224,41737,2,0,L|276:116,1,105,0|0,0:2|0:2,0:0:0:0:
156,112,42080,2,0,L|52:20,2,105,0|8|0,3:2|0:1|3:2,0:0:0:0:
396,368,42594,6,0,L|408:248,1,105,4|0,3:2|0:0,0:0:0:0:
228,368,42937,2,0,L|208:240,1,105,4|0,3:2|0:0,0:0:0:0:
396,220,43280,2,0,L|468:120,1,105,4|0,3:2|0:2,0:0:0:0:
216,232,43622,2,0,L|124:120,1,105,4|0,3:2|0:2,0:0:0:0:
388,144,43965,6,0,L|472:60,2,105,4|0|8,3:2|3:2|0:1,0:0:0:0:
212,376,44480,2,0,P|144:328|216:260,1,210,0|0,0:2|3:2,0:0:0:0:
332,264,44994,6,0,L|416:176,2,105,8|0|0,0:1|3:2|3:2,0:0:0:0:
198,264,45508,2,0,L|102:168,2,105,0|8|0,3:2|0:1|3:2,0:0:0:0:
433,260,46022,1,4,3:2:0:0:
265,254,46365,6,0,L|171:152,1,105,0|0,0:2|0:2,0:0:0:0:
428,239,46708,2,0,P|496:191|416:119,1,210,4|8,3:2|3:1,0:0:0:0:
316,108,47222,2,0,L|212:24,1,105,0|8,0:2|3:1,0:0:0:0:
336,360,47565,2,0,L|424:280,1,105,0|8,0:2|3:1,0:0:0:0:
244,248,47908,6,0,L|224:144,1,105,0|8,0:2|3:1,0:0:0:0:
416,248,48251,2,0,L|416:128,1,105,0|8,0:2|3:1,0:0:0:0:
324,144,48594,1,0,0:2:0:0:
128,64,48765,2,0,L|128:180,1,105,8|0,3:1|0:2,0:0:0:0:
236,224,49108,2,0,L|328:284,1,105,8|0,3:1|0:2,0:0:0:0:
88,244,49451,6,0,L|88:124,1,105,4|8,3:2|0:1,0:0:0:0:
184,136,49794,1,0,0:0:0:0:
416,128,49965,1,8,0:1:0:0:
308,312,50137,5,8,3:1:0:0:
256,311,50222,1,8,0:1:0:0:
213,281,50308,1,8,0:1:0:0:
195,233,50394,1,8,0:1:0:0:
208,183,50479,1,8,3:1:0:0:
246,149,50565,1,8,0:1:0:0:
298,142,50651,1,8,0:1:0:0:
344,152,50737,1,8,0:1:0:0:
220,272,50994,5,4,3:2:0:0:
328,272,51165,1,4,3:2:0:0:
200,228,51337,1,4,3:2:0:0:
340,224,51508,1,0,3:2:0:0:
84,316,51851,2,0,L|24:292,2,52.5,4|0|0,0:1|0:2|0:2,0:0:0:0:
344,308,52194,6,0,L|444:244,2,105,6|0|8,3:2|0:2|3:1,0:0:0:0:
236,308,52708,2,0,L|136:236,2,105,0|0|0,0:2|3:2|0:2,0:0:0:0:
412,308,53222,2,0,L|420:200,1,105,8|0,3:1|0:2,0:0:0:0:
152,300,53565,6,0,L|40:236,2,105,2|0|8,3:2|0:2|3:1,0:0:0:0:
260,296,54080,2,0,L|264:188,1,105,0|0,0:2|3:2,0:0:0:0:
84,164,54422,2,0,L|32:44,1,105,0|8,0:0|3:1,0:0:0:0:
160,48,54765,1,0,0:0:0:0:
428,288,54937,6,0,L|428:172,1,105,2|0,3:2|0:2,0:0:0:0:
316,184,55280,1,8,3:1:0:0:
204,184,55451,2,0,L|204:68,1,105,0|0,0:2|3:2,0:0:0:0:
292,68,55794,1,0,0:2:0:0:
468,84,55965,2,0,L|456:200,1,105,8|0,3:1|3:2,0:0:0:0:
172,364,56308,6,0,P|96:336|136:224,1,210,6|8,3:2|3:1,0:0:0:0:
364,248,56822,2,0,P|424:184|332:124,1,210,6|0,3:2|3:2,0:0:0:0:
244,112,57337,2,0,L|120:28,1,105,8|0,0:1|3:2,0:0:0:0:
392,364,57680,6,0,L|484:288,2,105,6|0|8,3:2|0:2|3:1,0:0:0:0:
292,364,58194,2,0,L|172:280,1,105,0|0,0:2|3:2,0:0:0:0:
380,268,58537,2,0,L|484:192,2,105,0|8|0,0:0|3:1|0:0,0:0:0:0:
120,256,59051,6,0,L|24:180,2,105,6|0|8,3:2|0:2|3:1,0:0:0:0:
368,256,59565,2,0,P|424:204|360:96,1,210,6|0,3:2|0:2,0:0:0:0:
200,368,60080,2,0,L|148:268,1,105,8|8,0:1|0:1,0:0:0:0:
384,359,60422,5,6,3:2:0:0:
237,281,60765,1,8,3:1:0:0:
338,279,60937,2,0,L|413:194,1,105,0|0,0:2|3:2,0:0:0:0:
281,207,61280,2,0,L|281:95,1,105,0|8,0:2|3:1,0:0:0:0:
378,105,61622,1,0,0:2:0:0:
80,348,61794,6,0,L|80:232,1,105,6|0,3:2|0:2,0:0:0:0:
176,240,62137,2,0,L|176:112,1,105,8|0,0:1|0:2,0:0:0:0:
272,136,62480,2,0,L|272:24,1,105,0|0,0:2|0:2,0:0:0:0:
132,24,62822,2,0,L|76:24,2,52.5,8|8|8,0:1|0:1|0:1,0:0:0:0:
367,232,63165,6,0,L|464:144,2,105,6|0|8,3:2|0:2|3:1,0:0:0:0:
256,228,63680,2,0,L|156:140,2,105,0|0|0,0:2|3:2|0:2,0:0:0:0:
435,232,64194,2,0,L|447:120,1,105,8|0,3:1|0:2,0:0:0:0:
156,244,64537,6,0,L|57:156,2,105,2|0|8,3:2|0:2|3:1,0:0:0:0:
264,244,65051,2,0,L|341:156,1,105,0|0,0:2|3:2,0:0:0:0:
154,148,65394,2,0,L|54:76,2,105,0|8|0,0:0|3:1|0:0,0:0:0:0:
428,364,65908,6,0,L|428:240,1,105,6|0,3:2|0:2,0:0:0:0:
320,244,66251,2,0,L|228:160,1,105,8|0,3:1|0:2,0:0:0:0:
420,232,66594,2,0,L|420:124,1,105,2|0,3:2|0:2,0:0:0:0:
308,112,66937,2,0,L|388:12,1,105,8|0,3:1|3:2,0:0:0:0:
78,360,67280,6,0,L|78:249,1,105,6|0,3:2|0:2,0:0:0:0:
148,248,67622,1,8,3:1:0:0:
312,360,67794,2,0,P|368:320|296:216,1,210,2|0,3:2|3:2,0:0:0:0:
180,224,68308,2,0,L|128:224,2,52.5,8|0|0,0:1|0:2|3:2,0:0:0:0:
415,220,68651,6,0,P|472:160|412:60,1,210,6|8,3:2|3:1,0:0:0:0:
323,104,69166,1,0,0:0:0:0:
91,220,69337,2,0,P|44:176|104:64,1,210,2|8,3:2|3:1,0:0:0:0:
183,104,69852,1,0,0:0:0:0:
451,360,70022,6,0,L|451:240,1,105,6|0,3:2|0:2,0:0:0:0:
291,248,70365,2,0,L|291:124,1,105,8|0,3:1|0:2,0:0:0:0:
447,128,70708,2,0,L|448:16,1,105,2|0,3:2|0:0,0:0:0:0:
332,28,71051,1,2,3:2:0:0:
87,344,71222,6,0,L|104:228,1,105,4|8,0:2|0:1,0:0:0:0:
208,236,71565,2,0,L|232:100,1,105,8|8,0:1|0:1,0:0:0:0:
332,128,71908,2,0,L|344:8,1,105,8|8,0:1|0:1,0:0:0:0:
227,352,72251,1,8,0:1:0:0:
177,340,72336,1,8,0:1:0:0:
154,295,72422,1,8,0:1:0:0:
174,249,72508,1,8,0:1:0:0:
223,235,72593,1,8,0:1:0:0:
395,232,72765,5,4,0:2:0:0:
287,232,72937,2,0,P|220:148|288:88,1,210,0|0,0:1|0:1,0:0:0:0:
388,80,73451,2,0,L|388:196,1,105,0|0,0:1|0:1,0:0:0:0:
147,360,73794,2,0,L|68:280,1,105,12|0,0:1|0:1,0:0:0:0:
323,288,74137,6,0,L|323:176,1,105,4|0,3:2|0:2,0:0:0:0:
207,286,74480,2,0,L|207:170,1,105,8|0,3:1|0:2,0:0:0:0:
323,288,74822,2,0,L|323:156,1,105,8|0,3:1|0:2,0:0:0:0:
163,144,75165,1,8,3:1:0:0:
323,140,75337,6,0,L|416:44,1,105,0|8,0:2|3:1,0:0:0:0:
220,244,75680,2,0,L|128:160,1,105,0|8,0:2|3:1,0:0:0:0:
296,132,76022,1,0,0:2:0:0:
451,216,76194,2,0,L|451:112,1,105,8|0,3:1|0:2,0:0:0:0:
348,116,76537,2,0,L|348:268,1,105,8|0,3:1|0:2,0:0:0:0:
67,368,76880,6,0,L|67:248,1,105,4|0,3:2|0:2,0:0:0:0:
181,364,77222,2,0,L|181:244,1,105,8|0,3:1|0:2,0:0:0:0:
71,364,77565,2,0,L|71:240,1,105,8|0,3:1|0:2,0:0:0:0:
243,256,77908,1,8,3:1:0:0:
407,256,78080,6,0,L|368:152,1,105,0|8,0:2|3:1,0:0:0:0:
192,168,78422,2,0,L|232:52,1,105,0|8,0:2|3:1,0:0:0:0:
388,64,78765,1,0,0:2:0:0:
223,360,78937,2,0,L|128:256,1,105,8|0,3:1|0:2,0:0:0:0:
260,228,79280,2,0,L|344:128,1,105,8|0,3:1|0:2,0:0:0:0:
87,289,79622,6,0,L|87:165,1,105,4|0,3:2|0:2,0:0:0:0:
203,289,79965,2,0,L|203:169,1,105,8|0,3:1|0:2,0:0:0:0:
318,289,80308,2,0,L|318:165,1,105,8|0,3:1|0:2,0:0:0:0:
203,143,80651,1,8,3:1:0:0:
372,132,80822,6,0,L|452:28,1,105,0|8,0:2|3:1,0:0:0:0:
264,132,81165,2,0,L|176:36,1,105,0|8,0:2|3:1,0:0:0:0:
360,44,81508,1,0,0:2:0:0:
199,368,81680,2,0,L|199:248,1,105,8|0,3:1|0:2,0:0:0:0:
94,367,82022,2,0,L|95:259,1,105,8|0,3:1|0:2,0:0:0:0:
390,201,82365,6,0,L|390:85,1,105,4|0,3:2|0:2,0:0:0:0:
274,197,82708,2,0,L|274:73,1,105,8|0,3:1|0:2,0:0:0:0:
158,196,83051,2,0,L|158:72,1,105,8|0,3:1|0:2,0:0:0:0:
283,38,83394,1,8,3:1:0:0:
50,39,83565,5,4,3:2:0:0:
219,140,83908,1,4,3:2:0:0:
51,140,84251,1,4,3:2:0:0:
299,352,84422,2,0,L|355:352,2,52.5,8|8|8,3:1|0:1|0:1,0:0:0:0:
63,348,84765,1,12,0:1:0:0:
243,272,85108,5,4,0:2:0:0:
270,252,85165,1,0,0:2:0:0:
273,218,85222,1,0,0:2:0:0:
248,194,85279,1,0,0:2:0:0:
103,192,85537,2,0,L|311:60,2,210
375,196,86565,1,0,0:2:0:0:
131,200,86908,1,0,0:2:0:0:
256,192,87165,12,0,90594,0:0:0:0:
