osu file format v14

[General]
AudioFilename: audio.mp3
AudioLeadIn: 0
PreviewTime: 51856
Countdown: 0
SampleSet: Soft
StackLeniency: 0.7
Mode: 2
LetterboxInBreaks: 0
WidescreenStoryboard: 1

[Editor]
Bookmarks: 19799,38485,48770,52199,91627
DistanceSpacing: 0.9
BeatDivisor: 4
GridSize: 8
TimelineZoom: 2.1

[Metadata]
Title:Theme of Rabi-Ribi
TitleUnicode:Theme of Rabi-Ribi
Artist:3R2
ArtistUnicode:3R2
Creator:[_-Kukkai-_]
Version:Dapu's Hell
Source:Rabi-Ribi
Tags:Steam Original Soundtrack Erina Kano-Bi Ribbon Bunny Usagi CreSpirit Animen Sekai Project Plurk GemaYue Kadid Saiste Yan-K Opening UPRPRC Waero ラビ-リビ 酷思特CreSpirit Dapuluous
BeatmapID:1988235
BeatmapSetID:937172

[Difficulty]
HPDrainRate:6
CircleSize:4
OverallDifficulty:9
ApproachRate:9
SliderMultiplier:1.9
SliderTickRate:2

[Events]
//Background and Video events
0,0,"4.5.png",0,0
Video,0,"Rabi-Ribi.avi"
//Break Periods
//Storyboard Layer 0 (Background)
//Storyboard Layer 1 (Fail)
//Storyboard Layer 2 (Pass)
//Storyboard Layer 3 (Foreground)
//Storyboard Sound Samples

[TimingPoints]
80,342.857142857143,4,2,1,30,1,0
5222,-100,4,2,1,60,0,0
52194,-100,4,2,1,60,0,1
61794,-100,4,2,1,60,0,0
63165,-100,4,2,1,60,0,1
72765,-100,4,2,1,60,0,0
85108,-100,4,2,1,30,0,0
87165,-100,4,2,1,5,0,0

[Colours]
Combo1 : 128,128,255
Combo2 : 88,31,239
Combo3 : 95,151,228
Combo4 : 52,76,149

[HitObjects]
312,192,80,5,0,0:2:0:0:
232,192,251,1,0,0:2:0:0:
232,192,422,1,0,0:2:0:0:
312,192,593,1,0,0:2:0:0:
112,192,1108,1,0,0:2:0:0:
408,48,1452,5,0,0:2:0:0:
488,48,1623,1,0,0:2:0:0:
488,48,1794,1,0,0:2:0:0:
408,48,1965,1,0,0:2:0:0:
256,128,2308,2,0,L|144:128,2,95,0|0|0,0:2|0:2|0:2,0:0:0:0:
432,216,2822,6,0,L|432:320,1,95,0|0,0:2|0:2,0:0:0:0:
336,344,3165,1,0,0:2:0:0:
160,344,3337,1,0,0:2:0:0:
360,56,3851,1,0,0:2:0:0:
176,40,4022,6,0,P|120:112|176:184,1,190,0|0,0:2|0:2,0:0:0:0:
352,232,4537,2,0,L|257:232,1,95,0|0,0:2|0:2,0:0:0:0:
440,40,4880,1,0,0:2:0:0:
464,80,4965,1,0,0:2:0:0:
488,120,5051,1,0,0:2:0:0:
232,192,5222,1,4,0:1:0:0:
186,182,5307,1,0,0:2:0:0:
142,198,5393,1,0,0:2:0:0:
113,235,5479,1,0,0:2:0:0:
352,320,5565,6,0,P|400:256|320:176,1,190,4|0,3:2|0:2,0:0:0:0:
232,144,6080,1,0,0:2:0:0:
488,40,6251,2,0,L|288:40,1,190,4|0,3:2|0:2,0:0:0:0:
408,120,6765,1,0,0:2:0:0:
144,48,6937,6,0,L|32:48,1,95,4|0,3:2|0:0,0:0:0:0:
232,128,7280,2,0,L|128:128,1,95,0|0,0:2|0:2,0:0:0:0:
424,272,7622,1,4,3:2:0:0:
296,272,7794,1,0,0:0:0:0:
424,272,7965,1,0,0:0:0:0:
176,240,8137,5,4,3:2:0:0:
48,240,8308,1,8,0:1:0:0:
176,144,8480,1,8,0:1:0:0:
48,144,8651,1,8,0:1:0:0:
176,144,8822,1,8,0:1:0:0:
304,144,8994,1,8,0:1:0:0:
176,48,9165,2,0,L|64:48,1,95,8|8,0:1|0:1,0:0:0:0:
368,48,9508,5,8,0:1:0:0:
416,48,9594,1,8,0:1:0:0:
416,104,9680,1,8,0:1:0:0:
368,104,9765,1,8,0:1:0:0:
272,104,9851,1,8,0:1:0:0:
224,104,9937,1,8,0:1:0:0:
128,104,10022,1,8,0:1:0:0:
80,104,10108,1,8,0:1:0:0:
80,160,10194,1,8,0:1:0:0:
128,160,10280,1,8,0:1:0:0:
392,192,10365,5,8,0:1:0:0:
414,197,10407,1,0,0:1:0:0:
431,213,10450,1,0,0:1:0:0:
439,236,10493,1,0,0:1:0:0:
435,259,10536,1,0,0:1:0:0:
421,277,10579,1,0,0:1:0:0:
400,287,10622,1,0,0:1:0:0:
136,304,10708,2,0,L|96:304,6,23.75,0|0|0|0|0|0|0,0:1|0:1|0:1|0:1|0:1|0:1|0:1,0:0:0:0:
352,72,11051,6,0,L|448:72,1,95,4|0,3:2|0:2,0:0:0:0:
264,40,11394,2,0,L|168:40,1,95,8|0,3:1|0:2,0:0:0:0:
352,152,11737,2,0,L|352:256,1,95,8|0,3:1|0:2,0:0:0:0:
168,192,12080,1,8,3:1:0:0:
296,192,12251,1,0,0:2:0:0:
40,320,12422,5,8,3:1:0:0:
168,32,12594,2,0,L|168:128,1,95,0|8,0:2|3:1,0:0:0:0:
56,128,12937,1,0,0:2:0:0:
240,344,13108,2,0,L|352:344,1,95,8|0,3:1|0:2,0:0:0:0:
152,240,13451,2,0,L|32:240,1,95,8|0,3:1|0:2,0:0:0:0:
352,32,13794,6,0,L|352:144,1,95,4|0,3:2|0:2,0:0:0:0:
176,168,14137,2,0,L|176:272,1,95,8|0,3:1|0:2,0:0:0:0:
360,240,14480,2,0,L|256:240,1,95,8|0,3:1|0:2,0:0:0:0:
448,192,14822,5,8,3:1:0:0:
200,192,14994,1,4,3:2:0:0:
448,192,15337,1,4,3:2:0:0:
256,192,15680,1,4,3:2:0:0:
384,32,15851,2,0,L|496:32,1,95,4|0,3:2|0:0,0:0:0:0:
312,80,16194,2,0,L|192:80,1,95,4|0,3:1|0:0,0:0:0:0:
488,152,16537,6,0,L|488:256,1,95,4|0,3:2|0:2,0:0:0:0:
376,296,16880,1,0,3:2:0:0:
192,72,17051,2,0,L|392:72,1,190,0|0,0:2|0:2,0:0:0:0:
272,168,17565,1,0,3:2:0:0:
88,176,17737,6,0,L|88:272,1,95,0|0,0:2|3:2,0:0:0:0:
272,320,18080,2,0,L|472:320,1,190,0|0,0:2|0:2,0:0:0:0:
280,232,18594,1,0,3:2:0:0:
152,232,18765,1,0,0:2:0:0:
280,232,18937,1,0,3:2:0:0:
98,48,19108,6,0,B|224:48|224:48|224:120,1,190
120,128,19622,1,0,3:2:0:0:
288,48,19794,2,0,P|344:104|272:184,1,190,0|0,0:2|0:2,0:0:0:0:
184,208,20308,1,0,3:2:0:0:
368,272,20480,6,0,L|488:272,1,95,0|0,0:2|3:2,0:0:0:0:
280,112,20822,2,0,L|472:112,1,190,0|0,0:2|0:2,0:0:0:0:
360,40,21337,1,0,3:2:0:0:
232,40,21508,1,0,0:2:0:0:
104,40,21680,1,0,3:2:0:0:
232,40,21851,1,0,0:2:0:0:
480,216,22022,6,0,L|480:312,1,95,0|0,3:2|0:2,0:0:0:0:
296,224,22365,2,0,L|296:328,1,95,0|0,3:2|0:2,0:0:0:0:
480,112,22708,2,0,L|376:112,1,95,0|0,3:2|0:2,0:0:0:0:
200,96,23051,2,0,L|104:96,1,95,0|0,3:2|0:2,0:0:0:0:
360,192,23394,5,0,3:2:0:0:
272,192,23565,1,0,0:1:0:0:
272,192,23737,1,0,3:1:0:0:
360,192,23907,1,0,0:1:0:0:
176,104,24080,2,0,P|128:144|176:248,1,190,0|0,3:1|3:2,0:0:0:0:
280,304,24594,1,0,0:2:0:0:
32,40,24765,6,0,L|32:144,1,95,0|0,3:2|0:2,0:0:0:0:
144,40,25108,1,0,3:2:0:0:
328,112,25279,2,0,L|328:208,1,95,0|0,0:2|3:2,0:0:0:0:
216,200,25622,1,0,0:2:0:0:
400,280,25794,1,8,3:1:0:0:
448,280,25880,1,8,0:1:0:0:
448,280,25965,1,8,0:1:0:0:
400,280,26051,1,8,0:1:0:0:
160,320,26137,6,0,P|64:320|40:232,1,190,4|4,3:2|3:2,0:0:0:0:
288,96,26651,1,4,3:2:0:0:
40,96,26994,1,4,3:2:0:0:
288,96,27337,1,4,3:2:0:0:
16,96,27508,6,0,L|16:200,1,95,4|0,3:2|0:2,0:0:0:0:
264,240,27851,1,8,3:1:0:0:
392,240,28022,2,0,L|392:352,1,95,0|0,0:2|3:2,0:0:0:0:
264,144,28365,1,0,0:2:0:0:
496,144,28537,1,8,3:1:0:0:
368,48,28708,6,0,L|368:144,1,95,0|0,0:2|3:2,0:0:0:0:
240,48,29051,1,0,0:2:0:0:
480,344,29222,2,0,L|376:344,1,95,8|0,3:1|0:2,0:0:0:0:
208,288,29565,1,0,3:2:0:0:
336,288,29737,1,0,0:2:0:0:
96,192,29908,1,8,3:1:0:0:
224,56,30080,6,0,B|360:56|360:56|360:128,1,190,0|0,0:2|0:2,0:0:0:0:
112,264,30594,1,8,3:1:0:0:
240,192,30765,2,0,L|352:192,1,95,0|0,0:2|3:2,0:0:0:0:
208,112,31108,1,0,0:2:0:0:
448,112,31280,1,8,3:1:0:0:
320,304,31451,6,0,L|216:304,1,95,0|0,0:2|3:2,0:0:0:0:
96,304,31794,1,0,0:0:0:0:
336,216,31965,1,8,3:1:0:0:
464,216,32137,1,0,0:0:0:0:
336,128,32308,1,0,0:0:0:0:
208,128,32480,1,0,0:0:0:0:
448,352,32651,2,0,L|448:256,1,95,8|0,0:1|0:0,0:0:0:0:
160,176,32994,6,0,L|48:176,1,95,4|0,3:2|0:2,0:0:0:0:
240,40,33337,2,0,L|144:40,1,95,8|0,3:1|0:2,0:0:0:0:
432,224,33680,1,0,3:2:0:0:
304,224,33851,1,0,0:2:0:0:
432,224,34022,1,8,3:1:0:0:
176,336,34194,5,0,0:2:0:0:
48,336,34365,1,0,3:2:0:0:
176,256,34537,1,0,0:1:0:0:
360,256,34708,1,8,3:1:0:0:
496,256,34880,1,0,0:1:0:0:
248,112,35051,2,0,L|128:112,1,95,0|0,3:1|0:2,0:0:0:0:
280,40,35394,1,8,3:1:0:0:
408,40,35565,1,0,0:2:0:0:
120,248,35737,5,4,3:2:0:0:
216,248,35908,1,0,0:2:0:0:
216,248,36080,1,8,3:1:0:0:
120,248,36251,1,0,0:2:0:0:
368,152,36422,2,0,L|480:152,1,95,0|0,3:2|0:2,0:0:0:0:
208,160,36765,2,0,L|104:160,1,95,8|0,3:1|0:2,0:0:0:0:
408,64,37108,5,4,3:2:0:0:
160,64,37451,1,4,3:2:0:0:
408,64,37794,1,4,3:2:0:0:
160,64,38137,5,0,0:2:0:0:
137,69,38179,1,0,0:2:0:0:
119,85,38222,1,0,0:2:0:0:
111,107,38265,1,0,0:2:0:0:
115,130,38308,1,0,0:2:0:0:
129,149,38351,1,0,0:2:0:0:
150,159,38394,1,0,0:2:0:0:
416,192,38480,6,0,L|416:304,1,95,4|0,3:2|3:2,0:0:0:0:
232,192,38822,1,8,0:1:0:0:
416,296,38994,1,0,3:2:0:0:
368,296,39080,2,0,B|288:296|288:296|368:296,1,142.5,0|0,0:2|3:2,0:0:0:0:
456,296,39508,1,8,0:1:0:0:
360,192,39680,1,0,3:2:0:0:
120,56,39851,6,0,L|240:56,1,95,0|0,3:2|3:2,0:0:0:0:
256,56,40080,1,0,0:2:0:0:
224,56,40137,1,0,0:2:0:0:
184,56,40194,1,8,0:1:0:0:
80,56,40365,1,0,3:2:0:0:
400,192,40537,1,4,3:2:0:0:
208,280,40880,2,0,L|88:280,1,95,0|0,0:2|0:2,0:0:0:0:
400,112,41222,6,0,L|304:112,1,95,4|0,3:2|0:2,0:0:0:0:
488,192,41565,1,8,3:1:0:0:
304,288,41737,1,0,0:2:0:0:
352,288,41822,2,0,B|432:288|432:288|352:288,1,142.5,0|0,3:2|3:2,0:0:0:0:
272,288,42251,5,8,0:1:0:0:
368,192,42422,2,0,L|424:192,1,47.5,0|0,3:2|0:2,0:0:0:0:
176,80,42594,1,4,3:2:0:0:
432,64,42937,1,4,3:2:0:0:
128,64,43280,1,4,3:2:0:0:
256,64,43451,1,0,0:2:0:0:
16,192,43622,1,4,3:2:0:0:
144,192,43794,1,0,0:2:0:0:
432,48,43965,6,0,L|337:48,2,95,4|0|8,3:2|3:2|0:1,0:0:0:0:
248,192,44480,1,0,0:2:0:0:
200,192,44565,2,0,B|200:272|200:272|280:272,1,142.5,0|0,3:2|3:2,0:0:0:0:
448,264,44994,2,0,B|488:264|488:264|488:328,1,95,8|0,0:1|3:2,0:0:0:0:
240,264,45337,5,0,3:2:0:0:
360,264,45508,1,0,3:2:0:0:
240,176,45680,1,8,0:1:0:0:
120,176,45851,1,0,3:2:0:0:
432,176,46023,1,4,3:2:0:0:
240,104,46365,2,0,L|120:104,1,95,0|0,0:2|0:2,0:0:0:0:
432,81,46708,6,0,L|432:177,1,95,4|0,3:2|0:2,0:0:0:0:
296,192,47051,1,8,3:1:0:0:
432,176,47222,1,0,0:2:0:0:
248,304,47394,2,0,L|136:304,1,95,8|0,3:1|0:2,0:0:0:0:
336,256,47737,2,0,L|464:256,1,95,8|0,3:1|0:2,0:0:0:0:
192,88,48080,6,0,L|192:208,1,95,8|0,3:1|0:2,0:0:0:0:
376,56,48422,2,0,L|376:160,1,95,8|0,3:1|0:2,0:0:0:0:
192,72,48765,2,0,L|192:208,1,95,8|0,3:1|0:2,0:0:0:0:
376,208,49108,2,0,L|504:208,1,95,8|0,3:1|0:2,0:0:0:0:
176,240,49451,5,4,3:2:0:0:
320,240,49622,1,8,0:1:0:0:
176,240,49794,1,8,3:1:0:0:
32,240,49965,1,8,0:1:0:0:
272,48,50137,1,8,3:1:0:0:
320,48,50222,1,8,0:1:0:0:
320,48,50308,1,8,0:1:0:0:
272,48,50394,1,8,0:1:0:0:
128,48,50480,1,8,3:1:0:0:
80,48,50565,1,8,0:1:0:0:
32,48,50651,1,8,0:1:0:0:
200,136,50737,1,8,0:1:0:0:
384,192,50994,5,4,3:2:0:0:
200,248,51165,1,4,3:2:0:0:
328,320,51337,1,4,3:2:0:0:
80,192,51508,1,0,3:2:0:0:
368,48,51851,1,4,0:1:0:0:
414,44,51936,1,0,0:2:0:0:
452,71,52022,1,0,0:2:0:0:
464,116,52108,1,0,0:2:0:0:
200,272,52194,6,0,B|56:272|56:272|56:336,1,190,6|8,3:2|3:1,0:0:0:0:
240,328,52708,2,0,B|360:328,2,95,0|0|0,0:2|3:2|0:2,0:0:0:0:
480,80,53222,2,0,L|480:192,1,95,8|0,3:1|0:2,0:0:0:0:
192,64,53565,6,0,B|336:64|336:64|336:136,1,190,2|8,3:2|3:1,0:0:0:0:
152,152,54080,2,0,L|24:152,1,95,0|0,0:2|3:2,0:0:0:0:
296,264,54422,1,0,0:0:0:0:
168,264,54594,1,8,3:1:0:0:
296,264,54765,1,0,0:0:0:0:
16,72,54937,6,0,B|176:72|176:72|176:128,1,190,2|8,3:2|3:1,0:0:0:0:
360,208,55451,2,0,L|256:208,2,95,0|0|0,0:2|3:2|0:2,0:0:0:0:
120,320,55965,2,0,L|16:320,1,95,8|0,3:1|3:2,0:0:0:0:
320,48,56308,6,0,B|416:48|416:48|320:48,1,190,6|8,3:2|3:1,0:0:0:0:
32,160,56822,2,0,B|128:160|128:160|32:160,1,190,6|0,3:2|3:2,0:0:0:0:
280,224,57337,2,0,L|280:336,1,95,8|0,0:1|3:2,0:0:0:0:
16,56,57680,6,0,B|16:160|16:160|104:160,1,190,6|8,3:2|3:1,0:0:0:0:
288,56,58194,2,0,L|288:168,1,95,0|0,0:2|3:2,0:0:0:0:
472,160,58537,1,0,0:0:0:0:
336,160,58708,1,8,3:1:0:0:
472,160,58880,1,0,0:0:0:0:
184,312,59051,5,6,3:2:0:0:
320,312,59222,1,0,0:2:0:0:
184,312,59394,1,8,3:1:0:0:
472,192,59565,2,0,B|304:192|304:192|304:136,1,190,6|0,3:2|0:2,0:0:0:0:
488,304,60080,2,0,L|384:304,1,95,8|8,0:1|0:1,0:0:0:0:
104,152,60422,6,0,L|216:152,1,95,6|0,3:2|0:2,0:0:0:0:
16,248,60765,1,8,3:1:0:0:
272,256,60937,2,0,L|271:156,1,95,0|0,0:2|3:2,0:0:0:0:
88,48,61280,2,0,P|40:88|88:200,1,190,0|0,0:2|0:2,0:0:0:0:
368,64,61794,6,0,L|488:64,1,95,6|0,3:2|0:2,0:0:0:0:
280,136,62137,2,0,L|160:136,1,95,8|0,0:1|0:2,0:0:0:0:
368,136,62480,2,0,L|368:240,1,95,0|0,0:2|0:2,0:0:0:0:
128,192,62822,1,8,0:1:0:0:
80,192,62908,1,8,0:1:0:0:
80,192,62994,1,8,0:1:0:0:
128,192,63080,1,8,0:1:0:0:
384,112,63165,6,0,P|440:160|376:240,1,190,6|8,3:2|3:1,0:0:0:0:
192,312,63680,2,0,L|312:312,2,95,0|0|0,0:2|3:2|0:2,0:0:0:0:
432,192,64194,2,0,L|432:288,1,95,8|0,3:1|0:2,0:0:0:0:
144,136,64537,6,0,B|296:136|296:136|296:208,1,190,2|8,3:2|3:1,0:0:0:0:
112,256,65051,2,0,L|112:352,1,95,0|0,0:2|3:2,0:0:0:0:
352,232,65394,1,0,0:0:0:0:
216,232,65565,1,8,3:1:0:0:
352,232,65737,1,0,0:0:0:0:
64,64,65908,6,0,L|64:168,1,95,6|0,3:2|0:2,0:0:0:0:
248,104,66251,2,0,L|368:104,1,95,8|0,3:1|0:2,0:0:0:0:
160,240,66594,2,0,L|56:240,1,95,2|0,3:2|0:2,0:0:0:0:
304,248,66937,2,0,L|424:248,1,95,8|0,3:1|3:2,0:0:0:0:
112,304,67280,6,0,L|8:304,2,95,6|0|8,3:2|0:2|3:1,0:0:0:0:
400,96,67794,2,0,B|248:96|248:96|248:144,1,190,2|0,3:2|3:2,0:0:0:0:
488,216,68308,1,8,0:1:0:0:
442,226,68393,1,0,0:2:0:0:
405,256,68479,1,0,3:2:0:0:
385,298,68565,1,0,0:2:0:0:
144,208,68651,6,0,B|56:208|56:208|56:272|56:272|120:272,1,190,6|8,3:2|3:1,0:0:0:0:
200,304,69165,1,0,0:0:0:0:
440,80,69337,2,0,L|440:192,1,95,2|0,3:2|0:2,0:0:0:0:
312,176,69680,1,8,3:1:0:0:
440,175,69851,1,0,0:0:0:0:
152,72,70022,6,0,L|40:72,1,95,6|0,3:2|0:2,0:0:0:0:
240,152,70365,2,0,L|104:152,1,95,8|0,3:1|0:2,0:0:0:0:
472,192,70708,1,2,3:2:0:0:
344,192,70880,1,0,0:0:0:0:
472,192,71051,1,2,3:2:0:0:
184,240,71222,5,4,0:2:0:0:
48,240,71394,1,8,0:1:0:0:
184,240,71565,1,8,0:1:0:0:
320,240,71737,1,8,0:1:0:0:
456,240,71908,1,8,0:1:0:0:
320,152,72080,1,8,0:1:0:0:
80,64,72251,5,8,0:1:0:0:
122,43,72336,1,8,0:1:0:0:
169,37,72422,1,8,0:1:0:0:
215,48,72508,1,8,0:1:0:0:
255,74,72593,1,8,0:1:0:0:
283,111,72679,1,8,0:1:0:0:
72,272,72765,6,0,L|40:272,6,23.75,4|0|0|0|0|0|0,0:2|0:1|0:1|0:1|0:1|0:1|0:1,0:0:0:0:
168,272,73108,2,0,L|191:272,6,23.75,0|0|0|0|0|0|0,0:1|0:1|0:1|0:1|0:1|0:1|0:1,0:0:0:0:
384,192,73451,5,0,0:1:0:0:
406,201,73493,1,0,0:1:0:0:
422,218,73536,1,0,0:1:0:0:
428,241,73579,1,0,0:1:0:0:
424,264,73622,1,0,0:1:0:0:
410,283,73665,1,0,0:1:0:0:
390,294,73708,1,0,0:1:0:0:
184,152,73794,2,0,L|89:152,1,95,12|0,0:1|0:1,0:0:0:0:
376,56,74137,6,0,L|480:56,1,95,4|0,3:2|0:2,0:0:0:0:
288,128,74480,2,0,L|176:128,1,95,8|0,3:1|0:2,0:0:0:0:
376,216,74822,2,0,L|376:320,1,95,8|0,3:1|0:2,0:0:0:0:
248,304,75165,1,8,3:1:0:0:
376,311,75337,1,0,0:2:0:0:
136,192,75508,5,8,3:1:0:0:
248,192,75680,2,0,L|248:288,1,95,0|8,0:2|3:1,0:0:0:0:
136,192,76022,1,0,0:2:0:0:
416,48,76194,2,0,L|416:144,1,95,8|0,3:1|0:2,0:0:0:0:
232,64,76537,2,0,L|112:64,1,95,8|0,3:1|0:2,0:0:0:0:
424,264,76880,6,0,L|320:264,1,95,4|0,3:2|0:2,0:0:0:0:
144,176,77222,2,0,L|144:72,1,95,8|0,3:1|0:2,0:0:0:0:
328,64,77565,2,0,L|328:168,1,95,8|0,3:1|0:2,0:0:0:0:
200,64,77908,1,8,3:1:0:0:
328,64,78080,1,0,0:2:0:0:
80,272,78251,6,0,L|192:272,1,95,8|0,3:1|0:2,0:0:0:0:
360,272,78594,2,0,L|248:272,1,95,8|0,3:1|0:2,0:0:0:0:
448,88,78937,2,0,L|328:88,1,95,8|0,3:1|0:2,0:0:0:0:
168,160,79280,2,0,L|272:160,1,95,8|0,3:1|0:2,0:0:0:0:
16,48,79622,6,0,L|112:48,1,95,4|0,3:2|0:2,0:0:0:0:
296,72,79965,2,0,L|400:72,1,95,8|0,3:1|0:2,0:0:0:0:
208,144,80308,2,0,L|208:256,1,95,8|0,3:1|0:2,0:0:0:0:
336,240,80651,1,8,3:1:0:0:
208,239,80822,1,0,0:2:0:0:
448,56,80994,5,8,3:1:0:0:
344,56,81165,2,0,L|344:168,1,95,0|8,0:2|3:1,0:0:0:0:
448,152,81508,1,0,0:2:0:0:
264,328,81680,2,0,L|144:328,1,95,8|0,3:1|0:2,0:0:0:0:
352,232,82022,2,0,L|456:232,1,95,8|0,3:1|0:2,0:0:0:0:
160,80,82365,6,0,L|24:80,1,95,4|0,3:2|0:2,0:0:0:0:
240,160,82708,2,0,L|136:160,1,95,8|0,3:1|0:2,0:0:0:0:
320,240,83051,2,0,L|320:336,1,95,8|0,3:1|0:2,0:0:0:0:
192,240,83394,1,8,3:1:0:0:
432,240,83565,5,4,3:2:0:0:
144,240,83908,1,4,3:2:0:0:
384,240,84251,1,4,3:2:0:0:
208,152,84422,1,8,3:1:0:0:
160,152,84508,1,8,0:1:0:0:
160,152,84594,1,8,0:1:0:0:
208,152,84680,1,8,0:1:0:0:
400,152,84765,2,0,B|480:152|480:152|400:152,1,142.5,12|0,0:1|0:0,0:0:0:0:
208,272,85108,1,4,0:2:0:0:
256,192,85280,12,0,90594,0:0:0:0:
