osu file format v14

[General]
AudioFilename: audio.mp3
AudioLeadIn: 0
PreviewTime: 113627
Countdown: 0
SampleSet: Soft
StackLeniency: 0.7
Mode: 0
LetterboxInBreaks: 0
WidescreenStoryboard: 0

[Editor]
Bookmarks: 38578,63676,88774,113872,138970,164068,189166,196029,214264,239362
DistanceSpacing: 1
BeatDivisor: 4
GridSize: 32
TimelineZoom: 2.599999

[Metadata]
Title:The Truth Never Spoken (Energetic Trance Mix)
TitleUnicode:The Truth Never Spoken (Energetic Trance Mix)
Artist:3R2
ArtistUnicode:3R2
Creator:Settia
Version:The Forgotten Maiden
Source:Rabi-Ribi
Tags:Rabi Ribi rabiribi ăƒ©ăƒ“ăƒȘビ Sounds of Ecstasy
BeatmapID:1538159
BeatmapSetID:728577

[Difficulty]
HPDrainRate:5.5
CircleSize:4.4
OverallDifficulty:9
ApproachRate:9.6
SliderMultiplier:3.1
SliderTickRate:1

[Events]
//Background and Video events
0,0,"bg.jpg",0,0
//Break Periods
2,114072,138461
//Storyboard Layer 0 (Background)
//Storyboard Layer 1 (Fail)
//Storyboard Layer 2 (Pass)
//Storyboard Layer 3 (Foreground)
//Storyboard Sound Samples

[TimingPoints]
931,392.156862745098,4,2,1,30,1,0
13087,-133.333333333333,4,2,1,30,0,0
13480,-200,4,2,1,50,0,0
26029,-142.857142857143,4,2,1,60,0,0
37989,-83.3333333333333,4,2,1,60,0,0
38578,-83.3333333333333,4,2,1,45,0,0
38970,-133.333333333333,4,2,1,45,0,0
45440,-76.9230769230769,4,2,1,45,0,0
45832,-133.333333333333,4,2,1,45,0,0
51715,-76.9230769230769,4,2,1,45,0,0
51911,-133.333333333333,4,2,1,45,0,0
57989,-76.9230769230769,4,2,1,45,0,0
58185,-133.333333333333,4,2,1,45,0,0
62107,-66.6666666666667,4,2,1,30,0,0
63087,-76.9230769230769,4,2,1,45,0,0
63676,-76.9230769230769,4,2,1,55,0,0
64068,-100,4,2,1,55,0,0
70538,-66.6666666666667,4,2,1,55,0,0
70734,-100,4,2,1,55,0,0
76813,-76.9230769230769,4,2,1,55,0,0
77009,-100,4,2,1,55,0,0
83087,-76.9230769230769,4,2,1,55,0,0
83283,-100,4,2,1,55,0,0
88185,-76.9230769230769,4,2,1,55,0,0
88774,-100,4,2,1,60,0,0
89166,-90.9090909090909,4,2,1,60,0,0
89362,-76.9230769230769,4,2,1,60,0,0
89558,-100,4,2,1,60,0,0
95636,-76.9230769230769,4,2,1,60,0,0
95832,-100,4,2,1,60,0,0
101715,-76.9230769230769,4,2,1,60,0,0
102107,-100,4,2,1,60,0,0
108381,-111.111111111111,4,2,1,50,0,0
109166,-125,4,2,1,40,0,0
109950,-142.857142857143,4,2,1,30,0,0
110734,-142.857142857143,4,2,1,35,0,0
111127,-142.857142857143,4,2,1,45,0,0
111519,-125,4,2,1,55,0,0
111911,-111.111111111111,4,2,1,65,0,0
112303,-100,4,2,1,75,0,0
112695,-90.9090909090909,4,2,1,85,0,0
113087,-66.6666666666667,4,2,1,85,0,0
138970,-133.333333333333,4,2,1,50,0,0
151519,-133.333333333333,4,2,1,60,0,0
162499,-66.6666666666667,4,2,1,60,0,0
163676,-76.9230769230769,4,2,1,65,0,0
164068,-83.3333333333333,4,2,1,75,0,1
188774,-83.3333333333333,4,2,1,75,0,0
189166,-83.3333333333333,4,2,1,85,0,1
212695,-66.6666666666667,4,2,1,85,0,0
213676,-83.3333333333333,4,2,1,70,0,0
215048,-100,4,2,1,70,0,0
221127,-66.6666666666667,4,2,1,70,0,0
221421,-100,4,2,1,70,0,0
227205,-66.6666666666667,4,2,1,70,0,0
227695,-100,4,2,1,70,0,0
234656,-100,4,2,1,25,0,0
235048,-100,4,2,1,30,0,0
235440,-100,4,2,1,35,0,0
235832,-100,4,2,1,40,0,0
236225,-100,4,2,1,45,0,0
236617,-100,4,2,1,50,0,0
237009,-100,4,2,1,55,0,0
237401,-100,4,2,1,60,0,0
237793,-100,4,2,1,65,0,0
238185,-100,4,2,1,70,0,0
239558,-133.333333333333,4,2,1,70,0,0
246225,-76.9230769230769,4,2,1,70,0,0
246421,-133.333333333333,4,2,1,70,0,0
252499,-76.9230769230769,4,2,1,70,0,0
252695,-133.333333333333,4,2,1,70,0,0
258774,-76.9230769230769,4,2,1,70,0,0
258970,-133.333333333333,4,2,1,70,0,0
262891,-66.6666666666667,4,2,1,70,0,0

[HitObjects]
77,305,931,5,0,0:0:0:0:
151,284,1715,1,0,0:0:0:0:
225,262,2499,5,0,0:0:0:0:
299,242,2891,1,0,0:0:0:0:
373,220,3283,1,0,0:0:0:0:
446,195,3676,1,0,0:0:0:0:
225,262,4068,5,0,0:0:0:0:
279,316,4656,1,0,0:0:0:0:
279,316,5832,5,0,0:0:0:0:
299,242,6029,1,0,0:0:0:0:
319,167,6225,1,0,0:0:0:0:
339,92,6421,1,0,0:0:0:0:
374,222,6617,5,0,0:0:0:0:
319,167,6813,1,0,0:0:0:0:
264,112,7009,1,0,0:0:0:0:
204,62,7205,5,0,0:0:0:0:
339,92,7989,1,0,0:0:0:0:
309,227,8774,1,0,0:0:0:0:
174,197,9558,1,0,0:0:0:0:
339,92,10342,5,0,0:0:0:0:
259,145,10931,1,0,0:0:0:0:
310,15,11519,1,0,0:0:0:0:
369,203,11911,5,0,0:0:0:0:
204,62,12695,1,0,0:0:0:0:
275,270,13087,6,0,L|277:249,13,14.5312505543232,0|0|0|0|0|0|0|0|0|0|0|0|0|0,0:0|0:0|0:0|0:0|0:0|0:0|0:0|0:0|0:0|0:0|0:0|0:0|0:0|0:0,0:0:0:0:
182,349,13480,6,0,L|271:344,1,77.5,4|0,0:0|0:0,0:0:0:0:
410,381,13872,1,0,0:0:0:0:
427,305,14068,1,0,0:0:0:0:
440,228,14264,2,0,L|351:223,1,77.5,0|0,0:0|0:0,0:0:0:0:
260,161,14656,1,0,0:0:0:0:
261,164,14754,1,0,0:0:0:0:
262,167,14852,1,0,0:0:0:0:
336,37,15048,6,0,L|322:136,1,77.5,0|0,0:0|0:0,0:0:0:0:
176,37,15440,2,0,L|190:136,1,77.5,0|0,0:0|0:0,0:0:0:0:
336,37,15832,2,0,L|322:136,1,77.5,0|0,0:0|0:0,0:0:0:0:
176,37,16224,2,0,L|190:136,1,77.5,0|0,0:0|0:0,0:0:0:0:
299,267,16617,5,0,0:0:0:0:
221,260,16813,1,0,0:0:0:0:
143,253,17009,1,0,0:0:0:0:
65,245,17205,1,0,0:0:0:0:
161,331,17401,1,0,0:0:0:0:
126,165,17597,1,0,0:0:0:0:
127,168,17695,1,0,0:0:0:0:
128,171,17793,1,0,0:0:0:0:
166,369,17989,2,0,L|158:316,1,38.75,0|0,0:0|0:0,0:0:0:0:
299,267,18185,5,0,0:0:0:0:
299,267,18381,1,0,0:0:0:0:
221,260,18578,1,0,0:0:0:0:
221,260,18774,1,0,0:0:0:0:
254,329,18970,1,0,0:0:0:0:
265,197,19166,1,0,0:0:0:0:
254,329,19363,1,0,0:0:0:0:
265,197,19559,1,0,0:0:0:0:
376,272,19754,6,0,L|299:267,1,77.5,0|0,0:0|0:0,0:0:0:0:
466,329,20146,1,0,0:0:0:0:
467,326,20244,1,0,0:0:0:0:
468,323,20342,1,0,0:0:0:0:
299,267,20538,2,0,L|376:272,1,77.5,0|0,0:0|0:0,0:0:0:0:
376,272,20832,1,0,0:0:0:0:
376,272,20931,1,0,0:0:0:0:
352,384,21127,2,0,L|363:327,1,38.75,0|0,0:0|0:0,0:0:0:0:
419,200,21323,5,0,0:0:0:0:
416,203,21421,1,0,0:0:0:0:
413,205,21519,1,0,0:0:0:0:
410,206,21617,1,0,0:0:0:0:
406,206,21715,1,0,0:0:0:0:
402,204,21813,1,0,0:0:0:0:
400,201,21911,1,0,0:0:0:0:
398,198,22009,1,0,0:0:0:0:
398,194,22107,5,0,0:0:0:0:
400,190,22205,1,0,0:0:0:0:
402,187,22303,1,0,0:0:0:0:
406,186,22401,1,0,0:0:0:0:
410,185,22499,1,0,0:0:0:0:
413,186,22597,1,0,0:0:0:0:
416,189,22695,1,0,0:0:0:0:
419,192,22793,1,0,0:0:0:0:
419,196,22891,6,0,L|305:188,1,77.5,0|0,0:0|0:0,0:0:0:0:
175,177,23283,1,0,0:0:0:0:
172,178,23382,1,0,0:0:0:0:
169,179,23480,1,0,0:0:0:0:
237,105,23676,2,0,L|351:97,1,77.5,0|0,0:0|0:0,0:0:0:0:
315,99,23970,1,0,0:0:0:0:
315,99,24068,1,0,0:0:0:0:
207,181,24264,2,0,L|150:177,1,38.75,0|0,0:0|0:0,0:0:0:0:
107,38,24460,5,0,0:0:0:0:
110,41,24558,1,0,0:0:0:0:
112,44,24656,1,0,0:0:0:0:
113,47,24754,1,0,0:0:0:0:
113,51,24852,1,0,0:0:0:0:
111,55,24950,1,0,0:0:0:0:
108,57,25048,1,0,0:0:0:0:
105,59,25146,1,0,0:0:0:0:
101,59,25244,5,0,0:0:0:0:
97,57,25342,1,0,0:0:0:0:
94,55,25440,1,0,0:0:0:0:
93,51,25538,1,0,0:0:0:0:
92,47,25636,1,0,0:0:0:0:
93,44,25734,1,0,0:0:0:0:
96,41,25832,1,2,0:0:0:0:
99,38,25930,1,0,0:0:0:0:
103,38,26029,6,0,L|92:149,1,108.499996688843,6|0,0:0|0:0,0:0:0:0:
83,221,26323,1,0,0:0:0:0:
83,221,26421,1,8,0:0:0:0:
294,110,26617,2,0,L|218:104,1,54.2499983444214,0|0,0:0|0:0,0:0:0:0:
83,221,26813,1,0,0:0:0:0:
110,218,26911,1,0,0:0:0:0:
137,216,27009,1,2,0:0:0:0:
164,214,27107,1,0,0:0:0:0:
191,212,27205,1,8,0:0:0:0:
294,110,27401,1,0,0:0:0:0:
370,295,27597,5,2,0:0:0:0:
431,192,27793,1,0,0:0:0:0:
321,373,27989,1,8,0:0:0:0:
318,235,28185,1,0,0:0:0:0:
348,216,28283,1,0,0:0:0:0:
384,212,28381,1,0,0:0:0:0:
417,225,28479,1,0,0:0:0:0:
442,252,28577,1,2,0:0:0:0:
452,286,28675,1,0,0:0:0:0:
446,321,28774,1,8,0:0:0:0:
138,359,28970,1,0,0:0:0:0:
138,359,29068,1,0,0:0:0:0:
138,359,29166,6,0,L|256:368,1,108.499996688843,2|0,0:0|0:0,0:0:0:0:
321,373,29460,1,0,0:0:0:0:
321,373,29558,1,8,0:0:0:0:
147,230,29754,1,0,0:0:0:0:
144,267,29852,1,0,0:0:0:0:
141,304,29950,2,0,L|136:379,2,54.2499983444214,0|0|2,0:0|0:0|0:0,0:0:0:0:
105,128,30342,1,8,0:0:0:0:
280,216,30538,2,0,L|221:220,1,54.2499983444214,0|0,0:0|0:0,0:0:0:0:
39,176,30734,5,2,0:0:0:0:
173,84,30930,1,0,0:0:0:0:
39,176,31127,1,8,0:0:0:0:
100,47,31323,1,0,0:0:0:0:
225,220,31519,1,0,0:0:0:0:
105,128,31715,1,2,0:0:0:0:
225,220,31911,1,8,0:0:0:0:
168,3,32107,1,2,0:0:0:0:
117,230,32303,6,0,L|236:218,1,108.499996688843,6|0,0:0|0:0,0:0:0:0:
300,211,32597,1,0,0:0:0:0:
300,211,32695,1,8,0:0:0:0:
267,142,32891,5,0,0:0:0:0:
300,211,32989,1,0,0:0:0:0:
332,280,33087,1,0,0:0:0:0:
376,217,33283,5,2,0:0:0:0:
332,280,33381,1,0,0:0:0:0:
288,342,33479,1,8,0:0:0:0:
267,142,33676,1,0,0:0:0:0:
429,222,33872,5,2,0:0:0:0:
429,222,33970,1,0,0:0:0:0:
429,222,34068,2,0,L|357:215,1,54.2499983444214,0|0,0:0|0:0,0:0:0:0:
407,103,34264,5,8,0:0:0:0:
407,103,34362,1,0,0:0:0:0:
407,103,34460,2,0,L|348:144,1,54.2499983444214,0|0,0:0|0:0,0:0:0:0:
315,26,34656,5,0,0:0:0:0:
315,26,34754,1,0,0:0:0:0:
315,26,34852,2,0,L|296:96,1,54.2499983444214,2|0,0:0|0:0,0:0:0:0:
195,27,35048,5,8,0:0:0:0:
195,27,35146,1,0,0:0:0:0:
195,27,35244,2,0,L|225:93,1,54.2499983444214,0|0,0:0|0:0,0:0:0:0:
103,104,35439,5,2,0:0:0:0:
99,100,35538,1,0,0:0:0:0:
103,96,35636,1,0,0:0:0:0:
106,100,35734,1,2,0:0:0:0:
195,26,35832,5,8,0:0:0:0:
194,20,35931,1,0,0:0:0:0:
200,20,36029,1,0,0:0:0:0:
200,25,36127,1,0,0:0:0:0:
316,26,36225,5,0,0:0:0:0:
319,21,36324,1,0,0:0:0:0:
323,24,36422,1,2,0:0:0:0:
320,28,36520,1,0,0:0:0:0:
408,103,36617,5,8,0:0:0:0:
414,102,36716,1,0,0:0:0:0:
415,107,36814,1,0,0:0:0:0:
410,108,36912,1,0,0:0:0:0:
429,222,37009,6,0,L|393:218,19,27.1249991722107,6|0|0|0|0|0|0|0|0|0|0|0|0|0|0|0|0|0|0|0,0:0|0:0|0:0|0:0|0:0|0:0|0:0|0:0|0:0|0:0|0:0|0:0|0:0|0:0|0:0|0:0|0:0|0:0|0:0|0:0,0:0:0:0:
429,222,37989,6,0,B|370:216|370:216|324:253|324:253|245:244,1,185.999994323731,0|0,0:0|0:0,0:0:0:0:
198,101,38283,6,0,P|304:119|284:191,1,185.999994323731,0|0,0:0|0:0,0:0:0:0:
429,222,38578,6,0,B|370:216|370:216|324:253|324:253|245:244,1,185.999994323731,4|0,0:0|0:0,0:0:0:0:
199,306,38872,1,0,0:0:0:0:
199,306,38970,2,0,L|211:369,3,58.1250022172929,2|0|0|0,0:0|0:0|0:0|0:0,0:0:0:0:
108,259,39362,1,2,0:0:0:0:
108,259,39460,1,0,0:0:0:0:
108,259,39558,2,0,L|120:322,1,58.1250022172929,0|0,0:0|0:0,0:0:0:0:
17,212,39754,1,2,0:0:0:0:
20,231,39852,1,0,0:0:0:0:
24,250,39950,1,0,0:0:0:0:
27,269,40048,1,0,0:0:0:0:
102,115,40146,6,0,L|90:178,3,58.1250022172929,2|0|0|0,0:0|0:0|0:0|0:0,0:0:0:0:
188,64,40538,1,2,0:0:0:0:
188,64,40636,1,0,0:0:0:0:
188,64,40735,2,0,L|177:121,1,58.1250022172929,0|0,0:0|0:0,0:0:0:0:
275,14,40931,1,2,0:0:0:0:
271,33,41029,1,0,0:0:0:0:
267,52,41127,1,0,0:0:0:0:
264,71,41225,1,0,0:0:0:0:
324,134,41323,1,2,0:0:0:0:
320,153,41421,1,0,0:0:0:0:
316,172,41519,1,0,0:0:0:0:
313,191,41617,1,0,0:0:0:0:
356,273,41715,6,0,L|428:267,3,58.1250022172929,2|0|0|0,0:0|0:0|0:0|0:0,0:0:0:0:
261,353,42107,1,2,0:0:0:0:
261,353,42205,1,0,0:0:0:0:
261,353,42303,2,0,L|333:347,1,58.1250022172929,0|0,0:0|0:0,0:0:0:0:
153,292,42499,1,2,0:0:0:0:
172,290,42597,1,0,0:0:0:0:
191,288,42695,1,0,0:0:0:0:
210,287,42793,1,0,0:0:0:0:
58,371,42891,1,2,0:0:0:0:
78,370,42989,1,0,0:0:0:0:
97,368,43087,1,0,0:0:0:0:
116,366,43185,1,0,0:0:0:0:
70,287,43283,6,0,L|81:229,3,58.1250022172929,2|0|0|0,0:0|0:0|0:0|0:0,0:0:0:0:
163,199,43676,1,2,0:0:0:0:
163,199,43774,1,0,0:0:0:0:
163,199,43872,2,0,L|174:141,1,58.1250022172929,0|0,0:0|0:0,0:0:0:0:
258,121,44068,1,2,0:0:0:0:
261,101,44166,1,0,0:0:0:0:
265,82,44264,1,0,0:0:0:0:
268,63,44362,1,0,0:0:0:0:
336,158,44460,1,2,0:0:0:0:
339,138,44558,1,0,0:0:0:0:
343,119,44656,1,0,0:0:0:0:
346,100,44754,1,0,0:0:0:0:
411,196,44852,6,0,L|416:167,7,29.0625011086464,2|0|0|0|0|0|0|0,0:0|0:0|0:0|0:0|0:0|0:0|0:0|0:0,0:0:0:0:
395,276,45244,1,2,0:0:0:0:
468,327,45440,6,0,P|420:317|394:275,1,100.749995388031,0|0,0:0|0:0,0:0:0:0:
324,234,45636,5,2,0:0:0:0:
324,234,45734,1,0,0:0:0:0:
324,234,45832,2,0,P|292:248|240:242,1,58.1250022172929,0|0,0:0|0:0,0:0:0:0:
263,331,46029,1,2,0:0:0:0:
244,327,46127,1,0,0:0:0:0:
226,319,46225,1,0,0:0:0:0:
211,307,46323,1,0,0:0:0:0:
155,361,46421,6,0,L|86:372,3,58.1250022172929,2|0|0|0,0:0|0:0|0:0|0:0,0:0:0:0:
120,285,46813,1,2,0:0:0:0:
120,285,46911,1,0,0:0:0:0:
120,285,47009,2,0,L|51:296,1,58.1250022172929,0|0,0:0|0:0,0:0:0:0:
89,211,47205,1,2,0:0:0:0:
69,214,47303,1,0,0:0:0:0:
50,217,47401,1,0,0:0:0:0:
31,220,47499,1,0,0:0:0:0:
136,125,47597,1,2,0:0:0:0:
116,128,47695,1,0,0:0:0:0:
97,131,47793,1,0,0:0:0:0:
78,134,47891,1,0,0:0:0:0:
205,187,47989,6,0,L|224:115,3,58.1250022172929,2|0|0|0,0:0|0:0|0:0|0:0,0:0:0:0:
269,265,48381,1,2,0:0:0:0:
269,265,48480,1,0,0:0:0:0:
269,265,48578,2,0,L|288:193,1,58.1250022172929,0|0,0:0|0:0,0:0:0:0:
341,342,48774,1,2,0:0:0:0:
346,323,48872,1,0,0:0:0:0:
351,304,48970,1,0,0:0:0:0:
356,285,49068,1,0,0:0:0:0:
254,321,49166,1,2,0:0:0:0:
259,303,49264,1,0,0:0:0:0:
264,284,49362,1,0,0:0:0:0:
269,265,49460,1,0,0:0:0:0:
195,375,49558,6,0,P|174:342|172:309,3,58.1250022172929,2|0|0|0,0:0|0:0|0:0|0:0,0:0:0:0:
89,294,49950,1,2,0:0:0:0:
89,294,50048,1,0,0:0:0:0:
89,294,50146,2,0,P|107:259|134:241,1,58.1250022172929,0|0,0:0|0:0,0:0:0:0:
111,161,50342,1,2,0:0:0:0:
130,157,50440,1,0,0:0:0:0:
149,159,50538,1,0,0:0:0:0:
167,165,50636,1,0,0:0:0:0:
232,107,50734,1,2,0:0:0:0:
244,122,50832,1,0,0:0:0:0:
252,139,50930,1,0,0:0:0:0:
256,158,51028,1,0,0:0:0:0:
341,180,51127,6,0,L|346:209,7,29.0625011086464,2|0|0|0|0|0|0|0,0:0|0:0|0:0|0:0|0:0|0:0|0:0|0:0,0:0:0:0:
325,100,51519,1,2,0:0:0:0:
398,49,51715,6,0,P|350:59|324:101,1,100.749995388031,0|0,0:0|0:0,0:0:0:0:
341,180,51911,1,2,0:0:0:0:
341,180,52009,1,0,0:0:0:0:
341,180,52107,2,0,L|354:248,1,58.1250022172929,0|0,0:0|0:0,0:0:0:0:
362,317,52303,1,2,0:0:0:0:
342,317,52401,1,0,0:0:0:0:
324,311,52499,1,0,0:0:0:0:
308,300,52597,1,0,0:0:0:0:
243,356,52695,6,0,L|179:347,3,58.1250022172929,2|0|0|0,0:0|0:0|0:0|0:0,0:0:0:0:
209,264,53087,1,2,0:0:0:0:
209,264,53185,1,0,0:0:0:0:
209,264,53283,2,0,L|145:255,1,58.1250022172929,0|0,0:0|0:0,0:0:0:0:
182,173,53480,1,2,0:0:0:0:
162,170,53578,1,0,0:0:0:0:
143,167,53676,1,0,0:0:0:0:
124,164,53774,1,0,0:0:0:0:
262,106,53872,1,2,0:0:0:0:
243,103,53970,1,0,0:0:0:0:
224,100,54068,1,0,0:0:0:0:
205,97,54166,1,0,0:0:0:0:
326,154,54264,6,0,P|343:125|333:75,3,58.1250022172929,2|0|0|0,0:0|0:0|0:0|0:0,0:0:0:0:
270,226,54656,1,2,0:0:0:0:
270,226,54754,1,0,0:0:0:0:
270,226,54852,2,0,L|283:288,1,58.1250022172929,0|0,0:0|0:0,0:0:0:0:
377,313,55048,1,2,0:0:0:0:
373,294,55146,1,0,0:0:0:0:
369,275,55244,1,0,0:0:0:0:
365,256,55342,1,0,0:0:0:0:
467,341,55440,1,2,0:0:0:0:
463,322,55538,1,0,0:0:0:0:
459,303,55636,1,0,0:0:0:0:
455,284,55734,1,0,0:0:0:0:
394,384,55832,6,0,P|366:386|338:374,3,58.1250022172929,2|0|0|0,0:0|0:0|0:0|0:0,0:0:0:0:
256,342,56225,1,2,0:0:0:0:
256,342,56323,1,0,0:0:0:0:
256,342,56421,2,0,P|268:316|292:298,1,58.1250022172929,0|0,0:0|0:0,0:0:0:0:
360,245,56617,1,2,0:0:0:0:
371,260,56715,1,0,0:0:0:0:
378,278,56813,1,0,0:0:0:0:
379,297,56911,1,0,0:0:0:0:
394,384,57009,1,2,0:0:0:0:
374,386,57107,1,0,0:0:0:0:
355,383,57205,1,0,0:0:0:0:
338,374,57303,1,0,0:0:0:0:
291,298,57401,6,0,L|286:269,7,29.0625011086464,2|0|0|0|0|0|0|0,0:0|0:0|0:0|0:0|0:0|0:0|0:0|0:0,0:0:0:0:
191,310,57793,1,2,0:0:0:0:
291,298,57989,6,0,L|173:313,1,100.749995388031,0|0,0:0|0:0,0:0:0:0:
128,366,58185,5,2,0:0:0:0:
128,366,58283,1,0,0:0:0:0:
128,366,58381,2,0,P|110:326|111:301,1,58.1250022172929,0|0,0:0|0:0,0:0:0:0:
38,260,58578,5,2,0:0:0:0:
38,260,58676,1,0,0:0:0:0:
38,260,58774,2,0,P|70:230|94:223,1,58.1250022172929,0|0,0:0|0:0,0:0:0:0:
108,142,58970,5,2,2:0:0:0:
108,142,59068,1,0,2:0:0:0:
108,142,59166,2,0,P|146:163|159:184,1,58.1250022172929,0|0,2:0|2:0,2:2:0:0:
241,171,59362,5,2,2:0:0:0:
241,171,59460,1,0,2:0:0:0:
241,171,59558,2,0,P|232:213|216:233,1,58.1250022172929,0|0,2:0|2:0,2:2:0:0:
247,309,59754,5,2,2:0:0:0:
247,309,59852,1,0,2:0:0:0:
247,309,59950,2,0,P|203:313|179:305,1,58.1250022172929,0|0,2:0|2:0,2:2:0:0:
128,366,60146,5,2,0:0:0:0:
128,366,60244,1,0,0:0:0:0:
128,366,60342,2,0,P|110:326|111:301,1,58.1250022172929,0|0,0:0|0:0,0:0:0:0:
108,142,60538,5,2,0:0:0:0:
126,148,60636,1,0,0:0:0:0:
142,159,60734,1,0,0:0:0:0:
154,174,60832,1,0,0:0:0:0:
247,309,60930,5,2,0:0:0:0:
228,313,61028,1,0,0:0:0:0:
208,313,61126,1,0,0:0:0:0:
190,309,61224,1,0,0:0:0:0:
38,260,61323,5,2,0:0:0:0:
49,244,61421,1,0,0:0:0:0:
64,232,61519,1,0,0:0:0:0:
82,225,61617,1,0,0:0:0:0:
241,171,61715,5,2,0:0:0:0:
239,190,61813,1,0,0:0:0:0:
234,208,61911,1,0,0:0:0:0:
223,224,62009,1,0,0:0:0:0:
128,366,62107,6,0,P|110:326|111:301,19,58.1250022172929,6|0|0|0|0|0|0|0|0|0|0|0|0|0|0|0|0|0|0|0,0:0|0:0|0:0|0:0|0:0|0:0|0:0|0:0|0:0|0:0|0:0|0:0|0:0|0:0|0:0|0:0|0:0|0:0|0:0|0:0,0:0:0:0:
128,366,63087,6,0,B|187:328|247:361|211:380|273:410|332:363,1,201.499990776062,0|0,0:0|0:0,0:0:0:0:
350,230,63381,2,0,P|264:216|276:303,1,201.499990776062,0|0,0:0|0:0,0:0:0:0:
128,366,63676,6,0,B|187:328|247:361|211:380|273:410|332:363,1,201.499990776062,6|0,0:0|0:0,0:0:0:0:
416,370,63970,1,0,0:0:0:0:
416,370,64068,2,0,P|429:330|406:283,1,77.5,10|0,0:0|0:0,0:0:0:0:
352,157,64264,2,0,P|339:197|362:244,1,77.5,0|0,0:0|0:0,0:0:0:0:
274,302,64460,5,2,0:0:0:0:
421,195,64558,2,0,L|506:182,2,77.5,0|0|0,0:0|0:0|0:0,0:0:0:0:
275,168,64852,2,0,L|351:156,1,77.5,10|0,0:0|0:0,0:0:0:0:
497,183,65048,2,0,L|421:195,1,77.5,0|0,0:0|0:0,0:0:0:0:
72,232,65244,5,2,0:0:0:0:
72,232,65342,1,0,0:0:0:0:
133,143,65440,2,0,L|151:229,1,77.5,0|0,0:0|0:0,0:0:0:0:
56,307,65636,2,0,L|74:221,1,77.5,10|0,0:0|0:0,0:0:0:0:
117,67,65832,2,0,L|135:153,1,77.5,0|0,0:0|0:0,0:0:0:0:
303,245,66029,5,2,0:0:0:0:
225,231,66127,2,0,L|148:218,1,77.5,0|0,0:0|0:0,0:0:0:0:
379,262,66323,1,0,0:0:0:0:
291,321,66421,2,0,L|304:227,1,77.5,10|0,0:0|0:0,0:0:0:0:
313,168,66617,2,0,L|300:262,1,77.5,0|0,0:0|0:0,0:0:0:0:
174,371,66813,5,2,0:0:0:0:
174,371,66911,1,0,0:0:0:0:
159,294,67009,2,0,L|146:200,1,77.5,0|0,0:0|0:0,0:0:0:0:
58,160,67205,1,10,0:0:0:0:
134,143,67303,1,0,0:0:0:0:
212,129,67401,2,0,L|289:116,1,77.5,0|0,0:0|0:0,0:0:0:0:
124,67,67597,6,0,L|137:161,1,77.5,2|0,0:0|0:0,0:0:0:0:
159,294,67793,1,0,0:0:0:0:
159,294,67891,1,0,0:0:0:0:
306,265,67989,2,0,L|228:260,1,77.5,10|0,0:0|0:0,0:0:0:0:
53,377,68185,1,0,0:0:0:0:
130,369,68283,1,0,0:0:0:0:
207,362,68381,6,0,L|285:357,1,77.5,2|0,0:0|0:0,0:0:0:0:
434,237,68578,2,0,P|360:217|301:284,1,155,0|10,0:0|0:0,0:0:0:0:
389,374,68872,1,0,0:0:0:0:
389,374,68970,2,0,L|381:296,1,77.5,0|0,0:0|0:0,0:0:0:0:
451,83,69166,5,2,0:0:0:0:
441,159,69264,2,0,L|433:237,1,77.5,0|0,0:0|0:0,0:0:0:0:
227,128,69460,1,0,0:0:0:0:
270,64,69558,2,0,P|355:56|375:128,1,155,10|0,0:0|0:0,0:0:0:0:
151,142,69852,1,0,0:0:0:0:
151,142,69950,6,0,L|254:124,1,77.5,2|0,0:0|0:0,0:0:0:0:
433,236,70146,2,0,L|330:218,1,77.5,0|0,0:0|0:0,0:0:0:0:
227,128,70342,1,10,0:0:0:0:
227,128,70440,1,0,0:0:0:0:
193,336,70538,6,0,P|203:278|219:197,1,116.250004434586,0|0,0:0|0:0,0:0:0:0:
270,64,70734,5,2,0:0:0:0:
151,142,70832,2,0,L|254:124,1,77.5,0|0,0:0|0:0,0:0:0:0:
373,194,71029,1,0,0:0:0:0:
422,115,71127,2,0,B|434:78|434:78|421:41,1,77.5,10|0,0:0|0:0,0:0:0:0:
316,134,71323,2,0,P|295:165|292:204,1,77.5,0|0,0:0|0:0,0:0:0:0:
461,327,71519,5,2,0:0:0:0:
461,327,71617,1,0,0:0:0:0:
401,376,71715,2,0,L|319:363,1,77.5,0|0,0:0|0:0,0:0:0:0:
150,304,71911,1,10,0:0:0:0:
226,293,72009,2,0,L|308:280,2,77.5,0|0|0,0:0|0:0|0:0,0:0:0:0:
82,263,72303,5,2,0:0:0:0:
156,376,72401,2,0,P|141:339|157:292,1,77.5,0|0,0:0|0:0,0:0:0:0:
169,130,72597,1,0,0:0:0:0:
45,191,72695,2,0,B|92:165|138:190|110:204|157:227|209:198,1,155,10|0,0:0|0:0,0:0:0:0:
320,71,72989,1,0,0:0:0:0:
248,32,73087,5,2,0:0:0:0:
248,32,73185,1,0,0:0:0:0:
248,32,73283,2,0,B|233:73|233:73|256:124,1,77.5,0|0,0:0|0:0,0:0:0:0:
190,205,73480,1,10,0:0:0:0:
190,205,73578,1,0,0:0:0:0:
320,71,73676,2,0,L|424:57,1,77.5,0|0,0:0|0:0,0:0:0:0:
430,247,73872,5,2,0:0:0:0:
388,180,73970,2,0,P|292:179|273:244,1,155,0|0,0:0|0:0,0:0:0:0:
419,325,74264,2,0,P|458:324|494:296,1,77.5,10|0,0:0|0:0,0:0:0:0:
343,233,74460,1,0,0:0:0:0:
326,308,74558,1,0,0:0:0:0:
305,382,74656,6,0,L|214:362,1,77.5,2|0,0:0|0:0,0:0:0:0:
73,327,74852,1,0,0:0:0:0:
73,327,74950,1,0,0:0:0:0:
180,235,75048,2,0,L|156:331,1,77.5,10|0,0:0|0:0,0:0:0:0:
144,384,75244,2,0,L|167:287,1,77.5,0|0,0:0|0:0,0:0:0:0:
204,143,75440,5,2,0:0:0:0:
74,176,75538,2,0,B|147:118|147:118|222:151,1,155,0|0,0:0|0:0,0:0:0:0:
343,233,75832,2,0,P|303:234|267:204,1,77.5,10|0,0:0|0:0,0:0:0:0:
347,80,76029,2,0,L|328:156,1,77.5,0|0,0:0|0:0,0:0:0:0:
284,312,76225,6,0,L|274:349,7,38.75,2|0|0|0|0|0|0|0,0:0|0:0|0:0|0:0|0:0|0:0|0:0|0:0,0:0:0:0:
343,233,76617,2,0,P|303:234|267:204,1,77.5,10|0,0:0|0:0,0:0:0:0:
183,322,76813,6,0,L|293:310,1,100.749995388031,0|0,0:0|0:0,0:0:0:0:
343,233,77009,5,2,0:0:0:0:
337,377,77107,2,0,B|365:334|365:334|339:218,1,155,0|0,0:0|0:0,0:0:0:0:
316,84,77401,1,10,0:0:0:0:
316,84,77499,1,0,0:0:0:0:
459,160,77597,2,0,L|383:147,1,77.5,0|0,0:0|0:0,0:0:0:0:
164,109,77793,5,2,0:0:0:0:
239,97,77891,1,0,0:0:0:0:
316,84,77989,2,0,L|218:101,1,77.5,0|0,0:0|0:0,0:0:0:0:
137,192,78185,1,10,0:0:0:0:
212,180,78283,1,0,0:0:0:0:
289,167,78381,2,0,L|191:184,1,77.5,0|0,0:0|0:0,0:0:0:0:
60,205,78578,5,2,0:0:0:0:
108,339,78676,2,0,B|121:302|121:302|106:259,1,77.5,0|0,0:0|0:0,0:0:0:0:
164,109,78872,1,0,0:0:0:0:
60,205,78970,2,0,L|158:188,1,77.5,10|0,0:0|0:0,0:0:0:0:
365,153,79166,2,0,L|267:170,1,77.5,0|0,0:0|0:0,0:0:0:0:
164,109,79362,5,2,0:0:0:0:
164,109,79460,1,0,0:0:0:0:
189,249,79558,2,0,P|213:212|207:166,1,77.5,0|0,0:0|0:0,0:0:0:0:
187,39,79754,2,0,P|163:76|169:122,1,77.5,10|0,0:0|0:0,0:0:0:0:
189,249,79950,2,0,P|213:212|207:166,1,77.5,0|0,0:0|0:0,0:0:0:0:
243,94,80146,5,2,0:0:0:0:
136,191,80244,2,0,L|60:205,2,77.5,0|0|0,0:0|0:0|0:0,0:0:0:0:
375,77,80538,1,10,0:0:0:0:
365,153,80636,1,0,0:0:0:0:
356,229,80734,1,0,0:0:0:0:
348,306,80832,1,0,0:0:0:0:
432,240,80930,5,2,0:0:0:0:
432,240,81029,1,0,0:0:0:0:
432,240,81127,2,0,L|336:225,1,77.5,0|0,0:0|0:0,0:0:0:0:
281,332,81323,2,0,P|320:330|354:288,1,77.5,10|0,0:0|0:0,0:0:0:0:
441,164,81519,2,0,L|345:149,1,77.5,0|0,0:0|0:0,0:0:0:0:
210,201,81715,5,2,0:0:0:0:
297,99,81813,2,0,B|281:155|281:155|296:190|296:190|276:266,1,155,0|0,0:0|0:0,0:0:0:0:
188,275,82107,2,0,L|214:187,1,77.5,10|0,0:0|0:0,0:0:0:0:
386,77,82303,2,0,L|360:165,1,77.5,0|0,0:0|0:0,0:0:0:0:
160,348,82499,5,2,0:0:0:0:
237,341,82597,1,0,0:0:0:0:
314,334,82695,2,0,L|405:325,1,77.5,0|0,0:0|0:0,0:0:0:0:
188,275,82891,2,8,L|97:284,1,77.5,10|8,0:0|0:0,0:0:0:0:
314,334,83087,6,0,B|306:228,1,100.749995388031,0|0,0:0|0:0,0:0:0:0:
298,112,83283,5,2,0:0:0:0:
231,176,83381,2,0,B|299:136|299:136|376:174,1,155,0|0,0:0|0:0,0:0:0:0:
439,202,83676,2,0,P|408:242|374:250,1,77.5,10|0,0:0|0:0,0:0:0:0:
386,339,83872,2,0,P|335:345|306:326,1,77.5,0|0,0:0|0:0,0:0:0:0:
227,382,84068,5,2,0:0:0:0:
227,382,84166,1,0,0:0:0:0:
227,382,84264,2,0,P|187:351|178:317,1,77.5,0|0,0:0|0:0,0:0:0:0:
100,276,84460,2,0,P|93:225|111:195,1,77.5,10|0,0:0|0:0,0:0:0:0:
155,133,84656,1,0,0:0:0:0:
155,133,84754,1,0,0:0:0:0:
310,257,84852,5,2,0:0:0:0:
167,241,84950,2,0,B|212:216|258:241|230:255|277:278|310:257,1,155,0|0,0:0|0:0,0:0:0:0:
408,189,85244,2,0,L|396:280,1,77.5,10|0,0:0|0:0,0:0:0:0:
387,342,85440,2,0,L|399:251,1,77.5,0|0,0:0|0:0,0:0:0:0:
415,111,85636,5,2,0:0:0:0:
415,111,85734,1,0,0:0:0:0:
481,190,85832,2,0,B|446:202|446:202|396:185,1,77.5,0|0,0:0|0:0,0:0:0:0:
270,144,86029,2,0,B|309:131|309:131|344:143,1,77.5,10|0,0:0|0:0,0:0:0:0:
481,190,86225,2,0,B|446:202|446:202|396:185,1,77.5,0|0,0:0|0:0,0:0:0:0:
217,201,86421,5,2,0:0:0:0:
270,144,86519,2,0,B|309:131|309:131|344:143,2,77.5,0|0|0,0:0|0:0|0:0,0:0:0:0:
168,262,86813,2,0,P|142:232|137:187,1,77.5,10|0,0:0|0:0,0:0:0:0:
162,60,87009,2,0,P|188:90|193:135,1,77.5,0|0,0:0|0:0,0:0:0:0:
103,358,87205,5,6,0:0:0:0:
103,358,87303,1,2,0:3:0:0:
168,262,87401,5,8,0:3:0:0:
168,262,87499,1,0,0:0:0:0:
183,343,87597,5,0,0:0:0:0:
183,343,87695,1,2,0:3:0:0:
88,277,87793,5,8,0:3:0:0:
88,277,87891,1,0,0:0:0:0:
103,358,87989,5,0,0:0:0:0:
103,358,88087,1,2,0:3:0:0:
168,262,88185,6,0,B|227:249|227:249|250:224|250:224|284:237|284:237|353:221,1,201.499990776062,8|2,0:3|0:3,0:0:0:0:
239,139,88480,6,0,B|255:208|255:208|242:242|242:242|267:265|267:265|280:324,1,201.499990776062,8|2,0:3|0:3,0:0:0:0:
428,202,88774,6,0,L|349:221,1,77.5,6|0,0:0|0:0,0:0:0:0:
168,262,88970,1,0,0:0:0:0:
168,262,89068,1,0,0:0:0:0:
279,323,89166,2,0,L|258:228,1,85.2500026016236,10|0,0:0|0:0,0:0:0:0:
239,139,89362,6,0,L|260:237,1,100.749995388031,0|0,0:0|0:0,0:0:0:0:
388,377,89558,2,0,L|368:290,1,77.5,2|0,0:0|0:0,0:0:0:0:
352,220,89754,1,0,0:0:0:0:
512,302,89852,2,0,B|462:288|462:288|427:315|427:315|345:295,1,155,0|0,0:0|0:0,0:0:0:0:
136,96,90146,1,0,0:0:0:0:
151,179,90244,1,0,0:0:0:0:
168,262,90342,6,0,L|188:358,1,77.5,2|0,0:0|0:0,0:0:0:0:
284,137,90538,2,0,L|304:41,1,77.5,0|0,0:0|0:0,0:0:0:0:
89,238,90734,1,10,0:0:0:0:
151,179,90832,2,0,B|199:162|240:194|210:203|252:234|299:220,1,155,0|0,0:0|0:0,0:0:0:0:
344,98,91127,2,0,P|303:109|281:153,2,77.5,2|0|0,0:0|0:0|0:0,0:0:0:0:
413,203,91421,2,0,P|375:198|348:170,1,77.5,0|10,0:0|0:0,0:0:0:0:
437,36,91617,1,0,0:0:0:0:
426,120,91715,1,0,0:0:0:0:
413,203,91813,1,0,0:0:0:0:
401,288,91911,5,2,0:0:0:0:
401,288,92009,1,0,0:0:0:0:
489,214,92107,2,0,L|406:201,1,77.5,0|0,0:0|0:0,0:0:0:0:
240,310,92303,1,10,0:0:0:0:
324,299,92401,2,0,L|407:286,1,77.5,0|0,0:0|0:0,0:0:0:0:
272,231,92597,1,0,0:0:0:0:
287,385,92695,6,0,L|272:231,1,155,2|0,0:0|0:0,0:0:0:0:
201,125,92989,2,0,P|190:161|214:209,1,77.5,0|10,0:0|0:0,0:0:0:0:
137,252,93185,1,0,0:0:0:0:
271,153,93283,2,0,L|371:140,1,77.5,0|0,0:0|0:0,0:0:0:0:
433,209,93480,5,2,0:0:0:0:
433,209,93578,1,0,0:0:0:0:
348,221,93676,2,0,L|247:233,1,77.5,0|0,0:0|0:0,0:0:0:0:
497,270,93872,1,10,0:0:0:0:
462,119,93970,2,0,B|419:101|419:101|433:211,1,155,0|0,0:0|0:0,0:0:0:0:
452,327,94264,6,0,P|486:301|496:253,1,77.5,2|0,0:0|0:0,0:0:0:0:
271,230,94460,1,0,0:0:0:0:
281,306,94558,2,0,L|290:386,1,77.5,0|10,0:0|0:0,0:0:0:0:
342,260,94754,1,0,0:0:0:0:
210,276,94852,2,0,L|130:285,1,77.5,0|0,0:0|0:0,0:0:0:0:
43,370,95048,5,2,0:0:0:0:
54,293,95146,1,0,0:0:0:0:
67,216,95244,2,0,L|80:126,1,77.5,0|0,0:0|0:0,0:0:0:0:
210,276,95440,1,10,0:0:0:0:
210,276,95538,1,0,0:0:0:0:
67,216,95636,6,0,L|167:204,1,100.749995388031,0|0,0:0|0:0,0:0:0:0:
377,139,95832,5,2,0:0:0:0:
300,128,95930,1,0,0:0:0:0:
222,117,96029,1,0,0:0:0:0:
287,266,96127,2,0,B|324:219|324:219|295:110,1,155,0|0,0:0|0:0,0:0:0:0:
201,42,96421,2,0,L|224:128,1,77.5,0|0,0:0|0:0,0:0:0:0:
414,289,96617,5,2,0:0:0:0:
414,289,96715,1,0,0:0:0:0:
397,213,96813,2,0,L|376:138,1,77.5,0|0,0:0|0:0,0:0:0:0:
431,364,97009,1,10,0:0:0:0:
270,285,97107,2,0,B|343:272|343:272|370:297|370:297|440:284,1,155,0|0,0:0|0:0,0:0:0:0:
190,298,97401,6,0,L|113:312,1,77.5,2|0,0:0|0:0,0:0:0:0:
270,285,97597,1,0,0:0:0:0:
218,221,97695,2,0,B|175:194|175:194|191:307,1,155,0|0,0:0|0:0,0:0:0:0:
242,361,97989,1,0,0:0:0:0:
242,361,98087,1,0,0:0:0:0:
346,271,98185,6,0,L|269:285,1,77.5,2|0,0:0|0:0,0:0:0:0:
113,311,98381,2,0,L|190:297,1,77.5,0|0,0:0|0:0,0:0:0:0:
446,191,98578,1,10,0:0:0:0:
380,342,98676,2,0,B|338:306|338:306|356:188,1,155,0|0,0:0|0:0,0:0:0:0:
456,114,98970,6,0,L|445:190,2,77.5,2|0|0,0:0|0:0|0:0,0:0:0:0:
377,55,99264,2,0,L|366:131,1,77.5,0|10,0:0|0:0,0:0:0:0:
342,283,99460,1,0,0:0:0:0:
342,283,99558,2,0,L|353:207,1,77.5,0|0,0:0|0:0,0:0:0:0:
246,106,99754,5,2,0:0:0:0:
246,106,99852,1,0,0:0:0:0:
186,156,99950,2,0,L|110:147,1,77.5,0|0,0:0|0:0,0:0:0:0:
295,43,100146,1,10,0:0:0:0:
216,32,100244,2,0,P|165:85|186:156,1,155,0|0,0:0|0:0,0:0:0:0:
342,283,100538,6,0,L|353:207,2,77.5,2|0|0,0:0|0:0|0:0,0:0:0:0:
243,384,100832,1,0,0:0:0:0:
257,307,100930,2,0,L|268:231,1,77.5,10|0,0:0|0:0,0:0:0:0:
317,358,101127,1,0,0:0:0:0:
317,358,101225,1,0,0:0:0:0:
183,333,101323,6,0,B|124:325|124:325|93:357|93:357|26:350,1,155,2|0,0:0|0:0,0:0:0:0:
41,176,101617,1,0,0:0:0:0:
82,244,101715,6,0,L|194:260,1,100.749995388031,10|0,0:0|0:0,0:0:0:0:
162,91,101911,2,0,P|121:139|125:189,1,100.749995388031,0|0,0:0|0:0,0:0:0:0:
257,307,102107,6,0,L|268:231,1,77.5,2|0,0:0|0:0,0:0:0:0:
282,121,102303,1,0,0:0:0:0:
214,173,102401,2,0,P|274:149|344:217,1,155,0|0,0:0|0:0,0:0:0:0:
460,338,102695,2,0,L|384:327,1,77.5,0|0,0:0|0:0,0:0:0:0:
268,230,102891,5,2,0:0:0:0:
257,307,102989,1,0,0:0:0:0:
245,383,103087,2,0,L|169:372,1,77.5,0|0,0:0|0:0,0:0:0:0:
96,211,103283,1,10,0:0:0:0:
82,354,103381,2,0,B|59:305|59:305|102:196,1,155,0|0,0:0|0:0,0:0:0:0:
147,64,103676,6,0,P|134:103|154:149,1,77.5,2|0,0:0|0:0,0:0:0:0:
96,211,103872,1,0,0:0:0:0:
216,97,103970,2,0,P|302:92|318:180,1,155,0|0,0:0|0:0,0:0:0:0:
249,230,104264,1,0,0:0:0:0:
172,220,104362,1,0,0:0:0:0:
96,211,104460,5,2,0:0:0:0:
96,211,104558,1,0,0:0:0:0:
123,353,104656,2,0,P|112:317|136:270,1,77.5,0|0,0:0|0:0,0:0:0:0:
188,22,104852,1,10,0:0:0:0:
68,93,104950,2,0,B|118:69|161:85|129:101|183:117|221:94,1,155,0|0,0:0|0:0,0:0:0:0:
366,46,105244,6,0,P|301:99|310:182,1,155,2|0,0:0|0:0,0:0:0:0:
280,251,105538,1,0,0:0:0:0:
280,251,105636,2,0,L|355:234,1,77.5,10|0,0:0|0:0,0:0:0:0:
452,145,105832,2,0,L|377:129,1,77.5,0|0,0:0|0:0,0:0:0:0:
404,288,106029,5,2,0:0:0:0:
404,288,106127,1,0,0:0:0:0:
404,288,106225,2,0,P|426:243|418:203,1,77.5,0|0,0:0|0:0,0:0:0:0:
322,72,106421,1,10,0:0:0:0:
322,72,106519,2,0,P|300:117|308:157,2,77.5,0|0|0,0:0|0:0|0:0,0:0:0:0:
489,56,106813,6,0,P|454:121|382:124,1,155,2|0,0:0|0:0,0:0:0:0:
196,22,107107,1,0,0:0:0:0:
196,22,107205,2,0,P|218:67|210:107,1,77.5,10|0,0:0|0:0,0:0:0:0:
254,247,107401,2,0,P|204:243|173:216,1,77.5,0|0,0:0|0:0,0:0:0:0:
32,181,107597,6,0,P|59:139|98:126,3,77.5,6|0|0|0,0:0|0:0|0:0|0:0,0:0:0:0:
127,263,107989,1,8,0:0:0:0:
127,263,108087,1,0,0:0:0:0:
127,263,108185,1,0,0:0:0:0:
127,263,108283,1,0,0:0:0:0:
127,263,108381,6,0,P|106:230|106:192,3,69.749997871399,2|0|0|0,0:0|0:0|0:0|0:0,0:0:0:0:
240,220,108774,1,8,0:0:0:0:
240,220,108872,1,0,0:0:0:0:
240,220,108970,1,0,0:0:0:0:
240,220,109068,1,0,0:0:0:0:
240,220,109166,6,0,P|205:222|174:207,3,62,2|0|0|0,0:0|0:0|0:0|0:0,0:0:0:0:
253,105,109558,1,8,0:0:0:0:
253,105,109656,1,0,0:0:0:0:
253,105,109754,1,0,0:0:0:0:
253,105,109852,1,0,0:0:0:0:
253,105,109950,6,0,P|237:136|209:155,3,54.2499983444214,2|0|0|0,0:0|0:0|0:0|0:0,0:0:0:0:
155,39,110342,1,8,0:0:0:0:
155,39,110440,1,0,0:0:0:0:
155,39,110538,1,0,0:0:0:0:
155,39,110636,1,0,0:0:0:0:
155,39,110734,5,2,0:3:0:0:
166,53,110832,1,2,0:3:0:0:
173,69,110930,1,2,0:3:0:0:
176,87,111028,1,2,0:3:0:0:
253,105,111127,5,2,0:3:0:0:
246,121,111225,1,2,0:3:0:0:
236,136,111323,1,2,0:3:0:0:
222,148,111421,1,2,0:3:0:0:
240,220,111519,5,2,0:3:0:0:
219,223,111617,1,2,0:3:0:0:
199,220,111715,1,2,0:3:0:0:
180,211,111813,1,2,0:3:0:0:
127,263,111911,5,2,0:3:0:0:
112,245,112009,1,2,0:3:0:0:
104,223,112107,1,2,0:3:0:0:
104,200,112205,1,2,0:3:0:0:
32,181,112303,5,2,0:3:0:0:
41,157,112401,1,2,0:3:0:0:
59,138,112499,1,2,0:3:0:0:
82,128,112597,1,2,0:3:0:0:
70,51,112695,5,2,0:3:0:0:
98,47,112793,1,2,0:3:0:0:
124,56,112891,1,2,0:3:0:0:
146,74,112989,1,2,0:3:0:0:
279,138,113087,6,0,L|205:151,7,58.1250022172929,2|2|2|2|2|2|2|2,0:3|0:3|0:3|0:3|0:3|0:3|0:3|0:3,0:0:0:0:
396,121,113480,2,0,L|470:108,3,58.1250022172929,2|2|2|2,0:3|0:3|0:3|0:3,0:0:0:0:
323,29,113676,5,2,0:0:0:0:
352,230,113872,1,6,0:0:0:0:
174,46,138970,6,0,P|136:86|153:166,1,116.250004434586,6|0,0:0|0:0,0:0:0:0:
137,144,139264,1,0,0:0:0:0:
137,144,139362,1,8,0:0:0:0:
297,120,139558,1,0,0:0:0:0:
227,232,139754,1,0,0:0:0:0:
223,203,139852,1,0,0:0:0:0:
219,174,139950,1,2,0:0:0:0:
216,145,140048,1,0,0:0:0:0:
212,116,140146,1,8,0:0:0:0:
81,260,140342,2,0,L|159:246,1,58.1250022172929,0|0,0:0|0:0,0:0:0:0:
322,217,140538,5,2,0:0:0:0:
322,217,140734,1,0,0:0:0:0:
236,310,140930,1,8,0:0:0:0:
320,142,141127,1,0,0:0:0:0:
348,144,141225,1,0,0:0:0:0:
374,158,141323,1,0,0:0:0:0:
392,180,141421,1,0,0:0:0:0:
400,208,141519,1,2,0:0:0:0:
397,237,141617,1,0,0:0:0:0:
383,262,141715,1,8,0:0:0:0:
227,232,141911,1,0,0:0:0:0:
299,373,142107,6,0,B|322:336|322:336|296:247,1,116.250004434586,2|0,0:0|0:0,0:0:0:0:
301,266,142401,1,0,0:0:0:0:
301,266,142499,1,8,0:0:0:0:
178,320,142695,1,0,0:0:0:0:
178,320,142793,1,0,0:0:0:0:
178,320,142891,2,0,L|256:306,3,58.1250022172929,0|0|2|0,0:0|0:0|0:0|0:0,0:0:0:0:
13,351,143283,1,8,0:0:0:0:
86,269,143480,1,0,0:0:0:0:
86,269,143578,1,0,0:0:0:0:
86,269,143676,6,0,L|102:387,1,116.250004434586,2|0,0:0|0:0,0:0:0:0:
101,384,143970,1,0,0:0:0:0:
101,384,144068,1,8,0:0:0:0:
71,146,144264,1,0,0:0:0:0:
208,209,144460,2,0,L|130:195,1,58.1250022172929,0|0,0:0|0:0,0:0:0:0:
71,146,144656,1,2,0:0:0:0:
287,221,144852,1,8,0:0:0:0:
155,104,145048,1,2,0:0:0:0:
238,284,145244,6,0,P|308:299|350:268,1,116.250004434586,6|0,0:0|0:0,0:0:0:0:
351,269,145538,1,0,0:0:0:0:
358,260,145636,1,8,0:0:0:0:
208,209,145832,1,0,0:0:0:0:
279,164,146029,1,0,0:0:0:0:
281,178,146127,1,0,0:0:0:0:
283,192,146225,1,2,0:0:0:0:
285,207,146323,1,0,0:0:0:0:
287,221,146421,1,8,0:0:0:0:
334,334,146617,2,0,L|345:262,1,58.1250022172929,0|0,0:0|0:0,0:0:0:0:
366,90,146813,5,2,0:0:0:0:
504,179,147009,1,0,0:0:0:0:
504,179,147107,1,0,0:0:0:0:
504,179,147205,2,0,L|389:168,1,116.250004434586,8|0,0:0|0:0,0:0:0:0:
307,31,147597,1,0,0:0:0:0:
344,9,147695,1,0,0:0:0:0:
387,10,147793,1,2,0:0:0:0:
424,32,147891,1,0,0:0:0:0:
444,70,147989,1,8,0:0:0:0:
229,49,148185,1,0,0:0:0:0:
283,212,148381,6,0,B|307:158|307:158|285:105,1,116.250004434586,2|0,0:0|0:0,0:0:0:0:
285,105,148676,1,0,0:0:0:0:
285,105,148774,1,8,0:0:0:0:
156,170,148970,2,0,L|223:160,1,58.1250022172929,0|0,0:0|0:0,0:0:0:0:
340,220,149166,1,0,0:0:0:0:
325,217,149264,1,0,0:0:0:0:
311,215,149362,1,2,0:0:0:0:
296,213,149460,1,0,0:0:0:0:
282,211,149558,1,8,0:0:0:0:
97,224,149754,1,0,0:0:0:0:
156,170,149950,6,0,P|178:232|156:282,1,116.250004434586,2|0,0:0|0:0,0:0:0:0:
177,357,150244,1,0,0:0:0:0:
177,357,150342,1,8,0:0:0:0:
6,281,150538,2,0,P|48:230|102:225,1,116.250004434586,0|0,0:0|0:0,0:0:0:0:
156,170,150832,1,0,0:0:0:0:
156,170,150930,1,2,0:0:0:0:
177,357,151127,2,0,P|121:350|83:308,1,116.250004434586,8|2,0:0|0:0,0:0:0:0:
144,54,151519,6,0,L|156:180,1,116.250004434586,6|0,0:0|0:0,0:0:0:0:
162,244,151813,1,0,0:0:0:0:
162,244,151911,1,8,0:0:0:0:
280,206,152107,2,0,L|211:198,1,58.1250022172929,0|0,0:0|0:0,0:0:0:0:
64,377,152303,1,0,0:0:0:0:
92,373,152401,1,0,0:0:0:0:
121,367,152499,1,2,0:0:0:0:
149,362,152597,1,0,0:0:0:0:
177,357,152695,2,0,L|251:343,1,58.1250022172929,8|0,0:0|0:0,0:0:0:0:
337,212,152891,2,0,L|268:204,1,58.1250022172929,0|0,0:0|0:0,0:0:0:0:
162,244,153087,5,2,0:0:0:0:
333,319,153283,1,0,0:0:0:0:
333,319,153381,1,0,0:0:0:0:
333,319,153480,2,0,B|355:282|355:282|332:195,1,116.250004434586,8|0,0:0|0:0,0:0:0:0:
281,51,153872,2,0,B|259:88|259:88|282:175,1,116.250004434586,0|2,0:0|0:0,0:0:0:0:
277,158,154166,1,0,0:0:0:0:
277,158,154264,1,8,0:0:0:0:
491,40,154460,1,2,0:0:0:0:
443,105,154656,6,0,P|398:125|331:93,1,116.250004434586,6|0,0:0|0:0,0:0:0:0:
338,101,154950,1,0,0:0:0:0:
338,101,155048,1,8,0:0:0:0:
242,232,155244,1,0,0:0:0:0:
195,167,155440,1,0,0:0:0:0:
234,150,155538,1,0,0:0:0:0:
277,158,155636,1,2,0:0:0:0:
309,186,155734,1,0,0:0:0:0:
321,227,155832,1,8,0:0:0:0:
233,289,156029,2,0,L|242:227,1,58.1250022172929,0|0,0:0|0:0,0:0:0:0:
264,61,156225,5,2,0:0:0:0:
67,87,156421,1,0,0:0:0:0:
67,87,156519,1,0,0:0:0:0:
67,87,156617,2,0,L|183:73,1,116.250004434586,8|0,0:0|0:0,0:0:0:0:
341,100,157009,1,0,0:0:0:0:
183,73,157205,1,2,0:0:0:0:
341,100,157401,1,8,0:0:0:0:
216,0,157597,1,2,0:0:0:0:
211,306,157793,6,0,P|247:308|283:293,1,58.1250022172929,6|0,0:0|0:0,0:0:0:0:
341,100,157989,2,0,P|311:118|291:145,1,58.1250022172929,2|0,0:0|0:0,0:0:0:0:
352,341,158185,2,0,P|366:309|364:275,1,58.1250022172929,10|0,0:0|0:0,0:0:0:0:
202,159,158381,2,0,P|209:193|230:220,1,58.1250022172929,2|0,0:0|0:0,0:0:0:0:
432,216,158578,6,0,P|406:193|373:183,1,58.1250022172929,2|0,0:0|0:0,0:0:0:0:
211,306,158774,2,0,P|247:308|283:293,1,58.1250022172929,2|0,0:0|0:0,0:0:0:0:
341,100,158970,2,0,P|311:118|291:145,1,58.1250022172929,10|0,0:0|0:0,0:0:0:0:
352,341,159166,2,0,P|366:309|364:275,1,58.1250022172929,2|0,0:0|0:0,0:0:0:0:
202,159,159362,6,0,P|209:193|230:220,1,58.1250022172929,6|0,0:0|0:0,0:0:0:0:
352,341,159558,2,0,P|366:309|364:275,1,58.1250022172929,2|0,0:0|0:0,0:0:0:0:
340,100,159754,2,0,P|311:117|291:144,1,58.1250022172929,10|0,0:0|0:0,0:0:0:0:
211,306,159950,2,0,P|245:309|278:297,1,58.1250022172929,2|0,0:0|0:0,0:0:0:0:
430,215,160146,6,0,P|405:193|372:183,1,58.1250022172929,2|0,0:0|0:0,0:0:0:0:
201,159,160342,2,0,P|208:191|229:218,1,58.1250022172929,2|0,0:0|0:0,0:0:0:0:
352,340,160538,2,0,P|364:309|364:275,1,58.1250022172929,10|0,0:0|0:0,0:0:0:0:
341,100,160734,2,0,P|311:118|291:145,1,58.1250022172929,2|0,0:0|0:0,0:0:0:0:
211,306,160930,5,6,0:0:0:0:
229,309,161028,1,2,0:0:0:0:
249,308,161126,1,2,0:0:0:0:
267,303,161224,1,2,0:0:0:0:
201,159,161323,5,10,0:0:0:0:
203,178,161421,1,2,0:0:0:0:
210,196,161519,1,2,0:0:0:0:
221,211,161617,1,2,0:0:0:0:
341,100,161715,5,6,0:0:0:0:
323,109,161813,1,2,0:0:0:0:
309,121,161911,1,2,0:0:0:0:
296,136,162009,1,2,0:0:0:0:
430,215,162107,5,10,0:0:0:0:
416,201,162205,1,2,0:0:0:0:
399,191,162303,1,2,0:0:0:0:
381,184,162401,1,2,0:0:0:0:
352,340,162499,6,0,P|364:309|364:275,22,58.1250022172929,6|0|0|0|0|0|0|0|0|0|0|0|0|0|0|0|0|0|0|0|0|0|0,0:0|0:0|0:0|0:0|0:0|0:0|0:0|0:0|0:0|0:0|0:0|0:0|0:0|0:0|0:0|0:0|0:0|0:0|0:0|0:0|0:0|0:0|0:0,0:0:0:0:
422,216,163676,6,0,B|333:169|253:244|315:239|229:313|141:263,1,302.249986164094,4|0,0:0|0:0,0:0:0:0:
144,351,164068,6,0,P|129:303|153:259,1,92.9999971618653,6|0,0:0|0:0,0:0:0:0:
197,93,164264,2,0,P|214:136|199:179,1,92.9999971618653,0|0,0:0|0:0,0:0:0:0:
39,152,164460,1,10,0:0:0:0:
39,152,164558,2,0,L|132:141,1,92.9999971618653,0|0,0:0|0:0,0:0:0:0:
299,170,164754,1,0,0:0:0:0:
318,73,164852,6,0,P|225:100|201:190,1,185.999994323731,2|0,0:0|0:0,0:0:0:0:
145,265,165146,1,0,0:0:0:0:
145,265,165244,2,0,L|238:254,1,92.9999971618653,10|0,0:0|0:0,0:0:0:0:
428,151,165440,1,0,0:0:0:0:
411,241,165538,1,0,0:0:0:0:
393,332,165636,6,0,L|300:321,2,92.9999971618653,2|0|0,0:0|0:0|0:0,0:0:0:0:
497,210,165930,1,0,0:0:0:0:
454,384,166029,1,10,0:0:0:0:
454,384,166127,2,0,P|477:330|458:286,1,92.9999971618653,0|0,0:0|0:0,0:0:0:0:
369,98,166323,1,0,0:0:0:0:
512,125,166421,6,0,B|456:107|411:145|446:154|399:191|346:177,1,185.999994323731,2|0,0:0|0:0,0:0:0:0:
356,14,166715,2,0,P|379:68|360:112,1,92.9999971618653,0|10,0:0|0:0,0:0:0:0:
289,291,166911,1,0,0:0:0:0:
289,291,167009,2,0,P|266:237|285:193,1,92.9999971618653,0|0,0:0|0:0,0:0:0:0:
148,35,167205,5,2,0:0:0:0:
148,35,167303,1,0,0:0:0:0:
300,70,167401,2,0,L|209:89,1,92.9999971618653,0|0,0:0|0:0,0:0:0:0:
116,251,167597,1,10,0:0:0:0:
58,166,167695,2,0,P|155:158|214:248,1,185.999994323731,0|0,0:0|0:0,0:0:0:0:
374,281,167989,5,2,0:0:0:0:
289,291,168087,1,0,0:0:0:0:
206,302,168185,1,0,0:0:0:0:
374,281,168283,2,0,L|476:266,1,92.9999971618653,0|10,0:0|0:0,0:0:0:0:
382,59,168480,1,0,0:0:0:0:
329,124,168578,2,0,P|312:174|345:236,1,92.9999971618653,0|0,0:0|0:0,0:0:0:0:
485,185,168774,6,0,L|393:172,1,92.9999971618653,2|0,0:0|0:0,0:0:0:0:
236,137,168970,2,0,L|328:123,1,92.9999971618653,0|0,0:0|0:0,0:0:0:0:
504,101,169166,1,10,0:0:0:0:
485,185,169264,2,0,B|427:173|387:217|423:221|380:264|326:256,1,185.999994323731,0|0,0:0|0:0,0:0:0:0:
211,336,169558,5,2,0:0:0:0:
218,290,169656,1,0,0:0:0:0:
225,244,169754,1,0,0:0:0:0:
124,369,169852,5,0,0:0:0:0:
131,323,169950,1,10,0:0:0:0:
138,277,170048,1,0,0:0:0:0:
303,347,170146,6,0,L|199:334,1,92.9999971618653,0|0,0:0|0:0,0:0:0:0:
11,202,170342,5,2,0:0:0:0:
11,202,170440,1,0,0:0:0:0:
45,288,170538,2,0,L|149:275,1,92.9999971618653,0|0,0:0|0:0,0:0:0:0:
371,247,170734,1,10,0:0:0:0:
334,173,170832,2,0,P|291:211|285:271,1,92.9999971618653,0|0,0:0|0:0,0:0:0:0:
403,321,171029,1,0,0:0:0:0:
421,182,171127,6,0,P|366:163|311:188,2,92.9999971618653,2|0|0,0:0|0:0|0:0,0:0:0:0:
512,284,171421,2,0,B|456:262|409:298|444:308|394:343|343:325,1,185.999994323731,0|0,0:0|0:0,0:0:0:0:
191,259,171715,1,0,0:0:0:0:
282,243,171813,1,0,0:0:0:0:
239,332,171911,6,0,P|203:302|190:258,1,92.9999971618653,2|0,0:0|0:0,0:0:0:0:
174,99,172107,2,0,P|209:128|222:172,1,92.9999971618653,0|0,0:0|0:0,0:0:0:0:
48,345,172303,1,10,0:0:0:0:
69,254,172401,2,0,L|89:139,1,92.9999971618653,0|0,0:0|0:0,0:0:0:0:
107,50,172597,1,0,0:0:0:0:
28,70,172695,6,0,P|121:131|181:86,1,185.999994323731,2|0,0:0|0:0,0:0:0:0:
412,59,172989,1,0,0:0:0:0:
319,46,173087,2,0,L|211:33,1,92.9999971618653,10|0,0:0|0:0,0:0:0:0:
434,136,173283,2,0,P|479:110|495:46,1,92.9999971618653,0|0,0:0|0:0,0:0:0:0:
319,46,173480,6,0,B|309:118|309:118|329:142|329:142|320:227,1,185.999994323731,2|0,0:0|0:0,0:0:0:0:
312,316,173774,1,0,0:0:0:0:
412,237,173872,2,0,L|320:223,1,92.9999971618653,10|0,0:0|0:0,0:0:0:0:
220,329,174068,2,0,L|311:315,1,92.9999971618653,0|0,0:0|0:0,0:0:0:0:
243,158,174264,5,2,0:0:0:0:
237,204,174362,1,0,0:0:0:0:
232,250,174460,1,0,0:0:0:0:
164,102,174558,5,0,0:0:0:0:
158,148,174656,1,10,0:0:0:0:
153,194,174754,1,0,0:0:0:0:
176,19,174852,5,0,0:0:0:0:
256,82,174950,1,0,0:0:0:0:
73,122,175048,6,0,L|169:100,1,92.9999971618653,2|0,0:0|0:0,0:0:0:0:
402,88,175244,2,0,B|343:76|302:119|339:123|296:166|242:157,1,185.999994323731,0|10,0:0|0:0,0:0:0:0:
129,286,175538,2,0,P|233:283|269:346,1,185.999994323731,0|0,0:0|0:0,0:0:0:0:
63,334,175832,5,2,0:0:0:0:
44,293,175930,1,0,0:0:0:0:
54,248,176028,1,0,0:0:0:0:
198,234,176127,5,0,0:0:0:0:
172,271,176225,1,10,0:0:0:0:
129,286,176323,1,0,0:0:0:0:
44,169,176421,6,0,P|88:172|131:225,1,92.9999971618653,0|0,0:0|0:0,0:0:0:0:
264,278,176617,5,2,0:0:0:0:
264,278,176715,1,0,0:0:0:0:
277,199,176813,2,0,P|233:202|190:255,1,92.9999971618653,0|0,0:0|0:0,0:0:0:0:
338,249,177009,1,10,0:0:0:0:
292,107,177107,2,0,L|272:224,1,92.9999971618653,0|0,0:0|0:0,0:0:0:0:
253,358,177303,1,0,0:0:0:0:
425,343,177401,6,0,B|364:334|364:334|329:367|329:367|237:356,1,185.999994323731,2|0,0:0|0:0,0:0:0:0:
171,266,177695,2,0,L|282:280,2,92.9999971618653,0|10|0,0:0|0:0|0:0,0:0:0:0:
97,323,177989,1,0,0:0:0:0:
140,155,178087,1,0,0:0:0:0:
263,277,178185,6,0,L|171:266,1,92.9999971618653,2|0,0:0|0:0,0:0:0:0:
83,101,178381,2,0,P|182:86|221:155,1,185.999994323731,0|10,0:0|0:0,0:0:0:0:
64,186,178676,2,0,P|60:140|83:100,1,92.9999971618653,0|0,0:0|0:0,0:0:0:0:
220,149,178872,1,0,0:0:0:0:
177,334,178970,6,0,B|165:261|165:261|153:248|153:248|138:147,1,185.999994323731,2|0,0:0|0:0,0:0:0:0:
239,57,179264,2,0,L|216:167,2,92.9999971618653,0|10|0,0:0|0:0|0:0,0:0:0:0:
333,22,179558,2,0,L|313:113,1,92.9999971618653,0|0,0:0|0:0,0:0:0:0:
269,298,179754,5,2,0:0:0:0:
333,231,179852,1,0,0:0:0:0:
339,331,179950,2,0,P|308:364|263:372,1,92.9999971618653,0|0,0:0|0:0,0:0:0:0:
167,248,180146,1,10,0:0:0:0:
108,320,180244,2,0,B|159:268|159:268|284:302,1,185.999994323731,0|0,0:0|0:0,0:0:0:0:
423,346,180538,6,0,B|377:355|377:355|319:318,1,92.9999971618653,2|0,0:0|0:0,0:0:0:0:
477,210,180734,1,0,0:0:0:0:
477,210,180832,2,0,B|507:245|507:245|505:291,1,92.9999971618653,0|10,0:0|0:0,0:0:0:0:
333,231,181028,1,0,0:0:0:0:
333,231,181127,2,0,B|348:186|348:186|389:165,1,92.9999971618653,0|0,0:0|0:0,0:0:0:0:
423,345,181323,5,2,0:0:0:0:
331,331,181421,1,0,0:0:0:0:
238,318,181519,2,0,L|125:301,1,92.9999971618653,0|0,0:0|0:0,0:0:0:0:
160,223,181715,1,10,0:0:0:0:
49,305,181813,2,0,P|159:277|154:211,1,185.999994323731,0|0,0:0|0:0,0:0:0:0:
161,145,182107,5,2,0:0:0:0:
116,157,182205,1,0,0:0:0:0:
87,191,182303,1,0,0:0:0:0:
233,190,182401,2,0,P|244:149|216:89,1,92.9999971618653,0|10,0:0|0:0,0:0:0:0:
157,57,182597,1,0,0:0:0:0:
157,57,182695,2,0,P|145:97|173:157,1,92.9999971618653,0|0,0:0|0:0,0:0:0:0:
399,90,182891,6,0,B|341:59|341:59|201:113,1,185.999994323731,2|0,0:0|0:0,0:0:0:0:
385,182,183185,1,0,0:0:0:0:
385,182,183283,2,0,L|399:86,2,92.9999971618653,10|0|0,0:0|0:0|0:0,0:0:0:0:
413,339,183578,1,0,0:0:0:0:
465,190,183676,6,0,P|410:259|325:238,1,185.999994323731,2|0,0:0|0:0,0:0:0:0:
398,89,183970,1,0,0:0:0:0:
398,89,184068,2,0,L|385:182,1,92.9999971618653,10|0,0:0|0:0,0:0:0:0:
311,330,184264,2,0,L|324:237,1,92.9999971618653,0|0,0:0|0:0,0:0:0:0:
228,102,184460,6,0,B|341:59|341:59|399:90,1,185.999994323731,2|0,0:0|0:0,0:0:0:0:
112,207,184754,1,0,0:0:0:0:
167,264,184852,2,0,P|191:221|174:160,1,92.9999971618653,10|0,0:0|0:0,0:0:0:0:
228,102,185048,1,0,0:0:0:0:
228,102,185146,1,0,0:0:0:0:
83,136,185244,6,0,B|139:113|186:149|151:159|200:194|252:176,1,185.999994323731,2|0,0:0|0:0,0:0:0:0:
394,50,185538,1,0,0:0:0:0:
405,142,185636,2,0,L|418:261,2,92.9999971618653,10|0|0,0:0|0:0|0:0,0:0:0:0:
319,105,185930,1,0,0:0:0:0:
494,211,186029,6,0,P|434:156|336:209,1,185.999994323731,2|0,0:0|0:0,0:0:0:0:
177,216,186323,1,0,0:0:0:0:
200,294,186421,2,0,L|311:274,1,92.9999971618653,10|0,0:0|0:0,0:0:0:0:
136,146,186617,2,0,P|102:186|99:248,1,92.9999971618653,0|0,0:0|0:0,0:0:0:0:
225,384,186813,5,2,0:0:0:0:
212,339,186911,1,0,0:0:0:0:
200,294,187009,1,0,0:0:0:0:
119,314,187107,5,0,0:0:0:0:
106,269,187205,1,10,0:0:0:0:
94,224,187303,1,0,0:0:0:0:
200,294,187401,5,0,0:0:0:0:
94,224,187499,1,0,0:0:0:0:
207,167,187597,5,6,0:0:0:0:
207,167,187695,1,0,0:0:0:0:
258,366,187793,2,0,L|199:293,1,92.9999971618653,0|0,0:0|0:0,0:0:0:0:
94,224,187989,5,8,0:0:0:0:
94,224,188087,1,0,0:0:0:0:
241,80,188185,2,0,L|204:175,1,92.9999971618653,0|0,0:0|0:0,0:0:0:0:
199,293,188381,5,0,0:0:0:0:
199,293,188479,1,0,0:0:0:0:
2,238,188577,2,0,L|93:223,1,92.9999971618653,2|0,0:0|0:0,0:0:0:0:
207,166,188774,5,8,0:0:0:0:
199,293,188872,1,0,0:0:0:0:
93,223,188970,1,2,0:0:0:0:
207,166,189068,1,0,0:0:0:0:
54,329,189166,6,0,B|110:306|157:342|122:352|171:387|223:369,1,185.999994323731,6|0,0:0|0:0,0:0:0:0:
346,193,189460,1,0,2:0:0:0:
298,272,189558,2,0,P|287:316|304:358,2,92.9999971618653,10|0|0,2:0|2:0|2:0,2:2:0:0:
346,193,189852,1,0,0:0:0:0:
512,336,189950,6,0,B|461:275|461:275|334:319,1,185.999994323731,2|0,0:0|0:0,0:0:0:0:
164,154,190244,1,0,0:0:0:0:
254,174,190342,2,0,L|363:195,1,92.9999971618653,10|0,0:0|0:0,0:0:0:0:
99,259,190538,2,0,L|208:237,1,92.9999971618653,0|0,0:0|0:0,0:0:0:0:
237,89,190734,6,0,P|261:133|240:191,1,92.9999971618653,2|0,0:0|0:0,0:0:0:0:
208,324,190930,2,0,P|183:279|204:221,1,92.9999971618653,0|0,0:0|0:0,0:0:0:0:
81,126,191127,6,0,P|127:125|163:153,1,92.9999971618653,10|0,0:0|0:0,0:0:0:0:
345,298,191323,2,0,P|299:299|263:271,1,92.9999971618653,0|0,0:0|0:0,0:0:0:0:
39,254,191519,6,0,P|61:214|103:196,1,92.9999971618653,2|0,0:0|0:0,0:0:0:0:
392,170,191715,2,0,P|369:209|327:227,1,92.9999971618653,0|0,0:0|0:0,0:0:0:0:
132,356,191911,6,0,P|108:317|115:272,1,92.9999971618653,10|0,0:0|0:0,0:0:0:0:
301,66,192107,2,0,P|325:106|319:151,1,92.9999971618653,0|0,0:0|0:0,0:0:0:0:
353,260,192303,6,0,B|297:237|250:273|285:283|236:318|184:300,1,185.999994323731,2|0,0:0|0:0,0:0:0:0:
65,173,192597,1,0,0:0:0:0:
132,122,192695,2,0,P|206:135|198:240,1,185.999994323731,10|0,0:0|0:0,0:0:0:0:
33,346,192989,1,0,0:0:0:0:
49,264,193087,6,0,L|67:157,2,92.9999971618653,2|0|0,0:0|0:0|0:0,0:0:0:0:
116,321,193381,5,0,0:0:0:0:
123,275,193479,1,10,0:0:0:0:
131,229,193577,1,0,0:0:0:0:
33,346,193676,6,0,P|87:345|122:313,1,92.9999971618653,0|0,0:0|0:0,0:0:0:0:
60,102,193872,6,0,B|10:165|10:165|53:276,1,185.999994323731,2|0,0:0|0:0,0:0:0:0:
235,127,194166,1,0,0:0:0:0:
152,114,194264,6,0,L|52:100,1,92.9999971618653,10|0,0:0|0:0,0:0:0:0:
318,140,194460,6,0,L|418:154,1,92.9999971618653,0|0,0:0|0:0,0:0:0:0:
122,32,194656,6,0,P|150:68|146:128,1,92.9999971618653,2|0,0:0|0:0,0:0:0:0:
347,221,194852,6,0,P|319:185|323:125,1,92.9999971618653,0|0,0:0|0:0,0:0:0:0:
59,101,195048,6,0,L|152:114,1,92.9999971618653,10|0,0:0|0:0,0:0:0:0:
410,152,195244,6,0,L|318:140,1,92.9999971618653,0|0,0:0|0:0,0:0:0:0:
59,101,195440,6,0,B|118:88|158:131|121:135|164:178|218:169,1,185.999994323731,2|0,0:0|0:0,0:0:0:0:
424,70,195734,1,0,0:0:0:0:
410,152,195832,2,0,L|394:264,1,92.9999971618653,10|0,0:0|0:0,0:0:0:0:
331,5,196029,2,0,L|347:117,1,92.9999971618653,0|0,0:0|0:0,0:0:0:0:
509,286,196225,6,0,B|454:248|454:248|326:289,1,185.999994323731,2|0,0:0|0:0,0:0:0:0:
167,292,196519,1,0,0:0:0:0:
201,367,196617,2,0,P|262:365|293:322,2,92.9999971618653,10|0|0,0:0|0:0|0:0,0:0:0:0:
94,256,196911,1,0,0:0:0:0:
156,118,197009,6,0,B|123:169|150:221|166:188|192:243|166:291,1,185.999994323731,2|0,0:0|0:0,0:0:0:0:
94,256,197303,1,0,0:0:0:0:
219,160,197401,2,0,L|321:142,1,92.9999971618653,10|0,0:0|0:0,0:0:0:0:
102,341,197597,2,0,P|82:300|92:255,1,92.9999971618653,0|0,0:0|0:0,0:0:0:0:
138,42,197793,6,0,P|219:72|219:160,1,185.999994323731,2|0,0:0|0:0,0:0:0:0:
94,256,198087,1,0,0:0:0:0:
165,291,198185,2,0,B|221:268|268:304|233:314|282:349|334:331,1,185.999994323731,10|0,0:0|0:0,0:0:0:0:
434,278,198480,1,0,0:0:0:0:
417,377,198578,6,0,P|348:334|346:233,1,185.999994323731,2|0,0:0|0:0,0:0:0:0:
329,98,198872,1,0,0:0:0:0:
382,162,198970,2,0,L|494:140,1,92.9999971618653,10|0,0:0|0:0,0:0:0:0:
252,218,199166,2,0,L|364:240,1,92.9999971618653,0|0,0:0|0:0,0:0:0:0:
368,30,199362,6,0,P|267:43|253:128,1,185.999994323731,2|0,0:0|0:0,0:0:0:0:
434,278,199656,1,0,0:0:0:0:
491,217,199754,2,0,B|449:165|449:165|314:204,1,185.999994323731,10|0,0:0|0:0,0:0:0:0:
93,242,200048,1,0,0:0:0:0:
151,371,200146,6,0,B|125:323|151:268|167:301|194:249|161:198,1,185.999994323731,2|0,0:0|0:0,0:0:0:0:
14,14,200440,1,0,0:0:0:0:
21,97,200538,2,0,L|33:209,1,92.9999971618653,10|0,0:0|0:0,0:0:0:0:
239,91,200734,6,0,P|181:30|88:51,1,185.999994323731,0|2,0:0|0:0,0:0:0:0:
250,175,201029,1,0,0:0:0:0:
315,122,201127,2,0,B|371:99|418:135|383:145|432:180|484:162,2,185.999994323731,0|10|0,0:0|0:0|0:0,0:0:0:0:
171,142,201617,1,0,0:0:0:0:
274,359,201715,6,0,L|247:157,1,185.999994323731,2|0,0:0|0:0,0:0:0:0:
239,91,202009,1,0,0:0:0:0:
31,111,202107,2,0,P|144:93|168:174,1,185.999994323731,10|0,0:0|0:0,0:0:0:0:
239,91,202401,1,0,0:0:0:0:
106,329,202499,6,0,B|132:280|106:226|90:259|63:206|95:155,1,185.999994323731,2|0,0:0|0:0,0:0:0:0:
239,91,202793,1,0,0:0:0:0:
116,202,202891,2,0,L|25:217,2,92.9999971618653,10|0|0,0:0|0:0|0:0,0:0:0:0:
193,254,203185,1,0,0:0:0:0:
250,15,203283,6,0,P|161:82|184:148,1,185.999994323731,2|0,0:0|0:0,0:0:0:0:
379,148,203578,1,0,0:0:0:0:
330,274,203676,2,0,L|303:174,1,92.9999971618653,10|0,0:0|0:0,0:0:0:0:
476,26,203872,2,0,L|451:115,1,92.9999971618653,0|0,0:0|0:0,0:0:0:0:
490,287,204068,6,0,B|439:238|439:238|311:280,1,185.999994323731,2|0,0:0|0:0,0:0:0:0:
48,243,204362,1,0,0:0:0:0:
86,327,204460,2,0,P|193:310|186:242,1,185.999994323731,10|0,0:0|0:0,0:0:0:0:
307,140,204754,1,0,0:0:0:0:
163,178,204852,6,0,B|219:155|266:191|231:201|280:236|332:218,1,185.999994323731,2|0,0:0|0:0,0:0:0:0:
379,86,205146,1,0,0:0:0:0:
293,48,205244,2,0,L|308:148,1,92.9999971618653,10|0,0:0|0:0,0:0:0:0:
334,302,205440,1,0,0:0:0:0:
334,302,205538,1,0,0:0:0:0:
438,232,205636,6,0,P|392:324|320:258,1,185.999994323731,2|0,0:0|0:0,0:0:0:0:
215,157,205930,1,0,0:0:0:0:
306,139,206029,2,0,L|422:115,2,92.9999971618653,10|0|0,0:0|0:0|0:0,0:0:0:0:
151,219,206323,1,0,0:0:0:0:
98,62,206421,6,0,P|213:113|214:160,1,185.999994323731,2|0,0:0|0:0,0:0:0:0:
243,241,206715,1,0,0:0:0:0:
151,219,206813,6,0,L|45:195,1,92.9999971618653,10|0,0:0|0:0,0:0:0:0:
335,263,207009,6,0,L|440:286,1,92.9999971618653,0|0,0:0|0:0,0:0:0:0:
121,139,207205,6,0,P|154:185|139:239,1,92.9999971618653,2|0,0:0|0:0,0:0:0:0:
364,342,207401,6,0,P|331:296|346:242,1,92.9999971618653,0|0,0:0|0:0,0:0:0:0:
60,198,207597,6,0,L|151:219,1,92.9999971618653,10|0,0:0|0:0,0:0:0:0:
425,283,207793,6,0,L|335:263,1,92.9999971618653,0|0,0:0|0:0,0:0:0:0:
6,375,207989,6,0,B|56:318|56:318|182:348,1,185.999994323731,6|0,0:0|0:0,0:0:0:0:
231,384,208283,1,0,0:0:0:0:
231,384,208381,2,0,P|243:338|218:280,3,92.9999971618653,8|0|0|0,0:0|0:0|0:0|0:0,0:0:0:0:
304,253,208774,2,0,P|270:219|207:212,3,92.9999971618653,0|0|0|0,0:0|0:0|0:0|0:0,0:0:0:0:
230,130,209166,2,0,P|184:142|146:193,3,92.9999971618653,8|0|0|0,0:0|0:0|0:0|0:0,0:0:0:0:
61,255,209558,6,0,B|117:232|164:268|129:278|178:313|230:295,1,185.999994323731,0|0,0:0|0:0,0:0:0:0:
304,253,209852,1,0,0:0:0:0:
304,253,209950,2,0,P|270:219|207:212,3,92.9999971618653,8|0|0|0,0:0|0:0|0:0|0:0,0:0:0:0:
230,130,210342,2,0,P|184:142|146:193,3,92.9999971618653,0|0|0|0,0:0|0:0|0:0|0:0,0:0:0:0:
86,132,210734,2,0,P|74:177|98:235,3,92.9999971618653,8|0|0|0,0:0|0:0|0:0|0:0,0:0:0:0:
12,263,211127,5,0,0:0:0:0:
31,286,211225,1,0,0:0:0:0:
58,301,211323,1,0,0:0:0:0:
88,306,211421,1,0,0:0:0:0:
230,130,211519,5,8,0:0:0:0:
233,126,211617,1,0,0:0:0:0:
230,123,211715,1,0,0:0:0:0:
227,126,211813,1,0,0:0:0:0:
231,384,211911,5,0,0:0:0:0:
241,355,212009,1,0,0:0:0:0:
241,324,212107,1,0,0:0:0:0:
230,295,212205,1,0,0:0:0:0:
86,132,212303,5,8,0:0:0:0:
84,127,212401,1,0,0:0:0:0:
79,128,212499,1,0,0:0:0:0:
81,132,212597,1,0,0:0:0:0:
304,253,212695,6,0,P|270:219|207:212,19,58.1250022172929,6|0|0|0|0|0|0|0|0|0|0|0|0|0|0|0|0|0|0|0,0:0|0:0|0:0|0:0|0:0|0:0|0:0|0:0|0:0|0:0|0:0|0:0|0:0|0:0|0:0|0:0|0:0|0:0|0:0|0:0,0:0:0:0:
77,241,213676,6,0,L|170:228,1,92.9999971618653,2|0,0:0|0:0,0:0:0:0:
261,215,213872,1,0,0:0:0:0:
204,141,213970,6,0,L|168:228,1,92.9999971618653,2|0,0:0|0:0,0:0:0:0:
134,313,214166,1,0,0:0:0:0:
226,300,214264,6,0,L|168:225,2,92.9999971618653,6|0|0,0:0|0:0|0:0,0:0:0:0:
357,354,214558,1,0,0:0:0:0:
399,289,214656,6,0,B|347:256|295:283|328:299|273:325|225:299,1,185.999994323731,10|0,0:0|0:0,0:0:0:0:
434,357,214950,1,0,0:0:0:0:
501,145,215048,5,2,0:0:0:0:
424,162,215146,2,0,P|374:225|423:304,1,155,0|0,0:0|0:0,0:0:0:0:
495,222,215440,2,0,L|501:132,1,77.5,10|0,0:0|0:0,0:0:0:0:
440,7,215636,2,0,L|446:97,1,77.5,0|0,0:0|0:0,0:0:0:0:
504,347,215832,6,0,B|457:309|457:309|355:342,1,155,2|0,0:0|0:0,0:0:0:0:
214,299,216127,1,0,0:0:0:0:
269,358,216225,2,0,P|290:326|288:269,1,77.5,10|0,0:0|0:0,0:0:0:0:
270,150,216421,2,0,P|249:182|251:239,1,77.5,0|0,0:0|0:0,0:0:0:0:
57,329,216617,5,2,0:0:0:0:
138,315,216715,2,0,L|227:296,2,77.5,0|0|0,0:0|0:0|0:0,0:0:0:0:
103,192,217009,2,0,B|154:218|154:218|135:330,1,155,10|0,0:0|0:0,0:0:0:0:
37,240,217303,1,0,0:0:0:0:
28,160,217401,6,0,P|101:110|161:136,1,155,2|0,0:0|0:0,0:0:0:0:
37,240,217695,1,0,0:0:0:0:
28,160,217793,2,0,L|21:81,1,77.5,10|0,0:0|0:0,0:0:0:0:
43,317,217989,2,0,L|36:238,1,77.5
171,274,218185,1,2,0:0:0:0:
43,317,218283,6,0,B|90:297|130:327|105:335|142:365|185:350,1,155
288,208,218578,2,0,P|192:229|170:274,1,155,10|0,0:0|0:0,0:0:0:0:
302,362,218872,1,0,0:0:0:0:
302,362,218970,6,0,L|285:187,1,155,2|0,0:0|0:0,0:0:0:0:
269,75,219264,1,0,0:0:0:0:
314,136,219362,2,0,P|341:108|339:49,1,77.5,10|0,0:0|0:0,0:0:0:0:
223,9,219558,2,0,P|196:37|198:96,1,77.5,0|0,0:0|0:0,0:0:0:0:
288,208,219754,1,2,0:0:0:0:
454,102,219852,6,0,B|407:82|367:112|397:120|355:150|312:135,1,155,0|0,0:0|0:0,0:0:0:0:
93,171,220146,2,0,P|174:160|212:223,1,155,10|0,0:0|0:0,0:0:0:0:
100,367,220440,1,0,0:0:0:0:
100,367,220538,6,0,B|50:341|50:341|77:221,1,155,2|0,0:0|0:0,0:0:0:0:
145,113,220832,1,0,0:0:0:0:
93,171,220930,2,0,L|17:184,1,77.5,10|0,0:0|0:0,0:0:0:0:
73,81,221127,6,0,P|111:39|168:37,1,116.250004434586,0|0,0:0|0:0,0:0:0:0:
280,196,221323,5,2,0:0:0:0:
350,160,221421,2,0,P|267:116|220:143,1,155,0|0,0:0|0:0,0:0:0:0:
153,245,221715,2,0,B|200:225|240:255|210:263|252:293|295:278,1,155,10|0,0:0|0:0,0:0:0:0:
383,363,222009,1,0,0:0:0:0:
439,309,222107,6,0,L|423:218,1,77.5,2|0,0:0|0:0,0:0:0:0:
463,165,222303,2,0,L|447:74,1,77.5,0|0,0:0|0:0,0:0:0:0:
393,34,222499,1,10,0:0:0:0:
356,102,222597,1,0,0:0:0:0:
288,64,222695,2,0,P|248:50|200:66,1,77.5,0|0,0:0|0:0,0:0:0:0:
99,114,222891,5,2,0:0:0:0:
99,114,222989,2,0,P|135:128|173:122,2,77.5,0|0|0,0:0|0:0|0:0,0:0:0:0:
30,45,223283,2,0,P|82:118|57:184,1,155,10|0,0:0|0:0,0:0:0:0:
146,287,223578,1,0,0:0:0:0:
6,254,223676,6,0,B|53:234|93:264|63:272|105:302|148:287,1,155,2|0,0:0|0:0,0:0:0:0:
224,322,223970,1,0,0:0:0:0:
215,236,224068,1,10,0:0:0:0:
215,236,224166,1,0,0:0:0:0:
224,322,224264,2,0,L|300:310,1,77.5,0|0,0:0|0:0,0:0:0:0:
459,281,224460,5,2,0:0:0:0:
390,332,224558,2,0,P|311:300|307:228,1,155,0|0,0:0|0:0,0:0:0:0:
258,81,224852,2,0,P|336:112|340:184,1,155,10|0,0:0|0:0,0:0:0:0:
303,238,225146,1,0,0:0:0:0:
219,221,225244,6,0,L|134:205,1,77.5,2|0,0:0|0:0,0:0:0:0:
387,255,225440,2,0,L|472:271,1,77.5,0|0,0:0|0:0,0:0:0:0:
279,155,225636,2,0,L|254:72,1,77.5,10|0,0:0|0:0,0:0:0:0:
325,320,225832,2,0,L|350:403,1,77.5,0|0,0:0|0:0,0:0:0:0:
352,160,226029,5,2,0:0:0:0:
242,299,226127,2,0,B|195:279|155:309|185:317|143:347|100:332,1,155,0|0,0:0|0:0,0:0:0:0:
82,199,226421,2,0,P|113:232|117:274,2,77.5,10|0|0,0:0|0:0|0:0,0:0:0:0:
151,65,226715,1,0,0:0:0:0:
37,131,226813,6,0,B|99:118|99:118|131:143|131:143|197:129,1,155,2|0,0:0|0:0,0:0:0:0:
352,160,227107,1,0,0:0:0:0:
340,238,227205,6,0,P|287:210|277:141,1,116.250004434586,10|0,0:0|0:0,0:0:0:0:
386,62,227401,6,0,P|389:118|351:159,1,116.250004434586,0|0,0:0|0:0,0:0:0:0:
329,316,227597,5,2,0:0:0:0:
249,333,227695,2,0,P|269:261|340:238,1,155,0|0,0:0|0:0,0:0:0:0:
405,325,227989,2,0,L|318:314,1,77.5,10|0,0:0|0:0,0:0:0:0:
249,333,228185,2,0,L|172:323,1,77.5,0|0,0:0|0:0,0:0:0:0:
61,225,228381,5,2,0:0:0:0:
61,225,228480,1,0,0:0:0:0:
111,366,228578,2,0,P|96:330|117:272,1,77.5,0|0,0:0|0:0,0:0:0:0:
163,249,228774,2,0,P|178:285|157:343,1,77.5,10|0,0:0|0:0,0:0:0:0:
111,366,228970,2,0,P|96:330|117:272,1,77.5,0|0,0:0|0:0,0:0:0:0:
195,94,229166,5,2,0:0:0:0:
119,110,229264,2,0,L|33:131,2,77.5,0|0|0,0:0|0:0|0:0,0:0:0:0:
233,164,229558,2,0,P|275:85|236:22,1,155,10|0,0:0|0:0,0:0:0:0:
108,203,229852,1,0,0:0:0:0:
108,203,229950,6,0,B|155:183|195:213|165:221|207:251|250:236,1,155,2|0,0:0|0:0,0:0:0:0:
362,296,230244,1,0,0:0:0:0:
399,228,230342,2,0,L|383:140,1,77.5,10|0,0:0|0:0,0:0:0:0:
348,372,230538,2,0,L|364:284,1,77.5,0|0,0:0|0:0,0:0:0:0:
385,151,230734,5,2,0:0:0:0:
477,242,230832,2,0,P|435:303|362:296,1,155,0|0,0:0|0:0,0:0:0:0:
302,138,231127,2,0,L|315:214,2,77.5,10|0|0,0:0|0:0|0:0,0:0:0:0:
321,63,231421,1,0,0:0:0:0:
453,128,231519,6,0,L|376:116,1,77.5,2|0,0:0|0:0,0:0:0:0:
215,155,231715,2,0,P|272:141|315:217,1,155,0|10,0:0|0:0,0:0:0:0:
346,287,232009,1,0,0:0:0:0:
269,273,232107,2,0,L|173:258,1,77.5,0|0,0:0|0:0,0:0:0:0:
127,224,232303,1,2,0:0:0:0:
137,372,232401,6,0,B|154:333|135:286|123:313|105:270|129:222,1,155,0|0,0:0|0:0,0:0:0:0:
35,174,232695,2,0,P|72:169|101:143,1,77.5,10|0,0:0|0:0,0:0:0:0:
45,25,232891,2,0,P|30:61|38:98,1,77.5,0|0,0:0|0:0,0:0:0:0:
170,108,233087,6,0,P|146:77|110:65,2,77.5
282,204,233381,1,0,0:0:0:0:
282,204,233480,2,0,P|312:180|324:144,1,77.5,8|0,0:0|0:0,0:0:0:0:
233,61,233676,2,0,P|251:95|246:133,1,77.5
390,314,233872,1,0,0:0:0:0:
411,240,233970,6,0,B|361:226|321:256|351:264|309:294|266:279,1,155,0|0,0:0|0:0,0:0:0:0:
85,352,234264,2,0,P|176:359|202:300,1,155,8|0,0:0|0:0,0:0:0:0:
209,237,234558,1,0,0:0:0:0:
201,312,234656,5,10,3:0:0:0:
176,307,234754,1,2,3:0:0:0:
154,293,234852,1,2,3:0:0:0:
140,272,234950,1,2,3:0:0:0:
145,195,235048,5,10,3:0:0:0:
161,175,235146,1,2,3:0:0:0:
184,163,235244,1,2,3:0:0:0:
209,162,235342,1,2,3:0:0:0:
275,205,235440,5,10,3:0:0:0:
284,228,235538,1,2,3:0:0:0:
283,254,235636,1,2,3:0:0:0:
271,276,235734,1,2,3:0:0:0:
209,237,235832,5,10,3:0:0:0:
208,236,235930,1,2,3:0:0:0:
209,235,236029,1,2,3:0:0:0:
209,236,236127,1,2,3:0:0:0:
271,276,236225,5,10,0:3:0:0:
283,254,236323,1,2,0:3:0:0:
284,228,236421,1,2,0:3:0:0:
275,205,236519,1,2,0:3:0:0:
149,58,236617,5,10,0:3:0:0:
136,81,236715,1,2,0:3:0:0:
135,107,236813,1,2,0:3:0:0:
144,129,236911,1,2,0:3:0:0:
335,169,237009,5,10,0:3:0:0:
321,147,237107,1,2,0:3:0:0:
299,133,237205,1,2,0:3:0:0:
275,130,237303,1,2,0:3:0:0:
84,165,237401,5,10,0:3:0:0:
98,188,237499,1,2,0:3:0:0:
120,201,237597,1,2,0:3:0:0:
143,205,237695,1,2,0:3:0:0:
274,60,237793,5,14,0:3:0:0:
248,61,237891,1,2,0:3:0:0:
225,73,237989,1,2,0:3:0:0:
210,92,238087,1,2,0:3:0:0:
144,274,238186,5,10,0:3:0:0:
171,274,238284,1,2,0:3:0:0:
193,261,238382,1,2,0:3:0:0:
208,243,238480,1,2,0:3:0:0:
271,276,238578,6,0,L|328:263,3,38.75,2|2|2|2,0:3|0:3|0:3|0:3,0:0:0:0:
268,202,238774,6,0,P|279:238|271:276,1,77.5,2|0,0:0|0:0,0:0:0:0:
417,380,238970,1,0,0:0:0:0:
348,342,239068,6,0,P|373:313|410:302,1,77.5,2|0,0:0|0:0,0:0:0:0:
429,123,239264,1,0,0:0:0:0:
430,203,239362,6,0,P|392:194|364:168,1,77.5,14|0,0:0|0:0,0:0:0:0:
269,303,239558,1,0,0:0:0:0:
269,303,239656,1,0,0:0:0:0:
269,303,239754,2,0,L|257:366,3,58.1250022172929,2|0|0|0,0:0|0:0|0:0|0:0,0:0:0:0:
360,256,240146,1,2,0:0:0:0:
360,256,240244,1,0,0:0:0:0:
360,256,240342,2,0,L|348:319,1,58.1250022172929,0|0,0:0|0:0,0:0:0:0:
451,209,240538,1,2,0:0:0:0:
448,228,240636,1,0,0:0:0:0:
444,247,240734,1,0,0:0:0:0:
441,266,240832,1,0,0:0:0:0:
366,112,240930,6,0,L|378:175,3,58.1250022172929,2|0|0|0,0:0|0:0|0:0|0:0,0:0:0:0:
280,61,241322,1,2,0:0:0:0:
280,61,241420,1,0,0:0:0:0:
280,61,241519,2,0,L|291:118,1,58.1250022172929,0|0,0:0|0:0,0:0:0:0:
193,11,241715,1,2,0:0:0:0:
197,30,241813,1,0,0:0:0:0:
201,49,241911,1,0,0:0:0:0:
204,68,242009,1,0,0:0:0:0:
144,131,242107,1,2,0:0:0:0:
148,150,242205,1,0,0:0:0:0:
152,169,242303,1,0,0:0:0:0:
155,188,242401,1,0,0:0:0:0:
112,270,242499,6,0,L|40:264,3,58.1250022172929,2|0|0|0,0:0|0:0|0:0|0:0,0:0:0:0:
207,350,242891,1,2,0:0:0:0:
207,350,242989,1,0,0:0:0:0:
207,350,243087,2,0,L|135:344,1,58.1250022172929,0|0,0:0|0:0,0:0:0:0:
315,289,243283,1,2,0:0:0:0:
296,287,243381,1,0,0:0:0:0:
277,285,243479,1,0,0:0:0:0:
258,284,243577,1,0,0:0:0:0:
410,368,243675,1,2,0:0:0:0:
390,367,243773,1,0,0:0:0:0:
371,365,243871,1,0,0:0:0:0:
352,363,243969,1,0,0:0:0:0:
398,284,244067,6,0,L|387:226,3,58.1250022172929,2|0|0|0,0:0|0:0|0:0|0:0,0:0:0:0:
305,196,244460,1,2,0:0:0:0:
305,196,244558,1,0,0:0:0:0:
305,196,244656,2,0,L|294:138,1,58.1250022172929,0|0,0:0|0:0,0:0:0:0:
210,118,244852,1,2,0:0:0:0:
207,98,244950,1,0,0:0:0:0:
203,79,245048,1,0,0:0:0:0:
200,60,245146,1,0,0:0:0:0:
132,155,245244,1,2,0:0:0:0:
129,135,245342,1,0,0:0:0:0:
125,116,245440,1,0,0:0:0:0:
122,97,245538,1,0,0:0:0:0:
57,193,245636,6,0,L|52:164,7,29.0625011086464,2|0|0|0|0|0|0|0,0:0|0:0|0:0|0:0|0:0|0:0|0:0|0:0,0:0:0:0:
73,273,246028,1,2,0:0:0:0:
0,324,246225,6,0,P|48:314|74:272,1,100.749995388031,0|0,0:0|0:0,0:0:0:0:
144,231,246420,5,2,0:0:0:0:
144,231,246518,1,0,0:0:0:0:
144,231,246616,2,0,P|176:245|228:239,1,58.1250022172929,0|0,0:0|0:0,0:0:0:0:
205,328,246813,1,2,0:0:0:0:
224,324,246911,1,0,0:0:0:0:
242,316,247009,1,0,0:0:0:0:
257,304,247107,1,0,0:0:0:0:
313,358,247205,6,0,L|382:369,3,58.1250022172929,2|0|0|0,0:0|0:0|0:0|0:0,0:0:0:0:
348,282,247597,1,2,0:0:0:0:
348,282,247695,1,0,0:0:0:0:
348,282,247793,2,0,L|417:293,1,58.1250022172929,0|0,0:0|0:0,0:0:0:0:
379,208,247989,1,2,0:0:0:0:
399,211,248087,1,0,0:0:0:0:
418,214,248185,1,0,0:0:0:0:
437,217,248283,1,0,0:0:0:0:
332,122,248381,1,2,0:0:0:0:
352,125,248479,1,0,0:0:0:0:
371,128,248577,1,0,0:0:0:0:
390,131,248675,1,0,0:0:0:0:
263,184,248773,6,0,L|244:112,3,58.1250022172929,2|0|0|0,0:0|0:0|0:0|0:0,0:0:0:0:
199,262,249165,1,2,0:0:0:0:
199,262,249264,1,0,0:0:0:0:
199,262,249362,2,0,L|180:190,1,58.1250022172929,0|0,0:0|0:0,0:0:0:0:
127,339,249558,1,2,0:0:0:0:
122,320,249656,1,0,0:0:0:0:
117,301,249754,1,0,0:0:0:0:
112,282,249852,1,0,0:0:0:0:
214,318,249950,1,2,0:0:0:0:
209,300,250048,1,0,0:0:0:0:
204,281,250146,1,0,0:0:0:0:
199,262,250244,1,0,0:0:0:0:
273,372,250342,6,0,P|294:339|296:306,3,58.1250022172929,2|0|0|0,0:0|0:0|0:0|0:0,0:0:0:0:
379,291,250734,1,2,0:0:0:0:
379,291,250832,1,0,0:0:0:0:
379,291,250930,2,0,P|361:256|334:238,1,58.1250022172929,0|0,0:0|0:0,0:0:0:0:
357,158,251126,1,2,0:0:0:0:
338,154,251224,1,0,0:0:0:0:
319,156,251322,1,0,0:0:0:0:
301,162,251420,1,0,0:0:0:0:
236,104,251518,1,2,0:0:0:0:
224,119,251616,1,0,0:0:0:0:
216,136,251714,1,0,0:0:0:0:
212,155,251812,1,0,0:0:0:0:
127,177,251911,6,0,L|122:206,7,29.0625011086464,2|0|0|0|0|0|0|0,0:0|0:0|0:0|0:0|0:0|0:0|0:0|0:0,0:0:0:0:
143,97,252303,1,2,0:0:0:0:
70,46,252499,6,0,P|118:56|144:98,1,100.749995388031,0|0,0:0|0:0,0:0:0:0:
127,177,252695,1,2,0:0:0:0:
127,177,252793,1,0,0:0:0:0:
127,177,252891,2,0,L|114:245,1,58.1250022172929,0|0,0:0|0:0,0:0:0:0:
106,314,253087,1,2,0:0:0:0:
126,314,253185,1,0,0:0:0:0:
144,308,253283,1,0,0:0:0:0:
160,297,253381,1,0,0:0:0:0:
225,353,253479,6,0,L|289:344,3,58.1250022172929,2|0|0|0,0:0|0:0|0:0|0:0,0:0:0:0:
259,261,253871,1,2,0:0:0:0:
259,261,253969,1,0,0:0:0:0:
259,261,254067,2,0,L|323:252,1,58.1250022172929,0|0,0:0|0:0,0:0:0:0:
286,170,254264,1,2,0:0:0:0:
306,167,254362,1,0,0:0:0:0:
325,164,254460,1,0,0:0:0:0:
344,161,254558,1,0,0:0:0:0:
206,103,254656,1,2,0:0:0:0:
225,100,254754,1,0,0:0:0:0:
244,97,254852,1,0,0:0:0:0:
263,94,254950,1,0,0:0:0:0:
142,151,255048,6,0,P|125:122|135:72,3,58.1250022172929,2|0|0|0,0:0|0:0|0:0|0:0,0:0:0:0:
198,223,255440,1,2,0:0:0:0:
198,223,255538,1,0,0:0:0:0:
198,223,255636,2,0,L|185:285,1,58.1250022172929,0|0,0:0|0:0,0:0:0:0:
91,310,255832,1,2,0:0:0:0:
95,291,255930,1,0,0:0:0:0:
99,272,256028,1,0,0:0:0:0:
103,253,256126,1,0,0:0:0:0:
1,338,256224,1,2,0:0:0:0:
5,319,256322,1,0,0:0:0:0:
9,300,256420,1,0,0:0:0:0:
13,281,256518,1,0,0:0:0:0:
74,381,256616,6,0,P|102:383|130:371,3,58.1250022172929,2|0|0|0,0:0|0:0|0:0|0:0,0:0:0:0:
212,339,257009,1,2,0:0:0:0:
212,339,257107,1,0,0:0:0:0:
212,339,257205,2,0,P|200:313|176:295,1,58.1250022172929,0|0,0:0|0:0,0:0:0:0:
108,242,257401,1,2,0:0:0:0:
97,257,257499,1,0,0:0:0:0:
90,275,257597,1,0,0:0:0:0:
89,294,257695,1,0,0:0:0:0:
74,381,257793,1,2,0:0:0:0:
94,383,257891,1,0,0:0:0:0:
113,380,257989,1,0,0:0:0:0:
130,371,258087,1,0,0:0:0:0:
177,295,258185,6,0,L|182:266,7,29.0625011086464,2|0|0|0|0|0|0|0,0:0|0:0|0:0|0:0|0:0|0:0|0:0|0:0,0:0:0:0:
277,307,258577,1,2,0:0:0:0:
177,295,258774,6,0,L|295:310,1,100.749995388031,0|0,0:0|0:0,0:0:0:0:
340,363,258969,5,2,0:0:0:0:
340,363,259067,1,0,0:0:0:0:
340,363,259165,2,0,P|358:323|357:298,1,58.1250022172929,0|0,0:0|0:0,0:0:0:0:
430,257,259362,5,2,0:0:0:0:
430,257,259460,1,0,0:0:0:0:
430,257,259558,2,0,P|398:227|374:220,1,58.1250022172929,0|0,0:0|0:0,0:0:0:0:
360,139,259754,5,2,2:0:0:0:
360,139,259852,1,0,2:0:0:0:
360,139,259950,2,0,P|322:160|309:181,1,58.1250022172929,0|0,2:0|2:0,2:2:0:0:
227,168,260146,5,2,2:0:0:0:
227,168,260244,1,0,2:0:0:0:
227,168,260342,2,0,P|236:210|252:230,1,58.1250022172929,0|0,2:0|2:0,2:2:0:0:
221,306,260538,5,2,2:0:0:0:
221,306,260636,1,0,2:0:0:0:
221,306,260734,2,0,P|265:310|289:302,1,58.1250022172929,0|0,2:0|2:0,2:2:0:0:
340,363,260930,5,2,0:0:0:0:
340,363,261028,1,0,0:0:0:0:
340,363,261126,2,0,P|358:323|357:298,1,58.1250022172929,0|0,0:0|0:0,0:0:0:0:
360,139,261322,5,2,0:0:0:0:
342,145,261420,1,0,0:0:0:0:
326,156,261518,1,0,0:0:0:0:
314,171,261616,1,0,0:0:0:0:
221,306,261714,5,2,0:0:0:0:
240,310,261812,1,0,0:0:0:0:
260,310,261910,1,0,0:0:0:0:
278,306,262008,1,0,0:0:0:0:
430,257,262107,5,2,0:0:0:0:
419,241,262205,1,0,0:0:0:0:
404,229,262303,1,0,0:0:0:0:
386,222,262401,1,0,0:0:0:0:
227,168,262499,5,2,0:0:0:0:
229,187,262597,1,0,0:0:0:0:
234,205,262695,1,0,0:0:0:0:
245,221,262793,1,0,0:0:0:0:
340,363,262891,6,0,P|358:323|357:298,32,58.1250022172929,6|0|0|0|0|0|0|0|0|0|0|0|0|0|0|0|0|0|0|0|0|0|0|0|0|0|0|0|0|0|0|0|4,0:0|0:0|0:0|0:0|0:0|0:0|0:0|0:0|0:0|0:0|0:0|0:0|0:0|0:0|0:0|0:0|0:0|0:0|0:0|0:0|0:0|0:0|0:0|0:0|0:0|0:0|0:0|0:0|0:0|0:0|0:0|0:0|0:0,0:0:0:0:
