osu file format v14

[General]
AudioFilename: audio.mp3
AudioLeadIn: 0
PreviewTime: 88471
Countdown: 1
SampleSet: Soft
StackLeniency: 0.7
Mode: 3
LetterboxInBreaks: 0
SpecialStyle: 0
WidescreenStoryboard: 0

[Editor]
DistanceSpacing: 0.8
BeatDivisor: 4
GridSize: 8
TimelineZoom: 1.8

[Metadata]
Title:The Truth Never Spoken
TitleUnicode:The Truth Never Spoken
Artist:3R2
ArtistUnicode:3R2
Creator:[Crz]Rachel
Version:Empty Pages
Source:Rabi-Ribi
Tags:Noah Video Game Electronic Instrumental OST Original Soundtrack ラビ-リビ ラビリビ RabiRibi CreSpirit Kevin Tseng 曾鎧維 CUSA-08233
BeatmapID:3260902
BeatmapSetID:808948

[Difficulty]
HPDrainRate:8
CircleSize:4
OverallDifficulty:8
ApproachRate:5
SliderMultiplier:1.4
SliderTickRate:1

[Events]
//Background and Video events
0,0,"noah.png",0,0
//Break Periods
//Storyboard Layer 0 (Background)
//Storyboard Layer 1 (Fail)
//Storyboard Layer 2 (Pass)
//Storyboard Layer 3 (Foreground)
//Storyboard Layer 4 (Overlay)
//Storyboard Sound Samples

[TimingPoints]
881,392.156862745098,4,2,0,0,1,0

[HitObjects]
64,192,881,5,0,0:0:0:0:
448,192,881,1,0,0:0:0:0:
192,192,1077,1,0,0:0:0:0:
320,192,1273,1,0,0:0:0:0:
192,192,1665,1,0,0:0:0:0:
64,192,1665,1,0,0:0:0:0:
320,192,2449,1,0,0:0:0:0:
448,192,2449,1,0,0:0:0:0:
64,192,2449,1,0,0:0:0:0:
192,192,2645,1,0,0:0:0:0:
320,192,2841,1,0,0:0:0:0:
448,192,2841,1,0,0:0:0:0:
64,192,3233,1,0,0:0:0:0:
192,192,3233,1,0,0:0:0:0:
448,192,3233,1,0,0:0:0:0:
64,192,3626,1,0,0:0:0:0:
320,192,3626,1,0,0:0:0:0:
448,192,3626,1,0,0:0:0:0:
64,192,4018,1,0,0:0:0:0:
448,192,4018,1,0,0:0:0:0:
320,192,4214,1,0,0:0:0:0:
192,192,4410,1,0,0:0:0:0:
64,192,4606,1,0,0:0:0:0:
320,192,4606,1,0,0:0:0:0:
448,192,4606,1,0,0:0:0:0:
64,192,5586,1,0,0:0:0:0:
192,192,5586,1,0,0:0:0:0:
448,192,5586,1,0,0:0:0:0:
192,192,5782,1,0,0:0:0:0:
320,192,5782,1,0,0:0:0:0:
64,192,5979,1,0,0:0:0:0:
320,192,5979,1,0,0:0:0:0:
448,192,5979,1,0,0:0:0:0:
192,192,6175,1,0,0:0:0:0:
448,192,6175,1,0,0:0:0:0:
192,192,6371,1,0,0:0:0:0:
320,192,6371,1,0,0:0:0:0:
64,192,6371,1,0,0:0:0:0:
448,192,6567,1,0,0:0:0:0:
64,192,6567,1,0,0:0:0:0:
192,192,6763,1,0,0:0:0:0:
448,192,6763,1,0,0:0:0:0:
192,192,6959,1,0,0:0:0:0:
320,192,6959,1,0,0:0:0:0:
64,192,7155,1,0,0:0:0:0:
320,192,7155,1,0,0:0:0:0:
448,192,7155,1,0,0:0:0:0:
192,192,7351,1,0,0:0:0:0:
320,192,7547,1,0,0:0:0:0:
64,192,7939,1,0,0:0:0:0:
192,192,7939,1,0,0:0:0:0:
448,192,7939,1,0,0:0:0:0:
64,192,8724,1,0,0:0:0:0:
192,192,8724,1,0,0:0:0:0:
448,192,8724,1,0,0:0:0:0:
320,192,8920,1,0,0:0:0:0:
192,192,9116,1,0,0:0:0:0:
64,192,9116,1,0,0:0:0:0:
320,192,9508,1,0,0:0:0:0:
448,192,9508,1,0,0:0:0:0:
64,192,9508,1,0,0:0:0:0:
64,192,10292,1,0,0:0:0:0:
448,192,10292,1,0,0:0:0:0:
192,192,10488,1,0,0:0:0:0:
320,192,10684,1,0,0:0:0:0:
64,192,10881,1,0,0:0:0:0:
192,192,10881,1,0,0:0:0:0:
448,192,10881,1,0,0:0:0:0:
64,192,11469,1,0,0:0:0:0:
320,192,11469,1,0,0:0:0:0:
448,192,11469,1,0,0:0:0:0:
64,192,11861,1,0,0:0:0:0:
448,192,11861,1,0,0:0:0:0:
192,192,12057,1,0,0:0:0:0:
320,192,12253,1,0,0:0:0:0:
64,192,12645,1,0,0:0:0:0:
192,192,12645,1,0,0:0:0:0:
448,192,12645,1,0,0:0:0:0:
448,192,13037,1,0,0:0:0:0:
320,192,13086,1,0,0:0:0:0:
192,192,13135,1,0,0:0:0:0:
64,192,13184,1,0,0:0:0:0:
448,192,13233,1,0,0:0:0:0:
320,192,13282,1,0,0:0:0:0:
192,192,13331,1,0,0:0:0:0:
64,192,13381,1,0,0:0:0:0:
320,192,13430,1,0,0:0:0:0:
448,192,13430,1,0,0:0:0:0:
192,192,13626,1,0,0:0:0:0:
64,192,13822,1,0,0:0:0:0:
320,192,13822,1,0,0:0:0:0:
448,192,13822,1,0,0:0:0:0:
64,192,14214,1,0,0:0:0:0:
192,192,14214,1,0,0:0:0:0:
448,192,14214,1,0,0:0:0:0:
64,192,14998,1,0,0:0:0:0:
192,192,14998,1,0,0:0:0:0:
320,192,14998,1,0,0:0:0:0:
64,192,15390,1,0,0:0:0:0:
320,192,15390,1,0,0:0:0:0:
448,192,15390,1,0,0:0:0:0:
192,192,15782,1,0,0:0:0:0:
320,192,15782,1,0,0:0:0:0:
448,192,15782,1,0,0:0:0:0:
64,192,16175,1,0,0:0:0:0:
192,192,16175,1,0,0:0:0:0:
448,192,16175,1,0,0:0:0:0:
64,192,16567,1,0,0:0:0:0:
320,192,16567,1,0,0:0:0:0:
448,192,16567,1,0,0:0:0:0:
192,192,16763,1,0,0:0:0:0:
320,192,16959,1,0,0:0:0:0:
192,192,17155,1,0,0:0:0:0:
64,192,17155,1,0,0:0:0:0:
448,192,17155,1,0,0:0:0:0:
64,192,18135,1,0,0:0:0:0:
192,192,18135,1,0,0:0:0:0:
448,192,18135,1,0,0:0:0:0:
192,192,18331,1,0,0:0:0:0:
320,192,18331,1,0,0:0:0:0:
64,192,18528,1,0,0:0:0:0:
320,192,18528,1,0,0:0:0:0:
64,192,18724,1,0,0:0:0:0:
448,192,18724,1,0,0:0:0:0:
192,192,18920,1,0,0:0:0:0:
448,192,18920,1,0,0:0:0:0:
320,192,18920,1,0,0:0:0:0:
64,192,19116,1,0,0:0:0:0:
448,192,19116,1,0,0:0:0:0:
320,192,19116,1,0,0:0:0:0:
64,192,19312,1,0,0:0:0:0:
192,192,19312,1,0,0:0:0:0:
320,192,19312,1,0,0:0:0:0:
192,192,19508,1,0,0:0:0:0:
448,192,19508,1,0,0:0:0:0:
64,192,19508,1,0,0:0:0:0:
320,192,19704,1,0,0:0:0:0:
448,192,19704,1,0,0:0:0:0:
64,192,19704,1,0,0:0:0:0:
192,192,19900,1,0,0:0:0:0:
320,192,20096,1,0,0:0:0:0:
64,192,20488,1,0,0:0:0:0:
192,192,20488,1,0,0:0:0:0:
448,192,20488,1,0,0:0:0:0:
64,192,21273,1,0,0:0:0:0:
448,192,21273,1,0,0:0:0:0:
320,192,21469,1,0,0:0:0:0:
192,192,21665,1,0,0:0:0:0:
64,192,22057,1,0,0:0:0:0:
320,192,22057,1,0,0:0:0:0:
448,192,22057,1,0,0:0:0:0:
64,192,22841,1,0,0:0:0:0:
448,192,22841,1,0,0:0:0:0:
320,192,23037,1,0,0:0:0:0:
192,192,23233,1,0,0:0:0:0:
64,192,23430,1,0,0:0:0:0:
320,192,23430,1,0,0:0:0:0:
448,192,23430,1,0,0:0:0:0:
192,192,24018,1,0,0:0:0:0:
320,192,24018,1,0,0:0:0:0:
448,192,24018,1,0,0:0:0:0:
64,192,24410,1,0,0:0:0:0:
192,192,24410,1,0,0:0:0:0:
448,192,24410,1,0,0:0:0:0:
64,192,24802,1,0,0:0:0:0:
192,192,24998,1,0,0:0:0:0:
64,192,25390,1,0,0:0:0:0:
320,192,25390,1,0,0:0:0:0:
448,192,25390,1,0,0:0:0:0:
192,192,25586,1,0,0:0:0:0:
320,192,25782,1,0,0:0:0:0:
448,192,25782,1,0,0:0:0:0:
64,192,25979,1,0,0:0:0:0:
192,192,25979,1,0,0:0:0:0:
448,192,25979,1,0,0:0:0:0:
320,192,26077,1,0,0:0:0:0:
192,192,26175,1,0,0:0:0:0:
64,192,26175,1,0,0:0:0:0:
448,192,26273,1,0,0:0:0:0:
64,192,26371,1,0,0:0:0:0:
320,192,26371,1,0,0:0:0:0:
192,192,26371,1,0,0:0:0:0:
448,192,26469,1,0,0:0:0:0:
192,192,26567,1,0,0:0:0:0:
320,192,26567,1,0,0:0:0:0:
64,192,26665,1,0,0:0:0:0:
192,192,26763,1,0,0:0:0:0:
448,192,26763,1,0,0:0:0:0:
320,192,26763,1,0,0:0:0:0:
64,192,26861,1,0,0:0:0:0:
448,192,26959,1,0,0:0:0:0:
320,192,26959,1,0,0:0:0:0:
192,192,27057,1,0,0:0:0:0:
320,192,27155,1,0,0:0:0:0:
448,192,27155,1,0,0:0:0:0:
64,192,27155,1,0,0:0:0:0:
192,192,27253,1,0,0:0:0:0:
320,192,27351,1,0,0:0:0:0:
448,192,27351,1,0,0:0:0:0:
64,192,27449,1,0,0:0:0:0:
192,192,27547,1,0,0:0:0:0:
448,192,27547,1,0,0:0:0:0:
320,192,27547,1,0,0:0:0:0:
64,192,27645,1,0,0:0:0:0:
320,192,27743,1,0,0:0:0:0:
448,192,27743,1,0,0:0:0:0:
192,192,27841,1,0,0:0:0:0:
64,192,27939,1,0,0:0:0:0:
320,192,27939,1,0,0:0:0:0:
448,192,27939,1,0,0:0:0:0:
192,192,28037,1,0,0:0:0:0:
64,192,28135,1,0,0:0:0:0:
448,192,28135,1,0,0:0:0:0:
320,192,28233,1,0,0:0:0:0:
192,192,28331,1,0,0:0:0:0:
448,192,28331,1,0,0:0:0:0:
64,192,28331,1,0,0:0:0:0:
320,192,28430,1,0,0:0:0:0:
64,192,28528,1,0,0:0:0:0:
192,192,28528,1,0,0:0:0:0:
448,192,28626,1,0,0:0:0:0:
64,192,28724,1,0,0:0:0:0:
320,192,28724,1,0,0:0:0:0:
192,192,28724,1,0,0:0:0:0:
448,192,28822,1,0,0:0:0:0:
64,192,28920,1,0,0:0:0:0:
320,192,28920,1,0,0:0:0:0:
192,192,29018,1,0,0:0:0:0:
64,192,29116,1,0,0:0:0:0:
320,192,29116,1,0,0:0:0:0:
448,192,29116,1,0,0:0:0:0:
192,192,29214,1,0,0:0:0:0:
320,192,29312,1,0,0:0:0:0:
448,192,29312,1,0,0:0:0:0:
64,192,29410,1,0,0:0:0:0:
192,192,29508,1,0,0:0:0:0:
448,192,29508,1,0,0:0:0:0:
320,192,29606,1,0,0:0:0:0:
192,192,29704,1,0,0:0:0:0:
64,192,29704,1,0,0:0:0:0:
448,192,29704,1,0,0:0:0:0:
320,192,29802,1,0,0:0:0:0:
64,192,29900,1,0,0:0:0:0:
192,192,29900,1,0,0:0:0:0:
448,192,29998,1,0,0:0:0:0:
64,192,30096,1,0,0:0:0:0:
320,192,30096,1,0,0:0:0:0:
192,192,30194,1,0,0:0:0:0:
64,192,30292,1,0,0:0:0:0:
320,192,30292,1,0,0:0:0:0:
448,192,30292,1,0,0:0:0:0:
192,192,30390,1,0,0:0:0:0:
320,192,30488,1,0,0:0:0:0:
448,192,30488,1,0,0:0:0:0:
64,192,30586,1,0,0:0:0:0:
192,192,30684,1,0,0:0:0:0:
448,192,30684,1,0,0:0:0:0:
320,192,30782,1,0,0:0:0:0:
448,192,30880,1,0,0:0:0:0:
64,192,30880,1,0,0:0:0:0:
192,192,30880,1,0,0:0:0:0:
448,192,30979,1,0,0:0:0:0:
64,192,31077,1,0,0:0:0:0:
320,192,31077,1,0,0:0:0:0:
192,192,31077,1,0,0:0:0:0:
64,192,31175,1,0,0:0:0:0:
192,192,31273,1,0,0:0:0:0:
320,192,31273,1,0,0:0:0:0:
448,192,31273,1,0,0:0:0:0:
320,192,31371,1,0,0:0:0:0:
192,192,31469,1,0,0:0:0:0:
448,192,31469,1,0,0:0:0:0:
64,192,31469,1,0,0:0:0:0:
192,192,31567,1,0,0:0:0:0:
320,192,31665,1,0,0:0:0:0:
64,192,31665,1,0,0:0:0:0:
448,192,31665,1,0,0:0:0:0:
448,192,31763,1,0,0:0:0:0:
64,192,31861,1,0,0:0:0:0:
192,192,31861,1,0,0:0:0:0:
320,192,31861,1,0,0:0:0:0:
192,192,31959,1,0,0:0:0:0:
64,192,32057,1,0,0:0:0:0:
448,192,32057,1,0,0:0:0:0:
320,192,32057,1,0,0:0:0:0:
320,192,32155,1,0,0:0:0:0:
64,192,32253,1,0,0:0:0:0:
192,192,32253,1,0,0:0:0:0:
448,192,32253,1,0,0:0:0:0:
64,192,32351,1,0,0:0:0:0:
320,192,32449,1,0,0:0:0:0:
448,192,32449,1,0,0:0:0:0:
64,192,32547,1,0,0:0:0:0:
192,192,32645,1,0,0:0:0:0:
320,192,32645,1,0,0:0:0:0:
448,192,32645,1,0,0:0:0:0:
64,192,32743,1,0,0:0:0:0:
192,192,32841,1,0,0:0:0:0:
448,192,32841,1,0,0:0:0:0:
320,192,32939,1,0,0:0:0:0:
192,192,33037,1,0,0:0:0:0:
64,192,33037,1,0,0:0:0:0:
448,192,33037,1,0,0:0:0:0:
320,192,33135,1,0,0:0:0:0:
64,192,33233,1,0,0:0:0:0:
192,192,33233,1,0,0:0:0:0:
448,192,33331,1,0,0:0:0:0:
64,192,33430,1,0,0:0:0:0:
320,192,33430,1,0,0:0:0:0:
192,192,33430,1,0,0:0:0:0:
448,192,33528,1,0,0:0:0:0:
64,192,33626,1,0,0:0:0:0:
320,192,33626,1,0,0:0:0:0:
192,192,33724,1,0,0:0:0:0:
320,192,33822,1,0,0:0:0:0:
448,192,33822,1,0,0:0:0:0:
64,192,33822,1,0,0:0:0:0:
192,192,33920,1,0,0:0:0:0:
320,192,34018,1,0,0:0:0:0:
448,192,34018,1,0,0:0:0:0:
64,192,34116,1,0,0:0:0:0:
192,192,34214,1,0,0:0:0:0:
448,192,34214,1,0,0:0:0:0:
320,192,34214,1,0,0:0:0:0:
64,192,34312,1,0,0:0:0:0:
192,192,34410,1,0,0:0:0:0:
448,192,34410,1,0,0:0:0:0:
320,192,34508,1,0,0:0:0:0:
192,192,34606,1,0,0:0:0:0:
64,192,34606,1,0,0:0:0:0:
448,192,34606,1,0,0:0:0:0:
320,192,34704,1,0,0:0:0:0:
192,192,34802,1,0,0:0:0:0:
64,192,34802,1,0,0:0:0:0:
448,192,34900,1,0,0:0:0:0:
64,192,34998,1,0,0:0:0:0:
320,192,34998,1,0,0:0:0:0:
192,192,35096,1,0,0:0:0:0:
64,192,35194,1,0,0:0:0:0:
448,192,35194,1,0,0:0:0:0:
320,192,35292,1,0,0:0:0:0:
64,192,35390,1,0,0:0:0:0:
192,192,35390,1,0,0:0:0:0:
448,192,35390,1,0,0:0:0:0:
192,192,35488,1,0,0:0:0:0:
64,192,35586,1,0,0:0:0:0:
320,192,35586,1,0,0:0:0:0:
448,192,35586,1,0,0:0:0:0:
448,192,35684,1,0,0:0:0:0:
64,192,35782,1,0,0:0:0:0:
192,192,35782,1,0,0:0:0:0:
320,192,35782,1,0,0:0:0:0:
64,192,35881,1,0,0:0:0:0:
192,192,35979,1,0,0:0:0:0:
320,192,35979,1,0,0:0:0:0:
448,192,35979,1,0,0:0:0:0:
320,192,36077,1,0,0:0:0:0:
64,192,36175,1,0,0:0:0:0:
192,192,36175,1,0,0:0:0:0:
448,192,36175,1,0,0:0:0:0:
192,192,36273,1,0,0:0:0:0:
320,192,36273,1,0,0:0:0:0:
64,192,36371,1,0,0:0:0:0:
320,192,36371,1,0,0:0:0:0:
448,192,36371,1,0,0:0:0:0:
192,192,36469,1,0,0:0:0:0:
448,192,36469,1,0,0:0:0:0:
64,192,36567,1,0,0:0:0:0:
192,192,36567,1,0,0:0:0:0:
320,192,36665,1,0,0:0:0:0:
448,192,36665,1,0,0:0:0:0:
192,192,36763,1,0,0:0:0:0:
64,192,36763,1,0,0:0:0:0:
320,192,36861,1,0,0:0:0:0:
448,192,36861,1,0,0:0:0:0:
64,192,36959,128,0,37743:0:0:0:0:
192,192,36959,1,0,0:0:0:0:
448,192,37743,128,0,38528:0:0:0:0:
320,192,37743,1,0,0:0:0:0:
192,192,37939,1,0,0:0:0:0:
320,192,38233,1,0,0:0:0:0:
192,192,38528,1,0,0:0:0:0:
64,192,38528,1,0,0:0:0:0:
320,192,38528,1,0,0:0:0:0:
192,192,38626,1,0,0:0:0:0:
64,192,38626,1,0,0:0:0:0:
320,192,38724,1,0,0:0:0:0:
64,192,38724,1,0,0:0:0:0:
448,192,38724,1,0,0:0:0:0:
448,192,38822,1,0,0:0:0:0:
192,192,38822,1,0,0:0:0:0:
64,192,38920,1,0,0:0:0:0:
320,192,38920,1,0,0:0:0:0:
192,192,38920,1,0,0:0:0:0:
320,192,39018,1,0,0:0:0:0:
448,192,39018,1,0,0:0:0:0:
64,192,39116,1,0,0:0:0:0:
192,192,39116,1,0,0:0:0:0:
448,192,39116,1,0,0:0:0:0:
192,192,39214,1,0,0:0:0:0:
320,192,39214,1,0,0:0:0:0:
64,192,39312,1,0,0:0:0:0:
320,192,39312,1,0,0:0:0:0:
448,192,39312,1,0,0:0:0:0:
64,192,39410,1,0,0:0:0:0:
192,192,39410,1,0,0:0:0:0:
192,192,39508,1,0,0:0:0:0:
320,192,39508,1,0,0:0:0:0:
448,192,39508,1,0,0:0:0:0:
64,192,39606,1,0,0:0:0:0:
320,192,39606,1,0,0:0:0:0:
192,192,39704,1,0,0:0:0:0:
448,192,39704,1,0,0:0:0:0:
64,192,39704,1,0,0:0:0:0:
320,192,39802,1,0,0:0:0:0:
448,192,39802,1,0,0:0:0:0:
192,192,39900,1,0,0:0:0:0:
320,192,39900,1,0,0:0:0:0:
64,192,39900,1,0,0:0:0:0:
192,192,39998,1,0,0:0:0:0:
448,192,39998,1,0,0:0:0:0:
64,192,40096,1,0,0:0:0:0:
320,192,40096,1,0,0:0:0:0:
448,192,40096,1,0,0:0:0:0:
192,192,40194,1,0,0:0:0:0:
320,192,40194,1,0,0:0:0:0:
64,192,40292,1,0,0:0:0:0:
192,192,40292,1,0,0:0:0:0:
448,192,40292,1,0,0:0:0:0:
64,192,40390,1,0,0:0:0:0:
320,192,40390,1,0,0:0:0:0:
192,192,40488,1,0,0:0:0:0:
320,192,40488,1,0,0:0:0:0:
448,192,40488,1,0,0:0:0:0:
64,192,40586,1,0,0:0:0:0:
448,192,40586,1,0,0:0:0:0:
192,192,40684,1,0,0:0:0:0:
320,192,40684,1,0,0:0:0:0:
64,192,40684,1,0,0:0:0:0:
320,192,40782,1,0,0:0:0:0:
448,192,40782,1,0,0:0:0:0:
64,192,40881,1,0,0:0:0:0:
192,192,40881,1,0,0:0:0:0:
448,192,40881,1,0,0:0:0:0:
192,192,40979,1,0,0:0:0:0:
320,192,40979,1,0,0:0:0:0:
64,192,41077,1,0,0:0:0:0:
320,192,41077,1,0,0:0:0:0:
448,192,41077,1,0,0:0:0:0:
192,192,41175,1,0,0:0:0:0:
448,192,41175,1,0,0:0:0:0:
64,192,41273,1,0,0:0:0:0:
192,192,41273,1,0,0:0:0:0:
320,192,41273,1,0,0:0:0:0:
64,192,41371,1,0,0:0:0:0:
448,192,41371,1,0,0:0:0:0:
192,192,41469,1,0,0:0:0:0:
320,192,41469,1,0,0:0:0:0:
448,192,41469,1,0,0:0:0:0:
64,192,41567,1,0,0:0:0:0:
320,192,41567,1,0,0:0:0:0:
64,192,41665,1,0,0:0:0:0:
192,192,41665,1,0,0:0:0:0:
448,192,41665,1,0,0:0:0:0:
320,192,41763,1,0,0:0:0:0:
448,192,41763,1,0,0:0:0:0:
64,192,41861,1,0,0:0:0:0:
192,192,41861,1,0,0:0:0:0:
320,192,41861,1,0,0:0:0:0:
192,192,41959,1,0,0:0:0:0:
448,192,41959,1,0,0:0:0:0:
64,192,42057,1,0,0:0:0:0:
320,192,42057,1,0,0:0:0:0:
448,192,42057,1,0,0:0:0:0:
192,192,42155,1,0,0:0:0:0:
320,192,42155,1,0,0:0:0:0:
64,192,42253,1,0,0:0:0:0:
448,192,42253,1,0,0:0:0:0:
192,192,42253,1,0,0:0:0:0:
64,192,42351,1,0,0:0:0:0:
320,192,42351,1,0,0:0:0:0:
192,192,42449,1,0,0:0:0:0:
320,192,42449,1,0,0:0:0:0:
448,192,42449,1,0,0:0:0:0:
64,192,42547,1,0,0:0:0:0:
448,192,42547,1,0,0:0:0:0:
192,192,42645,1,0,0:0:0:0:
320,192,42645,1,0,0:0:0:0:
64,192,42645,1,0,0:0:0:0:
192,192,42743,1,0,0:0:0:0:
448,192,42743,1,0,0:0:0:0:
320,192,42841,1,0,0:0:0:0:
448,192,42841,1,0,0:0:0:0:
64,192,42841,1,0,0:0:0:0:
192,192,42939,1,0,0:0:0:0:
64,192,42939,1,0,0:0:0:0:
192,192,43037,1,0,0:0:0:0:
320,192,43037,1,0,0:0:0:0:
448,192,43037,1,0,0:0:0:0:
64,192,43135,1,0,0:0:0:0:
320,192,43135,1,0,0:0:0:0:
448,192,43233,1,0,0:0:0:0:
192,192,43233,1,0,0:0:0:0:
64,192,43233,1,0,0:0:0:0:
192,192,43331,1,0,0:0:0:0:
320,192,43331,1,0,0:0:0:0:
320,192,43430,1,0,0:0:0:0:
448,192,43430,1,0,0:0:0:0:
64,192,43430,1,0,0:0:0:0:
64,192,43528,1,0,0:0:0:0:
192,192,43528,1,0,0:0:0:0:
192,192,43626,1,0,0:0:0:0:
320,192,43626,1,0,0:0:0:0:
448,192,43626,1,0,0:0:0:0:
64,192,43724,1,0,0:0:0:0:
448,192,43724,1,0,0:0:0:0:
64,192,43822,1,0,0:0:0:0:
192,192,43822,1,0,0:0:0:0:
320,192,43822,1,0,0:0:0:0:
192,192,43920,1,0,0:0:0:0:
448,192,43920,1,0,0:0:0:0:
320,192,44018,1,0,0:0:0:0:
448,192,44018,1,0,0:0:0:0:
64,192,44018,1,0,0:0:0:0:
192,192,44116,1,0,0:0:0:0:
320,192,44116,1,0,0:0:0:0:
64,192,44214,1,0,0:0:0:0:
192,192,44214,1,0,0:0:0:0:
448,192,44214,1,0,0:0:0:0:
320,192,44312,1,0,0:0:0:0:
448,192,44312,1,0,0:0:0:0:
64,192,44410,1,0,0:0:0:0:
320,192,44410,1,0,0:0:0:0:
192,192,44410,1,0,0:0:0:0:
64,192,44508,1,0,0:0:0:0:
448,192,44508,1,0,0:0:0:0:
192,192,44606,1,0,0:0:0:0:
320,192,44606,1,0,0:0:0:0:
448,192,44606,1,0,0:0:0:0:
64,192,44704,1,0,0:0:0:0:
192,192,44704,1,0,0:0:0:0:
64,192,44802,1,0,0:0:0:0:
192,192,44802,1,0,0:0:0:0:
320,192,44802,1,0,0:0:0:0:
448,192,44802,1,0,0:0:0:0:
320,192,44900,1,0,0:0:0:0:
448,192,44900,1,0,0:0:0:0:
64,192,44998,1,0,0:0:0:0:
192,192,44998,1,0,0:0:0:0:
448,192,44998,1,0,0:0:0:0:
192,192,45096,1,0,0:0:0:0:
320,192,45096,1,0,0:0:0:0:
64,192,45194,1,0,0:0:0:0:
320,192,45194,1,0,0:0:0:0:
448,192,45194,1,0,0:0:0:0:
64,192,45292,1,0,0:0:0:0:
192,192,45292,1,0,0:0:0:0:
192,192,45390,1,0,0:0:0:0:
320,192,45390,1,0,0:0:0:0:
448,192,45390,1,0,0:0:0:0:
64,192,45488,1,0,0:0:0:0:
448,192,45488,1,0,0:0:0:0:
320,192,45586,1,0,0:0:0:0:
192,192,45586,1,0,0:0:0:0:
64,192,45586,1,0,0:0:0:0:
192,192,45684,1,0,0:0:0:0:
448,192,45684,1,0,0:0:0:0:
64,192,45782,1,0,0:0:0:0:
320,192,45782,1,0,0:0:0:0:
448,192,45782,1,0,0:0:0:0:
192,192,45881,1,0,0:0:0:0:
320,192,45881,1,0,0:0:0:0:
64,192,45979,1,0,0:0:0:0:
192,192,45979,1,0,0:0:0:0:
448,192,45979,1,0,0:0:0:0:
320,192,46077,1,0,0:0:0:0:
64,192,46077,1,0,0:0:0:0:
192,192,46175,1,0,0:0:0:0:
320,192,46175,1,0,0:0:0:0:
448,192,46175,1,0,0:0:0:0:
64,192,46273,1,0,0:0:0:0:
448,192,46273,1,0,0:0:0:0:
320,192,46371,1,0,0:0:0:0:
192,192,46371,1,0,0:0:0:0:
64,192,46371,1,0,0:0:0:0:
320,192,46469,1,0,0:0:0:0:
448,192,46469,1,0,0:0:0:0:
64,192,46567,1,0,0:0:0:0:
192,192,46567,1,0,0:0:0:0:
448,192,46567,1,0,0:0:0:0:
192,192,46665,1,0,0:0:0:0:
320,192,46665,1,0,0:0:0:0:
64,192,46763,1,0,0:0:0:0:
320,192,46763,1,0,0:0:0:0:
448,192,46763,1,0,0:0:0:0:
192,192,46861,1,0,0:0:0:0:
448,192,46861,1,0,0:0:0:0:
320,192,46959,1,0,0:0:0:0:
192,192,46959,1,0,0:0:0:0:
64,192,46959,1,0,0:0:0:0:
64,192,47057,1,0,0:0:0:0:
448,192,47057,1,0,0:0:0:0:
192,192,47155,1,0,0:0:0:0:
320,192,47155,1,0,0:0:0:0:
448,192,47155,1,0,0:0:0:0:
64,192,47253,1,0,0:0:0:0:
192,192,47253,1,0,0:0:0:0:
64,192,47351,1,0,0:0:0:0:
320,192,47351,1,0,0:0:0:0:
448,192,47351,1,0,0:0:0:0:
192,192,47449,1,0,0:0:0:0:
320,192,47449,1,0,0:0:0:0:
192,192,47547,1,0,0:0:0:0:
448,192,47547,1,0,0:0:0:0:
64,192,47547,1,0,0:0:0:0:
320,192,47645,1,0,0:0:0:0:
448,192,47645,1,0,0:0:0:0:
64,192,47743,1,0,0:0:0:0:
192,192,47743,1,0,0:0:0:0:
320,192,47743,1,0,0:0:0:0:
192,192,47841,1,0,0:0:0:0:
448,192,47841,1,0,0:0:0:0:
64,192,47939,1,0,0:0:0:0:
320,192,47939,1,0,0:0:0:0:
448,192,47939,1,0,0:0:0:0:
192,192,48037,1,0,0:0:0:0:
320,192,48037,1,0,0:0:0:0:
64,192,48135,1,0,0:0:0:0:
192,192,48135,1,0,0:0:0:0:
448,192,48135,1,0,0:0:0:0:
320,192,48233,1,0,0:0:0:0:
64,192,48233,1,0,0:0:0:0:
192,192,48331,1,0,0:0:0:0:
320,192,48331,1,0,0:0:0:0:
448,192,48331,1,0,0:0:0:0:
64,192,48430,1,0,0:0:0:0:
448,192,48430,1,0,0:0:0:0:
320,192,48528,1,0,0:0:0:0:
192,192,48528,1,0,0:0:0:0:
64,192,48528,1,0,0:0:0:0:
192,192,48626,1,0,0:0:0:0:
448,192,48626,1,0,0:0:0:0:
320,192,48724,1,0,0:0:0:0:
64,192,48724,1,0,0:0:0:0:
448,192,48724,1,0,0:0:0:0:
192,192,48822,1,0,0:0:0:0:
320,192,48822,1,0,0:0:0:0:
192,192,48920,1,0,0:0:0:0:
64,192,48920,1,0,0:0:0:0:
448,192,48920,1,0,0:0:0:0:
64,192,49018,1,0,0:0:0:0:
320,192,49018,1,0,0:0:0:0:
192,192,49116,1,0,0:0:0:0:
320,192,49116,1,0,0:0:0:0:
448,192,49116,1,0,0:0:0:0:
64,192,49214,1,0,0:0:0:0:
448,192,49214,1,0,0:0:0:0:
320,192,49312,1,0,0:0:0:0:
192,192,49312,1,0,0:0:0:0:
64,192,49312,1,0,0:0:0:0:
192,192,49410,1,0,0:0:0:0:
448,192,49410,1,0,0:0:0:0:
320,192,49508,1,0,0:0:0:0:
448,192,49508,1,0,0:0:0:0:
192,192,49508,1,0,0:0:0:0:
64,192,49508,1,0,0:0:0:0:
320,192,49606,1,0,0:0:0:0:
448,192,49704,1,0,0:0:0:0:
64,192,49704,1,0,0:0:0:0:
192,192,49802,1,0,0:0:0:0:
320,192,49900,1,0,0:0:0:0:
64,192,49900,1,0,0:0:0:0:
448,192,49900,1,0,0:0:0:0:
64,192,49998,1,0,0:0:0:0:
192,192,49998,1,0,0:0:0:0:
448,192,49998,1,0,0:0:0:0:
64,192,50096,1,0,0:0:0:0:
192,192,50096,1,0,0:0:0:0:
448,192,50194,1,0,0:0:0:0:
320,192,50194,1,0,0:0:0:0:
192,192,50292,1,0,0:0:0:0:
64,192,50292,1,0,0:0:0:0:
320,192,50390,1,0,0:0:0:0:
64,192,50488,1,0,0:0:0:0:
192,192,50488,1,0,0:0:0:0:
448,192,50488,1,0,0:0:0:0:
192,192,50586,1,0,0:0:0:0:
320,192,50586,1,0,0:0:0:0:
64,192,50684,1,0,0:0:0:0:
320,192,50684,1,0,0:0:0:0:
448,192,50684,1,0,0:0:0:0:
192,192,50782,1,0,0:0:0:0:
448,192,50782,1,0,0:0:0:0:
64,192,50881,1,0,0:0:0:0:
192,192,50881,1,0,0:0:0:0:
320,192,50881,1,0,0:0:0:0:
320,192,50979,1,0,0:0:0:0:
448,192,50979,1,0,0:0:0:0:
320,192,51077,1,0,0:0:0:0:
192,192,51077,1,0,0:0:0:0:
448,192,51077,1,0,0:0:0:0:
64,192,51077,1,0,0:0:0:0:
192,192,51175,1,0,0:0:0:0:
64,192,51175,1,0,0:0:0:0:
192,192,51273,1,0,0:0:0:0:
448,192,51273,1,0,0:0:0:0:
320,192,51273,1,0,0:0:0:0:
64,192,51371,1,0,0:0:0:0:
320,192,51371,1,0,0:0:0:0:
64,192,51469,1,0,0:0:0:0:
192,192,51469,1,0,0:0:0:0:
320,192,51469,1,0,0:0:0:0:
448,192,51469,1,0,0:0:0:0:
192,192,51567,1,0,0:0:0:0:
448,192,51567,1,0,0:0:0:0:
64,192,51665,1,0,0:0:0:0:
320,192,51665,1,0,0:0:0:0:
192,192,51665,1,0,0:0:0:0:
320,192,51763,1,0,0:0:0:0:
448,192,51763,1,0,0:0:0:0:
64,192,51861,1,0,0:0:0:0:
192,192,51861,1,0,0:0:0:0:
448,192,51861,1,0,0:0:0:0:
192,192,51959,1,0,0:0:0:0:
320,192,51959,1,0,0:0:0:0:
64,192,52057,1,0,0:0:0:0:
320,192,52057,1,0,0:0:0:0:
448,192,52057,1,0,0:0:0:0:
192,192,52155,1,0,0:0:0:0:
448,192,52155,1,0,0:0:0:0:
64,192,52253,1,0,0:0:0:0:
320,192,52253,1,0,0:0:0:0:
448,192,52253,1,0,0:0:0:0:
192,192,52253,1,0,0:0:0:0:
64,192,52351,1,0,0:0:0:0:
192,192,52351,1,0,0:0:0:0:
64,192,52449,1,0,0:0:0:0:
320,192,52449,1,0,0:0:0:0:
448,192,52449,1,0,0:0:0:0:
192,192,52547,1,0,0:0:0:0:
448,192,52547,1,0,0:0:0:0:
320,192,52645,1,0,0:0:0:0:
192,192,52645,1,0,0:0:0:0:
64,192,52645,1,0,0:0:0:0:
64,192,52743,1,0,0:0:0:0:
448,192,52743,1,0,0:0:0:0:
192,192,52841,1,0,0:0:0:0:
448,192,52841,1,0,0:0:0:0:
320,192,52841,1,0,0:0:0:0:
64,192,52939,1,0,0:0:0:0:
192,192,52939,1,0,0:0:0:0:
64,192,53037,1,0,0:0:0:0:
192,192,53037,1,0,0:0:0:0:
320,192,53037,1,0,0:0:0:0:
448,192,53037,1,0,0:0:0:0:
320,192,53135,1,0,0:0:0:0:
448,192,53135,1,0,0:0:0:0:
64,192,53233,1,0,0:0:0:0:
192,192,53233,1,0,0:0:0:0:
448,192,53233,1,0,0:0:0:0:
192,192,53331,1,0,0:0:0:0:
320,192,53331,1,0,0:0:0:0:
64,192,53430,1,0,0:0:0:0:
192,192,53430,1,0,0:0:0:0:
448,192,53430,1,0,0:0:0:0:
64,192,53528,1,0,0:0:0:0:
320,192,53528,1,0,0:0:0:0:
192,192,53626,1,0,0:0:0:0:
320,192,53626,1,0,0:0:0:0:
448,192,53626,1,0,0:0:0:0:
64,192,53724,1,0,0:0:0:0:
192,192,53724,1,0,0:0:0:0:
64,192,53822,1,0,0:0:0:0:
192,192,53822,1,0,0:0:0:0:
320,192,53822,1,0,0:0:0:0:
448,192,53822,1,0,0:0:0:0:
320,192,53920,1,0,0:0:0:0:
448,192,53920,1,0,0:0:0:0:
64,192,54018,1,0,0:0:0:0:
192,192,54018,1,0,0:0:0:0:
448,192,54018,1,0,0:0:0:0:
64,192,54116,1,0,0:0:0:0:
320,192,54116,1,0,0:0:0:0:
192,192,54214,1,0,0:0:0:0:
320,192,54214,1,0,0:0:0:0:
448,192,54214,1,0,0:0:0:0:
64,192,54312,1,0,0:0:0:0:
448,192,54312,1,0,0:0:0:0:
64,192,54410,1,0,0:0:0:0:
192,192,54410,1,0,0:0:0:0:
320,192,54410,1,0,0:0:0:0:
192,192,54508,1,0,0:0:0:0:
448,192,54508,1,0,0:0:0:0:
64,192,54606,1,0,0:0:0:0:
192,192,54606,1,0,0:0:0:0:
320,192,54606,1,0,0:0:0:0:
448,192,54606,1,0,0:0:0:0:
448,192,54704,1,0,0:0:0:0:
320,192,54704,1,0,0:0:0:0:
64,192,54802,1,0,0:0:0:0:
192,192,54802,1,0,0:0:0:0:
320,192,54802,1,0,0:0:0:0:
192,192,54900,1,0,0:0:0:0:
448,192,54900,1,0,0:0:0:0:
64,192,54998,1,0,0:0:0:0:
320,192,54998,1,0,0:0:0:0:
448,192,54998,1,0,0:0:0:0:
192,192,55096,1,0,0:0:0:0:
320,192,55096,1,0,0:0:0:0:
64,192,55194,1,0,0:0:0:0:
192,192,55194,1,0,0:0:0:0:
448,192,55194,1,0,0:0:0:0:
320,192,55292,1,0,0:0:0:0:
448,192,55292,1,0,0:0:0:0:
64,192,55390,1,0,0:0:0:0:
192,192,55390,1,0,0:0:0:0:
320,192,55390,1,0,0:0:0:0:
448,192,55390,1,0,0:0:0:0:
192,192,55488,1,0,0:0:0:0:
64,192,55488,1,0,0:0:0:0:
64,192,55586,1,0,0:0:0:0:
320,192,55586,1,0,0:0:0:0:
448,192,55586,1,0,0:0:0:0:
192,192,55684,1,0,0:0:0:0:
320,192,55684,1,0,0:0:0:0:
64,192,55782,1,0,0:0:0:0:
448,192,55782,1,0,0:0:0:0:
192,192,55782,1,0,0:0:0:0:
320,192,55880,1,0,0:0:0:0:
448,192,55880,1,0,0:0:0:0:
64,192,55979,1,0,0:0:0:0:
192,192,55979,1,0,0:0:0:0:
320,192,55979,1,0,0:0:0:0:
192,192,56077,1,0,0:0:0:0:
448,192,56077,1,0,0:0:0:0:
64,192,56175,1,0,0:0:0:0:
320,192,56175,1,0,0:0:0:0:
448,192,56175,1,0,0:0:0:0:
192,192,56175,1,0,0:0:0:0:
64,192,56273,1,0,0:0:0:0:
320,192,56273,1,0,0:0:0:0:
192,192,56371,1,0,0:0:0:0:
448,192,56371,1,0,0:0:0:0:
64,192,56371,1,0,0:0:0:0:
192,192,56469,1,0,0:0:0:0:
320,192,56469,1,0,0:0:0:0:
320,192,56567,1,0,0:0:0:0:
448,192,56567,1,0,0:0:0:0:
64,192,56567,1,0,0:0:0:0:
64,192,56665,1,0,0:0:0:0:
192,192,56665,1,0,0:0:0:0:
192,192,56763,1,0,0:0:0:0:
320,192,56763,1,0,0:0:0:0:
448,192,56763,1,0,0:0:0:0:
64,192,56861,1,0,0:0:0:0:
448,192,56861,1,0,0:0:0:0:
64,192,56959,1,0,0:0:0:0:
192,192,56959,1,0,0:0:0:0:
320,192,56959,1,0,0:0:0:0:
448,192,56959,1,0,0:0:0:0:
192,192,57057,1,0,0:0:0:0:
320,192,57057,1,0,0:0:0:0:
64,192,57155,1,0,0:0:0:0:
320,192,57155,1,0,0:0:0:0:
448,192,57155,1,0,0:0:0:0:
192,192,57253,1,0,0:0:0:0:
448,192,57253,1,0,0:0:0:0:
64,192,57351,1,0,0:0:0:0:
320,192,57351,1,0,0:0:0:0:
192,192,57351,1,0,0:0:0:0:
320,192,57449,1,0,0:0:0:0:
448,192,57449,1,0,0:0:0:0:
64,192,57547,1,0,0:0:0:0:
192,192,57547,1,0,0:0:0:0:
448,192,57547,1,0,0:0:0:0:
192,192,57645,1,0,0:0:0:0:
320,192,57645,1,0,0:0:0:0:
64,192,57743,1,0,0:0:0:0:
320,192,57743,1,0,0:0:0:0:
448,192,57743,1,0,0:0:0:0:
192,192,57743,1,0,0:0:0:0:
64,192,57841,1,0,0:0:0:0:
448,192,57841,1,0,0:0:0:0:
192,192,57939,1,0,0:0:0:0:
320,192,57939,1,0,0:0:0:0:
448,192,57939,1,0,0:0:0:0:
64,192,58037,1,0,0:0:0:0:
192,192,58037,1,0,0:0:0:0:
64,192,58135,1,0,0:0:0:0:
320,192,58135,1,0,0:0:0:0:
448,192,58135,1,0,0:0:0:0:
192,192,58233,1,0,0:0:0:0:
320,192,58233,1,0,0:0:0:0:
192,192,58331,1,0,0:0:0:0:
448,192,58331,1,0,0:0:0:0:
64,192,58331,1,0,0:0:0:0:
320,192,58430,1,0,0:0:0:0:
448,192,58430,1,0,0:0:0:0:
64,192,58528,1,0,0:0:0:0:
448,192,58528,1,0,0:0:0:0:
320,192,58528,1,0,0:0:0:0:
192,192,58528,1,0,0:0:0:0:
64,192,58626,1,0,0:0:0:0:
192,192,58626,1,0,0:0:0:0:
64,192,58724,1,0,0:0:0:0:
448,192,58724,1,0,0:0:0:0:
320,192,58724,1,0,0:0:0:0:
192,192,58822,1,0,0:0:0:0:
320,192,58822,1,0,0:0:0:0:
64,192,58920,1,0,0:0:0:0:
192,192,58920,1,0,0:0:0:0:
448,192,58920,1,0,0:0:0:0:
320,192,59018,1,0,0:0:0:0:
448,192,59018,1,0,0:0:0:0:
64,192,59116,1,0,0:0:0:0:
192,192,59116,1,0,0:0:0:0:
320,192,59116,1,0,0:0:0:0:
192,192,59214,1,0,0:0:0:0:
448,192,59214,1,0,0:0:0:0:
64,192,59312,1,0,0:0:0:0:
320,192,59312,1,0,0:0:0:0:
448,192,59312,1,0,0:0:0:0:
192,192,59312,1,0,0:0:0:0:
64,192,59410,1,0,0:0:0:0:
320,192,59410,1,0,0:0:0:0:
64,192,59508,1,0,0:0:0:0:
192,192,59508,1,0,0:0:0:0:
448,192,59508,1,0,0:0:0:0:
320,192,59606,1,0,0:0:0:0:
192,192,59606,1,0,0:0:0:0:
320,192,59704,1,0,0:0:0:0:
448,192,59704,1,0,0:0:0:0:
64,192,59704,1,0,0:0:0:0:
64,192,59802,1,0,0:0:0:0:
192,192,59802,1,0,0:0:0:0:
192,192,59900,1,0,0:0:0:0:
320,192,59900,1,0,0:0:0:0:
448,192,59900,1,0,0:0:0:0:
64,192,59998,1,0,0:0:0:0:
320,192,59998,1,0,0:0:0:0:
64,192,60096,1,0,0:0:0:0:
192,192,60096,1,0,0:0:0:0:
320,192,60096,1,0,0:0:0:0:
448,192,60096,1,0,0:0:0:0:
192,192,60194,1,0,0:0:0:0:
448,192,60194,1,0,0:0:0:0:
64,192,60292,1,0,0:0:0:0:
320,192,60292,1,0,0:0:0:0:
448,192,60292,1,0,0:0:0:0:
192,192,60390,1,0,0:0:0:0:
320,192,60390,1,0,0:0:0:0:
64,192,60488,1,0,0:0:0:0:
448,192,60488,1,0,0:0:0:0:
192,192,60488,1,0,0:0:0:0:
64,192,60586,1,0,0:0:0:0:
320,192,60586,1,0,0:0:0:0:
192,192,60684,1,0,0:0:0:0:
448,192,60684,1,0,0:0:0:0:
320,192,60684,1,0,0:0:0:0:
64,192,60782,1,0,0:0:0:0:
448,192,60782,1,0,0:0:0:0:
64,192,60880,1,0,0:0:0:0:
192,192,60880,1,0,0:0:0:0:
320,192,60880,1,0,0:0:0:0:
448,192,60880,1,0,0:0:0:0:
192,192,60979,1,0,0:0:0:0:
320,192,60979,1,0,0:0:0:0:
64,192,61077,1,0,0:0:0:0:
192,192,61077,1,0,0:0:0:0:
448,192,61077,1,0,0:0:0:0:
320,192,61175,1,0,0:0:0:0:
448,192,61175,1,0,0:0:0:0:
64,192,61273,1,0,0:0:0:0:
320,192,61273,1,0,0:0:0:0:
192,192,61273,1,0,0:0:0:0:
64,192,61371,1,0,0:0:0:0:
448,192,61371,1,0,0:0:0:0:
192,192,61469,1,0,0:0:0:0:
320,192,61469,1,0,0:0:0:0:
448,192,61469,1,0,0:0:0:0:
64,192,61567,1,0,0:0:0:0:
192,192,61567,1,0,0:0:0:0:
64,192,61665,1,0,0:0:0:0:
192,192,61665,1,0,0:0:0:0:
320,192,61665,1,0,0:0:0:0:
448,192,61665,1,0,0:0:0:0:
320,192,61763,1,0,0:0:0:0:
448,192,61763,1,0,0:0:0:0:
64,192,61861,1,0,0:0:0:0:
192,192,61861,1,0,0:0:0:0:
448,192,61861,1,0,0:0:0:0:
192,192,61959,1,0,0:0:0:0:
64,192,61959,1,0,0:0:0:0:
64,192,62057,1,0,0:0:0:0:
320,192,62057,1,0,0:0:0:0:
448,192,62057,1,0,0:0:0:0:
192,192,62155,1,0,0:0:0:0:
320,192,62253,1,0,0:0:0:0:
448,192,62253,1,0,0:0:0:0:
64,192,62351,1,0,0:0:0:0:
192,192,62449,1,0,0:0:0:0:
320,192,62547,1,0,0:0:0:0:
448,192,62645,1,0,0:0:0:0:
64,192,62743,1,0,0:0:0:0:
192,192,62841,1,0,0:0:0:0:
320,192,62939,1,0,0:0:0:0:
448,192,63037,1,0,0:0:0:0:
192,192,63037,1,0,0:0:0:0:
64,192,63037,1,0,0:0:0:0:
320,192,63135,1,0,0:0:0:0:
192,192,63233,1,0,0:0:0:0:
64,192,63233,1,0,0:0:0:0:
448,192,63331,1,0,0:0:0:0:
320,192,63430,1,0,0:0:0:0:
192,192,63528,1,0,0:0:0:0:
64,192,63626,1,0,0:0:0:0:
320,192,63626,1,0,0:0:0:0:
448,192,63626,1,0,0:0:0:0:
192,192,63724,1,0,0:0:0:0:
320,192,63724,1,0,0:0:0:0:
192,192,63822,1,0,0:0:0:0:
448,192,63822,1,0,0:0:0:0:
64,192,63822,1,0,0:0:0:0:
320,192,63920,1,0,0:0:0:0:
448,192,63920,1,0,0:0:0:0:
64,192,64018,1,0,0:0:0:0:
192,192,64018,1,0,0:0:0:0:
320,192,64018,1,0,0:0:0:0:
448,192,64018,1,0,0:0:0:0:
192,192,64116,1,0,0:0:0:0:
64,192,64116,1,0,0:0:0:0:
64,192,64214,1,0,0:0:0:0:
320,192,64214,1,0,0:0:0:0:
448,192,64214,1,0,0:0:0:0:
192,192,64312,1,0,0:0:0:0:
320,192,64312,1,0,0:0:0:0:
448,192,64410,1,0,0:0:0:0:
192,192,64410,1,0,0:0:0:0:
64,192,64410,1,0,0:0:0:0:
320,192,64508,1,0,0:0:0:0:
448,192,64508,1,0,0:0:0:0:
64,192,64606,1,0,0:0:0:0:
192,192,64606,1,0,0:0:0:0:
320,192,64606,1,0,0:0:0:0:
192,192,64704,1,0,0:0:0:0:
448,192,64704,1,0,0:0:0:0:
64,192,64802,1,0,0:0:0:0:
320,192,64802,1,0,0:0:0:0:
448,192,64802,1,0,0:0:0:0:
192,192,64802,1,0,0:0:0:0:
64,192,64900,1,0,0:0:0:0:
320,192,64900,1,0,0:0:0:0:
192,192,64998,1,0,0:0:0:0:
448,192,64998,1,0,0:0:0:0:
320,192,64998,1,0,0:0:0:0:
64,192,65096,1,0,0:0:0:0:
448,192,65096,1,0,0:0:0:0:
192,192,65194,1,0,0:0:0:0:
320,192,65194,1,0,0:0:0:0:
64,192,65194,1,0,0:0:0:0:
192,192,65292,1,0,0:0:0:0:
448,192,65292,1,0,0:0:0:0:
64,192,65390,1,0,0:0:0:0:
320,192,65390,1,0,0:0:0:0:
448,192,65390,1,0,0:0:0:0:
64,192,65488,1,0,0:0:0:0:
192,192,65488,1,0,0:0:0:0:
64,192,65586,1,0,0:0:0:0:
192,192,65586,1,0,0:0:0:0:
320,192,65586,1,0,0:0:0:0:
448,192,65586,1,0,0:0:0:0:
320,192,65684,1,0,0:0:0:0:
448,192,65684,1,0,0:0:0:0:
64,192,65782,1,0,0:0:0:0:
192,192,65782,1,0,0:0:0:0:
448,192,65782,1,0,0:0:0:0:
192,192,65880,1,0,0:0:0:0:
320,192,65880,1,0,0:0:0:0:
64,192,65979,1,0,0:0:0:0:
320,192,65979,1,0,0:0:0:0:
448,192,65979,1,0,0:0:0:0:
192,192,66077,1,0,0:0:0:0:
448,192,66077,1,0,0:0:0:0:
320,192,66175,1,0,0:0:0:0:
192,192,66175,1,0,0:0:0:0:
64,192,66175,1,0,0:0:0:0:
64,192,66273,1,0,0:0:0:0:
448,192,66273,1,0,0:0:0:0:
64,192,66371,1,0,0:0:0:0:
192,192,66371,1,0,0:0:0:0:
320,192,66371,1,0,0:0:0:0:
448,192,66371,1,0,0:0:0:0:
192,192,66469,1,0,0:0:0:0:
320,192,66469,1,0,0:0:0:0:
192,192,66567,1,0,0:0:0:0:
448,192,66567,1,0,0:0:0:0:
64,192,66567,1,0,0:0:0:0:
320,192,66665,1,0,0:0:0:0:
448,192,66665,1,0,0:0:0:0:
192,192,66763,1,0,0:0:0:0:
64,192,66763,1,0,0:0:0:0:
320,192,66763,1,0,0:0:0:0:
192,192,66861,1,0,0:0:0:0:
448,192,66861,1,0,0:0:0:0:
320,192,66959,1,0,0:0:0:0:
448,192,66959,1,0,0:0:0:0:
64,192,66959,1,0,0:0:0:0:
192,192,67057,1,0,0:0:0:0:
320,192,67057,1,0,0:0:0:0:
64,192,67155,1,0,0:0:0:0:
192,192,67155,1,0,0:0:0:0:
320,192,67155,1,0,0:0:0:0:
448,192,67155,1,0,0:0:0:0:
64,192,67253,1,0,0:0:0:0:
448,192,67253,1,0,0:0:0:0:
192,192,67351,1,0,0:0:0:0:
320,192,67351,1,0,0:0:0:0:
64,192,67351,1,0,0:0:0:0:
192,192,67449,1,0,0:0:0:0:
448,192,67449,1,0,0:0:0:0:
320,192,67547,1,0,0:0:0:0:
64,192,67547,1,0,0:0:0:0:
448,192,67547,1,0,0:0:0:0:
192,192,67645,1,0,0:0:0:0:
64,192,67645,1,0,0:0:0:0:
320,192,67743,1,0,0:0:0:0:
448,192,67743,1,0,0:0:0:0:
192,192,67743,1,0,0:0:0:0:
64,192,67841,1,0,0:0:0:0:
448,192,67841,1,0,0:0:0:0:
64,192,67939,1,0,0:0:0:0:
192,192,67939,1,0,0:0:0:0:
320,192,67939,1,0,0:0:0:0:
448,192,67939,1,0,0:0:0:0:
192,192,68037,1,0,0:0:0:0:
320,192,68037,1,0,0:0:0:0:
64,192,68135,1,0,0:0:0:0:
192,192,68135,1,0,0:0:0:0:
448,192,68135,1,0,0:0:0:0:
320,192,68233,1,0,0:0:0:0:
448,192,68233,1,0,0:0:0:0:
64,192,68331,1,0,0:0:0:0:
192,192,68331,1,0,0:0:0:0:
320,192,68331,1,0,0:0:0:0:
192,192,68430,1,0,0:0:0:0:
448,192,68430,1,0,0:0:0:0:
64,192,68528,1,0,0:0:0:0:
320,192,68528,1,0,0:0:0:0:
448,192,68528,1,0,0:0:0:0:
192,192,68626,1,0,0:0:0:0:
320,192,68626,1,0,0:0:0:0:
64,192,68724,1,0,0:0:0:0:
192,192,68724,1,0,0:0:0:0:
448,192,68724,1,0,0:0:0:0:
320,192,68724,1,0,0:0:0:0:
64,192,68822,1,0,0:0:0:0:
448,192,68822,1,0,0:0:0:0:
64,192,68920,1,0,0:0:0:0:
320,192,68920,1,0,0:0:0:0:
192,192,68920,1,0,0:0:0:0:
192,192,69018,1,0,0:0:0:0:
448,192,69018,1,0,0:0:0:0:
320,192,69116,1,0,0:0:0:0:
448,192,69116,1,0,0:0:0:0:
64,192,69116,1,0,0:0:0:0:
192,192,69214,1,0,0:0:0:0:
320,192,69214,1,0,0:0:0:0:
64,192,69312,1,0,0:0:0:0:
192,192,69312,1,0,0:0:0:0:
448,192,69312,1,0,0:0:0:0:
320,192,69410,1,0,0:0:0:0:
448,192,69410,1,0,0:0:0:0:
64,192,69508,1,0,0:0:0:0:
192,192,69508,1,0,0:0:0:0:
320,192,69508,1,0,0:0:0:0:
448,192,69508,1,0,0:0:0:0:
64,192,69606,1,0,0:0:0:0:
192,192,69606,1,0,0:0:0:0:
64,192,69704,1,0,0:0:0:0:
320,192,69704,1,0,0:0:0:0:
448,192,69704,1,0,0:0:0:0:
192,192,69802,1,0,0:0:0:0:
320,192,69802,1,0,0:0:0:0:
192,192,69900,1,0,0:0:0:0:
448,192,69900,1,0,0:0:0:0:
64,192,69900,1,0,0:0:0:0:
320,192,69998,1,0,0:0:0:0:
448,192,69998,1,0,0:0:0:0:
64,192,70096,1,0,0:0:0:0:
192,192,70096,1,0,0:0:0:0:
320,192,70096,1,0,0:0:0:0:
192,192,70194,1,0,0:0:0:0:
448,192,70194,1,0,0:0:0:0:
64,192,70292,1,0,0:0:0:0:
320,192,70292,1,0,0:0:0:0:
448,192,70292,1,0,0:0:0:0:
192,192,70292,1,0,0:0:0:0:
64,192,70390,1,0,0:0:0:0:
320,192,70390,1,0,0:0:0:0:
192,192,70488,1,0,0:0:0:0:
320,192,70488,1,0,0:0:0:0:
448,192,70488,1,0,0:0:0:0:
64,192,70586,1,0,0:0:0:0:
192,192,70586,1,0,0:0:0:0:
64,192,70684,1,0,0:0:0:0:
320,192,70684,1,0,0:0:0:0:
448,192,70684,1,0,0:0:0:0:
192,192,70782,1,0,0:0:0:0:
320,192,70782,1,0,0:0:0:0:
192,192,70880,1,0,0:0:0:0:
448,192,70880,1,0,0:0:0:0:
64,192,70880,1,0,0:0:0:0:
320,192,70979,1,0,0:0:0:0:
448,192,70979,1,0,0:0:0:0:
64,192,71077,1,0,0:0:0:0:
192,192,71077,1,0,0:0:0:0:
320,192,71077,1,0,0:0:0:0:
448,192,71077,1,0,0:0:0:0:
64,192,71175,1,0,0:0:0:0:
192,192,71175,1,0,0:0:0:0:
320,192,71273,1,0,0:0:0:0:
448,192,71273,1,0,0:0:0:0:
64,192,71273,1,0,0:0:0:0:
192,192,71371,1,0,0:0:0:0:
320,192,71371,1,0,0:0:0:0:
64,192,71469,1,0,0:0:0:0:
448,192,71469,1,0,0:0:0:0:
320,192,71469,1,0,0:0:0:0:
192,192,71567,1,0,0:0:0:0:
448,192,71567,1,0,0:0:0:0:
64,192,71665,1,0,0:0:0:0:
320,192,71665,1,0,0:0:0:0:
192,192,71665,1,0,0:0:0:0:
64,192,71763,1,0,0:0:0:0:
448,192,71763,1,0,0:0:0:0:
64,192,71861,1,0,0:0:0:0:
192,192,71861,1,0,0:0:0:0:
320,192,71861,1,0,0:0:0:0:
448,192,71861,1,0,0:0:0:0:
192,192,71959,1,0,0:0:0:0:
320,192,71959,1,0,0:0:0:0:
64,192,72057,1,0,0:0:0:0:
448,192,72057,1,0,0:0:0:0:
320,192,72057,1,0,0:0:0:0:
64,192,72155,1,0,0:0:0:0:
192,192,72155,1,0,0:0:0:0:
192,192,72253,1,0,0:0:0:0:
448,192,72253,1,0,0:0:0:0:
320,192,72253,1,0,0:0:0:0:
64,192,72351,1,0,0:0:0:0:
448,192,72351,1,0,0:0:0:0:
192,192,72449,1,0,0:0:0:0:
320,192,72449,1,0,0:0:0:0:
64,192,72449,1,0,0:0:0:0:
192,192,72547,1,0,0:0:0:0:
448,192,72547,1,0,0:0:0:0:
64,192,72645,1,0,0:0:0:0:
320,192,72645,1,0,0:0:0:0:
192,192,72645,1,0,0:0:0:0:
448,192,72645,1,0,0:0:0:0:
448,192,72743,1,0,0:0:0:0:
320,192,72743,1,0,0:0:0:0:
64,192,72841,1,0,0:0:0:0:
320,192,72841,1,0,0:0:0:0:
192,192,72841,1,0,0:0:0:0:
64,192,72939,1,0,0:0:0:0:
448,192,72939,1,0,0:0:0:0:
192,192,73037,1,0,0:0:0:0:
448,192,73037,1,0,0:0:0:0:
320,192,73037,1,0,0:0:0:0:
64,192,73135,1,0,0:0:0:0:
320,192,73135,1,0,0:0:0:0:
448,192,73233,1,0,0:0:0:0:
192,192,73233,1,0,0:0:0:0:
64,192,73233,1,0,0:0:0:0:
320,192,73331,1,0,0:0:0:0:
448,192,73331,1,0,0:0:0:0:
64,192,73430,1,0,0:0:0:0:
192,192,73430,1,0,0:0:0:0:
320,192,73430,1,0,0:0:0:0:
448,192,73430,1,0,0:0:0:0:
192,192,73528,1,0,0:0:0:0:
64,192,73528,1,0,0:0:0:0:
64,192,73626,1,0,0:0:0:0:
448,192,73626,1,0,0:0:0:0:
320,192,73626,1,0,0:0:0:0:
192,192,73724,1,0,0:0:0:0:
448,192,73724,1,0,0:0:0:0:
64,192,73822,1,0,0:0:0:0:
320,192,73822,1,0,0:0:0:0:
192,192,73822,1,0,0:0:0:0:
320,192,73920,1,0,0:0:0:0:
448,192,73920,1,0,0:0:0:0:
64,192,74018,1,0,0:0:0:0:
192,192,74018,1,0,0:0:0:0:
448,192,74018,1,0,0:0:0:0:
320,192,74116,1,0,0:0:0:0:
64,192,74116,1,0,0:0:0:0:
64,192,74214,1,0,0:0:0:0:
192,192,74214,1,0,0:0:0:0:
320,192,74214,1,0,0:0:0:0:
448,192,74214,1,0,0:0:0:0:
320,192,74312,1,0,0:0:0:0:
448,192,74312,1,0,0:0:0:0:
64,192,74410,1,0,0:0:0:0:
192,192,74410,1,0,0:0:0:0:
448,192,74410,1,0,0:0:0:0:
64,192,74508,1,0,0:0:0:0:
320,192,74508,1,0,0:0:0:0:
192,192,74606,1,0,0:0:0:0:
320,192,74606,1,0,0:0:0:0:
448,192,74606,1,0,0:0:0:0:
64,192,74704,1,0,0:0:0:0:
448,192,74704,1,0,0:0:0:0:
320,192,74802,1,0,0:0:0:0:
64,192,74802,1,0,0:0:0:0:
192,192,74802,1,0,0:0:0:0:
192,192,74900,1,0,0:0:0:0:
448,192,74900,1,0,0:0:0:0:
64,192,74998,1,0,0:0:0:0:
320,192,74998,1,0,0:0:0:0:
448,192,74998,1,0,0:0:0:0:
192,192,74998,1,0,0:0:0:0:
320,192,75096,1,0,0:0:0:0:
448,192,75096,1,0,0:0:0:0:
64,192,75194,1,0,0:0:0:0:
320,192,75194,1,0,0:0:0:0:
192,192,75194,1,0,0:0:0:0:
64,192,75292,1,0,0:0:0:0:
448,192,75292,1,0,0:0:0:0:
320,192,75390,1,0,0:0:0:0:
448,192,75390,1,0,0:0:0:0:
192,192,75390,1,0,0:0:0:0:
64,192,75488,1,0,0:0:0:0:
192,192,75488,1,0,0:0:0:0:
64,192,75586,1,0,0:0:0:0:
192,192,75586,1,0,0:0:0:0:
320,192,75586,1,0,0:0:0:0:
448,192,75586,1,0,0:0:0:0:
320,192,75684,1,0,0:0:0:0:
448,192,75684,1,0,0:0:0:0:
64,192,75782,1,0,0:0:0:0:
448,192,75782,1,0,0:0:0:0:
192,192,75782,1,0,0:0:0:0:
64,192,75880,1,0,0:0:0:0:
192,192,75880,1,0,0:0:0:0:
320,192,75880,1,0,0:0:0:0:
448,192,75880,1,0,0:0:0:0:
64,192,75979,1,0,0:0:0:0:
192,192,75979,1,0,0:0:0:0:
448,192,76077,1,0,0:0:0:0:
64,192,76077,1,0,0:0:0:0:
320,192,76077,1,0,0:0:0:0:
64,192,76175,1,0,0:0:0:0:
192,192,76175,1,0,0:0:0:0:
320,192,76175,1,0,0:0:0:0:
448,192,76175,1,0,0:0:0:0:
192,192,76273,1,0,0:0:0:0:
320,192,76273,1,0,0:0:0:0:
64,192,76371,1,0,0:0:0:0:
192,192,76371,1,0,0:0:0:0:
448,192,76371,1,0,0:0:0:0:
320,192,76469,1,0,0:0:0:0:
448,192,76469,1,0,0:0:0:0:
64,192,76567,1,0,0:0:0:0:
192,192,76567,1,0,0:0:0:0:
320,192,76567,1,0,0:0:0:0:
448,192,76567,1,0,0:0:0:0:
64,192,76665,1,0,0:0:0:0:
192,192,76665,1,0,0:0:0:0:
64,192,76763,1,0,0:0:0:0:
320,192,76763,1,0,0:0:0:0:
448,192,76763,1,0,0:0:0:0:
192,192,76861,1,0,0:0:0:0:
320,192,76861,1,0,0:0:0:0:
64,192,76959,1,0,0:0:0:0:
192,192,76959,1,0,0:0:0:0:
448,192,76959,1,0,0:0:0:0:
320,192,77057,1,0,0:0:0:0:
448,192,77057,1,0,0:0:0:0:
64,192,77155,1,0,0:0:0:0:
192,192,77155,1,0,0:0:0:0:
320,192,77155,1,0,0:0:0:0:
192,192,77253,1,0,0:0:0:0:
448,192,77253,1,0,0:0:0:0:
64,192,77351,1,0,0:0:0:0:
320,192,77351,1,0,0:0:0:0:
448,192,77351,1,0,0:0:0:0:
192,192,77351,1,0,0:0:0:0:
320,192,77449,1,0,0:0:0:0:
448,192,77449,1,0,0:0:0:0:
64,192,77547,1,0,0:0:0:0:
192,192,77547,1,0,0:0:0:0:
320,192,77547,1,0,0:0:0:0:
64,192,77645,1,0,0:0:0:0:
448,192,77645,1,0,0:0:0:0:
320,192,77743,1,0,0:0:0:0:
448,192,77743,1,0,0:0:0:0:
192,192,77743,1,0,0:0:0:0:
64,192,77841,1,0,0:0:0:0:
320,192,77841,1,0,0:0:0:0:
192,192,77939,1,0,0:0:0:0:
64,192,77939,1,0,0:0:0:0:
448,192,77939,1,0,0:0:0:0:
320,192,78037,1,0,0:0:0:0:
448,192,78037,1,0,0:0:0:0:
64,192,78135,1,0,0:0:0:0:
192,192,78135,1,0,0:0:0:0:
320,192,78135,1,0,0:0:0:0:
448,192,78135,1,0,0:0:0:0:
192,192,78233,1,0,0:0:0:0:
64,192,78233,1,0,0:0:0:0:
64,192,78331,1,0,0:0:0:0:
320,192,78331,1,0,0:0:0:0:
448,192,78331,1,0,0:0:0:0:
192,192,78430,1,0,0:0:0:0:
320,192,78430,1,0,0:0:0:0:
448,192,78528,1,0,0:0:0:0:
192,192,78528,1,0,0:0:0:0:
64,192,78528,1,0,0:0:0:0:
320,192,78626,1,0,0:0:0:0:
448,192,78626,1,0,0:0:0:0:
64,192,78724,1,0,0:0:0:0:
192,192,78724,1,0,0:0:0:0:
320,192,78724,1,0,0:0:0:0:
192,192,78822,1,0,0:0:0:0:
448,192,78822,1,0,0:0:0:0:
64,192,78920,1,0,0:0:0:0:
320,192,78920,1,0,0:0:0:0:
448,192,78920,1,0,0:0:0:0:
192,192,78920,1,0,0:0:0:0:
64,192,79018,1,0,0:0:0:0:
320,192,79018,1,0,0:0:0:0:
192,192,79116,1,0,0:0:0:0:
448,192,79116,1,0,0:0:0:0:
64,192,79116,1,0,0:0:0:0:
192,192,79214,1,0,0:0:0:0:
320,192,79214,1,0,0:0:0:0:
64,192,79312,1,0,0:0:0:0:
320,192,79312,1,0,0:0:0:0:
448,192,79312,1,0,0:0:0:0:
192,192,79410,1,0,0:0:0:0:
448,192,79410,1,0,0:0:0:0:
320,192,79508,1,0,0:0:0:0:
192,192,79508,1,0,0:0:0:0:
64,192,79508,1,0,0:0:0:0:
320,192,79606,1,0,0:0:0:0:
448,192,79606,1,0,0:0:0:0:
64,192,79704,1,0,0:0:0:0:
192,192,79704,1,0,0:0:0:0:
320,192,79704,1,0,0:0:0:0:
448,192,79704,1,0,0:0:0:0:
192,192,79802,1,0,0:0:0:0:
64,192,79802,1,0,0:0:0:0:
320,192,79900,1,0,0:0:0:0:
448,192,79900,1,0,0:0:0:0:
64,192,79900,1,0,0:0:0:0:
192,192,79998,1,0,0:0:0:0:
320,192,79998,1,0,0:0:0:0:
64,192,80096,1,0,0:0:0:0:
192,192,80096,1,0,0:0:0:0:
448,192,80096,1,0,0:0:0:0:
320,192,80194,1,0,0:0:0:0:
448,192,80194,1,0,0:0:0:0:
64,192,80292,1,0,0:0:0:0:
192,192,80292,1,0,0:0:0:0:
320,192,80292,1,0,0:0:0:0:
192,192,80390,1,0,0:0:0:0:
448,192,80390,1,0,0:0:0:0:
64,192,80488,1,0,0:0:0:0:
320,192,80488,1,0,0:0:0:0:
448,192,80488,1,0,0:0:0:0:
192,192,80488,1,0,0:0:0:0:
64,192,80586,1,0,0:0:0:0:
320,192,80586,1,0,0:0:0:0:
192,192,80684,1,0,0:0:0:0:
448,192,80684,1,0,0:0:0:0:
320,192,80684,1,0,0:0:0:0:
64,192,80782,1,0,0:0:0:0:
192,192,80782,1,0,0:0:0:0:
64,192,80880,1,0,0:0:0:0:
320,192,80880,1,0,0:0:0:0:
448,192,80880,1,0,0:0:0:0:
192,192,80979,1,0,0:0:0:0:
320,192,80979,1,0,0:0:0:0:
64,192,81077,1,0,0:0:0:0:
192,192,81077,1,0,0:0:0:0:
448,192,81077,1,0,0:0:0:0:
64,192,81175,1,0,0:0:0:0:
320,192,81175,1,0,0:0:0:0:
64,192,81273,1,0,0:0:0:0:
192,192,81273,1,0,0:0:0:0:
320,192,81273,1,0,0:0:0:0:
448,192,81273,1,0,0:0:0:0:
320,192,81371,1,0,0:0:0:0:
448,192,81371,1,0,0:0:0:0:
64,192,81469,1,0,0:0:0:0:
192,192,81469,1,0,0:0:0:0:
448,192,81469,1,0,0:0:0:0:
64,192,81567,1,0,0:0:0:0:
320,192,81567,1,0,0:0:0:0:
192,192,81665,1,0,0:0:0:0:
320,192,81665,1,0,0:0:0:0:
448,192,81665,1,0,0:0:0:0:
64,192,81763,1,0,0:0:0:0:
448,192,81763,1,0,0:0:0:0:
192,192,81861,1,0,0:0:0:0:
320,192,81861,1,0,0:0:0:0:
64,192,81861,1,0,0:0:0:0:
192,192,81959,1,0,0:0:0:0:
448,192,81959,1,0,0:0:0:0:
64,192,82057,1,0,0:0:0:0:
320,192,82057,1,0,0:0:0:0:
448,192,82057,1,0,0:0:0:0:
192,192,82057,1,0,0:0:0:0:
320,192,82155,1,0,0:0:0:0:
64,192,82155,1,0,0:0:0:0:
192,192,82253,1,0,0:0:0:0:
448,192,82253,1,0,0:0:0:0:
64,192,82253,1,0,0:0:0:0:
192,192,82351,1,0,0:0:0:0:
320,192,82351,1,0,0:0:0:0:
64,192,82449,1,0,0:0:0:0:
320,192,82449,1,0,0:0:0:0:
448,192,82449,1,0,0:0:0:0:
192,192,82547,1,0,0:0:0:0:
448,192,82547,1,0,0:0:0:0:
64,192,82645,1,0,0:0:0:0:
192,192,82645,1,0,0:0:0:0:
320,192,82645,1,0,0:0:0:0:
64,192,82743,1,0,0:0:0:0:
448,192,82743,1,0,0:0:0:0:
64,192,82841,1,0,0:0:0:0:
192,192,82841,1,0,0:0:0:0:
320,192,82841,1,0,0:0:0:0:
448,192,82841,1,0,0:0:0:0:
320,192,82939,1,0,0:0:0:0:
448,192,82939,1,0,0:0:0:0:
64,192,83037,1,0,0:0:0:0:
192,192,83037,1,0,0:0:0:0:
320,192,83037,1,0,0:0:0:0:
64,192,83135,1,0,0:0:0:0:
448,192,83135,1,0,0:0:0:0:
192,192,83233,1,0,0:0:0:0:
320,192,83233,1,0,0:0:0:0:
448,192,83233,1,0,0:0:0:0:
64,192,83331,1,0,0:0:0:0:
192,192,83331,1,0,0:0:0:0:
64,192,83430,1,0,0:0:0:0:
320,192,83430,1,0,0:0:0:0:
448,192,83430,1,0,0:0:0:0:
192,192,83528,1,0,0:0:0:0:
320,192,83528,1,0,0:0:0:0:
64,192,83626,1,0,0:0:0:0:
320,192,83626,1,0,0:0:0:0:
448,192,83626,1,0,0:0:0:0:
192,192,83626,1,0,0:0:0:0:
192,192,83724,1,0,0:0:0:0:
64,192,83724,1,0,0:0:0:0:
64,192,83822,1,0,0:0:0:0:
448,192,83822,1,0,0:0:0:0:
320,192,83822,1,0,0:0:0:0:
192,192,83920,1,0,0:0:0:0:
320,192,83920,1,0,0:0:0:0:
64,192,84018,1,0,0:0:0:0:
192,192,84018,1,0,0:0:0:0:
448,192,84018,1,0,0:0:0:0:
320,192,84116,1,0,0:0:0:0:
448,192,84116,1,0,0:0:0:0:
64,192,84214,1,0,0:0:0:0:
320,192,84214,1,0,0:0:0:0:
192,192,84214,1,0,0:0:0:0:
64,192,84312,1,0,0:0:0:0:
448,192,84312,1,0,0:0:0:0:
64,192,84410,1,0,0:0:0:0:
192,192,84410,1,0,0:0:0:0:
320,192,84410,1,0,0:0:0:0:
448,192,84410,1,0,0:0:0:0:
192,192,84508,1,0,0:0:0:0:
320,192,84508,1,0,0:0:0:0:
64,192,84606,1,0,0:0:0:0:
320,192,84606,1,0,0:0:0:0:
448,192,84606,1,0,0:0:0:0:
64,192,84704,1,0,0:0:0:0:
192,192,84704,1,0,0:0:0:0:
192,192,84802,1,0,0:0:0:0:
320,192,84802,1,0,0:0:0:0:
448,192,84802,1,0,0:0:0:0:
64,192,84900,1,0,0:0:0:0:
320,192,84900,1,0,0:0:0:0:
192,192,84998,1,0,0:0:0:0:
64,192,84998,1,0,0:0:0:0:
448,192,84998,1,0,0:0:0:0:
320,192,85096,1,0,0:0:0:0:
448,192,85096,1,0,0:0:0:0:
64,192,85194,1,0,0:0:0:0:
192,192,85194,1,0,0:0:0:0:
320,192,85194,1,0,0:0:0:0:
448,192,85194,1,0,0:0:0:0:
192,192,85292,1,0,0:0:0:0:
64,192,85292,1,0,0:0:0:0:
64,192,85390,1,0,0:0:0:0:
448,192,85390,1,0,0:0:0:0:
320,192,85390,1,0,0:0:0:0:
192,192,85488,1,0,0:0:0:0:
320,192,85488,1,0,0:0:0:0:
64,192,85586,1,0,0:0:0:0:
192,192,85586,1,0,0:0:0:0:
448,192,85586,1,0,0:0:0:0:
320,192,85684,1,0,0:0:0:0:
448,192,85684,1,0,0:0:0:0:
64,192,85782,1,0,0:0:0:0:
192,192,85782,1,0,0:0:0:0:
320,192,85782,1,0,0:0:0:0:
64,192,85880,1,0,0:0:0:0:
448,192,85880,1,0,0:0:0:0:
64,192,85979,1,0,0:0:0:0:
192,192,85979,1,0,0:0:0:0:
320,192,85979,1,0,0:0:0:0:
448,192,85979,1,0,0:0:0:0:
320,192,86077,1,0,0:0:0:0:
448,192,86077,1,0,0:0:0:0:
64,192,86175,1,0,0:0:0:0:
192,192,86175,1,0,0:0:0:0:
320,192,86175,1,0,0:0:0:0:
64,192,86273,1,0,0:0:0:0:
448,192,86273,1,0,0:0:0:0:
192,192,86371,1,0,0:0:0:0:
320,192,86371,1,0,0:0:0:0:
448,192,86371,1,0,0:0:0:0:
64,192,86469,1,0,0:0:0:0:
192,192,86469,1,0,0:0:0:0:
64,192,86567,1,0,0:0:0:0:
320,192,86567,1,0,0:0:0:0:
448,192,86567,1,0,0:0:0:0:
192,192,86665,1,0,0:0:0:0:
320,192,86665,1,0,0:0:0:0:
64,192,86763,1,0,0:0:0:0:
320,192,86763,1,0,0:0:0:0:
448,192,86763,1,0,0:0:0:0:
192,192,86763,1,0,0:0:0:0:
64,192,86861,1,0,0:0:0:0:
192,192,86861,1,0,0:0:0:0:
64,192,86959,1,0,0:0:0:0:
448,192,86959,1,0,0:0:0:0:
320,192,86959,1,0,0:0:0:0:
192,192,87057,1,0,0:0:0:0:
320,192,87057,1,0,0:0:0:0:
64,192,87155,1,0,0:0:0:0:
192,192,87155,1,0,0:0:0:0:
320,192,87155,1,0,0:0:0:0:
448,192,87155,1,0,0:0:0:0:
64,192,87253,1,0,0:0:0:0:
448,192,87253,1,0,0:0:0:0:
192,192,87351,1,0,0:0:0:0:
320,192,87351,1,0,0:0:0:0:
64,192,87449,1,0,0:0:0:0:
448,192,87449,1,0,0:0:0:0:
64,192,87547,1,0,0:0:0:0:
192,192,87547,1,0,0:0:0:0:
320,192,87645,1,0,0:0:0:0:
448,192,87645,1,0,0:0:0:0:
64,192,87743,1,0,0:0:0:0:
192,192,87743,1,0,0:0:0:0:
320,192,87841,1,0,0:0:0:0:
448,192,87841,1,0,0:0:0:0:
64,192,87939,1,0,0:0:0:0:
192,192,87972,1,0,0:0:0:0:
320,192,88005,1,0,0:0:0:0:
448,192,88037,1,0,0:0:0:0:
64,192,88070,1,0,0:0:0:0:
192,192,88103,1,0,0:0:0:0:
320,192,88135,1,0,0:0:0:0:
448,192,88168,1,0,0:0:0:0:
64,192,88201,1,0,0:0:0:0:
192,192,88233,1,0,0:0:0:0:
320,192,88266,1,0,0:0:0:0:
448,192,88299,1,0,0:0:0:0:
64,192,88331,1,0,0:0:0:0:
192,192,88364,1,0,0:0:0:0:
320,192,88397,1,0,0:0:0:0:
448,192,88430,1,0,0:0:0:0:
64,192,88462,1,0,0:0:0:0:
192,192,88495,1,0,0:0:0:0:
320,192,88528,1,0,0:0:0:0:
448,192,88560,1,0,0:0:0:0:
64,192,88593,1,0,0:0:0:0:
192,192,88626,1,0,0:0:0:0:
320,192,88658,1,0,0:0:0:0:
448,192,88691,1,0,0:0:0:0:
64,192,88724,1,0,0:0:0:0:
192,192,88724,1,0,0:0:0:0:
320,192,88920,1,0,0:0:0:0:
192,192,89116,1,0,0:0:0:0:
64,192,89116,1,0,0:0:0:0:
448,192,89116,1,0,0:0:0:0:
320,192,89312,1,0,0:0:0:0:
448,192,89312,1,0,0:0:0:0:
192,192,89508,1,0,0:0:0:0:
64,192,89704,1,0,0:0:0:0:
448,192,89704,1,0,0:0:0:0:
320,192,89704,1,0,0:0:0:0:
192,192,89900,1,0,0:0:0:0:
448,192,90096,1,0,0:0:0:0:
320,192,90096,1,0,0:0:0:0:
64,192,90292,1,0,0:0:0:0:
192,192,90292,1,0,0:0:0:0:
448,192,90292,1,0,0:0:0:0:
192,192,90488,1,0,0:0:0:0:
320,192,90488,1,0,0:0:0:0:
320,192,90684,1,0,0:0:0:0:
448,192,90684,1,0,0:0:0:0:
64,192,90684,1,0,0:0:0:0:
192,192,90880,1,0,0:0:0:0:
64,192,90880,1,0,0:0:0:0:
320,192,91077,1,0,0:0:0:0:
448,192,91273,1,0,0:0:0:0:
192,192,91273,1,0,0:0:0:0:
64,192,91273,1,0,0:0:0:0:
192,192,91469,1,0,0:0:0:0:
64,192,91469,1,0,0:0:0:0:
448,192,91469,1,0,0:0:0:0:
320,192,91665,1,0,0:0:0:0:
192,192,91665,1,0,0:0:0:0:
64,192,91861,1,0,0:0:0:0:
320,192,91861,1,0,0:0:0:0:
448,192,91861,1,0,0:0:0:0:
192,192,92057,1,0,0:0:0:0:
320,192,92253,1,0,0:0:0:0:
448,192,92253,1,0,0:0:0:0:
192,192,92449,1,0,0:0:0:0:
64,192,92449,1,0,0:0:0:0:
64,192,92645,1,0,0:0:0:0:
320,192,92645,1,0,0:0:0:0:
448,192,92645,1,0,0:0:0:0:
192,192,92841,1,0,0:0:0:0:
64,192,93037,1,0,0:0:0:0:
448,192,93037,1,0,0:0:0:0:
320,192,93233,1,0,0:0:0:0:
192,192,93233,1,0,0:0:0:0:
64,192,93430,1,0,0:0:0:0:
192,192,93430,1,0,0:0:0:0:
448,192,93430,1,0,0:0:0:0:
320,192,93626,1,0,0:0:0:0:
64,192,93822,1,0,0:0:0:0:
192,192,93822,1,0,0:0:0:0:
448,192,93822,1,0,0:0:0:0:
320,192,94018,1,0,0:0:0:0:
448,192,94018,1,0,0:0:0:0:
64,192,94018,1,0,0:0:0:0:
192,192,94214,1,0,0:0:0:0:
320,192,94410,1,0,0:0:0:0:
448,192,94410,1,0,0:0:0:0:
192,192,94606,1,0,0:0:0:0:
320,192,94606,1,0,0:0:0:0:
64,192,94802,1,0,0:0:0:0:
192,192,94802,1,0,0:0:0:0:
448,192,94802,1,0,0:0:0:0:
320,192,94998,1,0,0:0:0:0:
448,192,94998,1,0,0:0:0:0:
64,192,94998,1,0,0:0:0:0:
192,192,95194,1,0,0:0:0:0:
320,192,95390,1,0,0:0:0:0:
448,192,95390,1,0,0:0:0:0:
64,192,95586,1,0,0:0:0:0:
192,192,95586,1,0,0:0:0:0:
448,192,95586,1,0,0:0:0:0:
320,192,95782,1,0,0:0:0:0:
192,192,95979,1,0,0:0:0:0:
64,192,96175,1,0,0:0:0:0:
320,192,96175,1,0,0:0:0:0:
448,192,96175,1,0,0:0:0:0:
192,192,96371,1,0,0:0:0:0:
320,192,96371,1,0,0:0:0:0:
448,192,96371,1,0,0:0:0:0:
64,192,96567,1,0,0:0:0:0:
192,192,96567,1,0,0:0:0:0:
448,192,96567,1,0,0:0:0:0:
320,192,96763,1,0,0:0:0:0:
192,192,96959,1,0,0:0:0:0:
64,192,96959,1,0,0:0:0:0:
64,192,97155,1,0,0:0:0:0:
320,192,97155,1,0,0:0:0:0:
448,192,97155,1,0,0:0:0:0:
192,192,97351,1,0,0:0:0:0:
320,192,97547,1,0,0:0:0:0:
448,192,97743,1,0,0:0:0:0:
192,192,97743,1,0,0:0:0:0:
64,192,97743,1,0,0:0:0:0:
320,192,97939,1,0,0:0:0:0:
448,192,97939,1,0,0:0:0:0:
192,192,97939,1,0,0:0:0:0:
320,192,98135,1,0,0:0:0:0:
64,192,98135,1,0,0:0:0:0:
448,192,98135,1,0,0:0:0:0:
192,192,98331,1,0,0:0:0:0:
320,192,98528,1,0,0:0:0:0:
448,192,98528,1,0,0:0:0:0:
64,192,98724,1,0,0:0:0:0:
192,192,98724,1,0,0:0:0:0:
448,192,98724,1,0,0:0:0:0:
320,192,98920,1,0,0:0:0:0:
192,192,99116,1,0,0:0:0:0:
320,192,99312,1,0,0:0:0:0:
448,192,99312,1,0,0:0:0:0:
64,192,99410,1,0,0:0:0:0:
192,192,99410,1,0,0:0:0:0:
448,192,99508,1,0,0:0:0:0:
320,192,99508,1,0,0:0:0:0:
192,192,99606,1,0,0:0:0:0:
64,192,99606,1,0,0:0:0:0:
320,192,99704,1,0,0:0:0:0:
448,192,99704,1,0,0:0:0:0:
192,192,99900,1,0,0:0:0:0:
64,192,100096,1,0,0:0:0:0:
448,192,100096,1,0,0:0:0:0:
320,192,100096,1,0,0:0:0:0:
192,192,100292,1,0,0:0:0:0:
320,192,100488,1,0,0:0:0:0:
448,192,100488,1,0,0:0:0:0:
64,192,100684,1,0,0:0:0:0:
192,192,100880,1,0,0:0:0:0:
320,192,100880,1,0,0:0:0:0:
448,192,101077,1,0,0:0:0:0:
64,192,101273,1,0,0:0:0:0:
192,192,101273,1,0,0:0:0:0:
320,192,101371,1,0,0:0:0:0:
448,192,101469,1,0,0:0:0:0:
64,192,101469,1,0,0:0:0:0:
192,192,101567,1,0,0:0:0:0:
320,192,101665,1,0,0:0:0:0:
448,192,101665,1,0,0:0:0:0:
64,192,101763,1,0,0:0:0:0:
192,192,101861,1,0,0:0:0:0:
320,192,101861,1,0,0:0:0:0:
448,192,101861,1,0,0:0:0:0:
64,192,101959,1,0,0:0:0:0:
192,192,102057,1,0,0:0:0:0:
448,192,102057,1,0,0:0:0:0:
320,192,102155,1,0,0:0:0:0:
64,192,102253,1,0,0:0:0:0:
448,192,102253,1,0,0:0:0:0:
192,192,102253,1,0,0:0:0:0:
320,192,102351,1,0,0:0:0:0:
64,192,102449,1,0,0:0:0:0:
192,192,102449,1,0,0:0:0:0:
448,192,102547,1,0,0:0:0:0:
64,192,102645,1,0,0:0:0:0:
192,192,102645,1,0,0:0:0:0:
320,192,102645,1,0,0:0:0:0:
64,192,102743,1,0,0:0:0:0:
192,192,102841,1,0,0:0:0:0:
320,192,102841,1,0,0:0:0:0:
448,192,102841,1,0,0:0:0:0:
448,192,102939,1,0,0:0:0:0:
64,192,103037,1,0,0:0:0:0:
192,192,103037,1,0,0:0:0:0:
320,192,103037,1,0,0:0:0:0:
192,192,103135,1,0,0:0:0:0:
64,192,103233,1,0,0:0:0:0:
320,192,103233,1,0,0:0:0:0:
448,192,103233,1,0,0:0:0:0:
320,192,103331,1,0,0:0:0:0:
64,192,103430,1,0,0:0:0:0:
192,192,103430,1,0,0:0:0:0:
448,192,103430,1,0,0:0:0:0:
320,192,103528,1,0,0:0:0:0:
192,192,103626,1,0,0:0:0:0:
64,192,103626,1,0,0:0:0:0:
448,192,103724,1,0,0:0:0:0:
64,192,103822,1,0,0:0:0:0:
192,192,103822,1,0,0:0:0:0:
320,192,103822,1,0,0:0:0:0:
64,192,103920,1,0,0:0:0:0:
192,192,104018,1,0,0:0:0:0:
320,192,104018,1,0,0:0:0:0:
448,192,104018,1,0,0:0:0:0:
192,192,104116,1,0,0:0:0:0:
320,192,104214,1,0,0:0:0:0:
448,192,104214,1,0,0:0:0:0:
64,192,104214,1,0,0:0:0:0:
320,192,104312,1,0,0:0:0:0:
192,192,104410,1,0,0:0:0:0:
64,192,104410,1,0,0:0:0:0:
448,192,104410,1,0,0:0:0:0:
448,192,104508,1,0,0:0:0:0:
192,192,104606,1,0,0:0:0:0:
320,192,104606,1,0,0:0:0:0:
64,192,104704,1,0,0:0:0:0:
320,192,104802,1,0,0:0:0:0:
448,192,104802,1,0,0:0:0:0:
192,192,104900,1,0,0:0:0:0:
64,192,104998,1,0,0:0:0:0:
320,192,104998,1,0,0:0:0:0:
448,192,104998,1,0,0:0:0:0:
192,192,105096,1,0,0:0:0:0:
64,192,105194,1,0,0:0:0:0:
320,192,105194,1,0,0:0:0:0:
448,192,105194,1,0,0:0:0:0:
192,192,105292,1,0,0:0:0:0:
448,192,105390,1,0,0:0:0:0:
320,192,105390,1,0,0:0:0:0:
64,192,105488,1,0,0:0:0:0:
192,192,105586,1,0,0:0:0:0:
448,192,105586,1,0,0:0:0:0:
320,192,105684,1,0,0:0:0:0:
64,192,105782,1,0,0:0:0:0:
192,192,105782,1,0,0:0:0:0:
448,192,105782,1,0,0:0:0:0:
320,192,105880,1,0,0:0:0:0:
64,192,105979,1,0,0:0:0:0:
192,192,105979,1,0,0:0:0:0:
448,192,105979,1,0,0:0:0:0:
320,192,106077,1,0,0:0:0:0:
64,192,106175,1,0,0:0:0:0:
192,192,106175,1,0,0:0:0:0:
448,192,106273,1,0,0:0:0:0:
64,192,106371,1,0,0:0:0:0:
192,192,106371,1,0,0:0:0:0:
320,192,106371,1,0,0:0:0:0:
448,192,106469,1,0,0:0:0:0:
64,192,106567,1,0,0:0:0:0:
320,192,106567,1,0,0:0:0:0:
192,192,106567,1,0,0:0:0:0:
448,192,106665,1,0,0:0:0:0:
192,192,106763,1,0,0:0:0:0:
320,192,106763,1,0,0:0:0:0:
64,192,106861,1,0,0:0:0:0:
192,192,106959,1,0,0:0:0:0:
320,192,106959,1,0,0:0:0:0:
448,192,106959,1,0,0:0:0:0:
448,192,107057,1,0,0:0:0:0:
64,192,107155,1,0,0:0:0:0:
192,192,107155,1,0,0:0:0:0:
320,192,107155,1,0,0:0:0:0:
64,192,107253,1,0,0:0:0:0:
192,192,107351,1,0,0:0:0:0:
320,192,107351,1,0,0:0:0:0:
448,192,107351,1,0,0:0:0:0:
320,192,107449,1,0,0:0:0:0:
64,192,107547,1,0,0:0:0:0:
192,192,107547,1,0,0:0:0:0:
448,192,107547,1,0,0:0:0:0:
192,192,107645,1,0,0:0:0:0:
320,192,107743,1,0,0:0:0:0:
448,192,107743,1,0,0:0:0:0:
64,192,107841,1,0,0:0:0:0:
192,192,107939,1,0,0:0:0:0:
448,192,107939,1,0,0:0:0:0:
320,192,108037,1,0,0:0:0:0:
64,192,108135,1,0,0:0:0:0:
192,192,108135,1,0,0:0:0:0:
448,192,108135,1,0,0:0:0:0:
320,192,108233,1,0,0:0:0:0:
64,192,108331,1,0,0:0:0:0:
192,192,108331,1,0,0:0:0:0:
448,192,108430,1,0,0:0:0:0:
64,192,108528,1,0,0:0:0:0:
320,192,108528,1,0,0:0:0:0:
192,192,108626,1,0,0:0:0:0:
64,192,108724,1,0,0:0:0:0:
320,192,108724,1,0,0:0:0:0:
448,192,108724,1,0,0:0:0:0:
192,192,108822,1,0,0:0:0:0:
320,192,108920,1,0,0:0:0:0:
448,192,108920,1,0,0:0:0:0:
64,192,109018,1,0,0:0:0:0:
320,192,109116,1,0,0:0:0:0:
192,192,109116,1,0,0:0:0:0:
448,192,109116,1,0,0:0:0:0:
64,192,109214,1,0,0:0:0:0:
320,192,109312,1,0,0:0:0:0:
448,192,109312,1,0,0:0:0:0:
192,192,109410,1,0,0:0:0:0:
64,192,109508,1,0,0:0:0:0:
448,192,109508,1,0,0:0:0:0:
320,192,109606,1,0,0:0:0:0:
64,192,109704,1,0,0:0:0:0:
192,192,109704,1,0,0:0:0:0:
448,192,109704,1,0,0:0:0:0:
320,192,109802,1,0,0:0:0:0:
192,192,109900,1,0,0:0:0:0:
64,192,109900,1,0,0:0:0:0:
448,192,109998,1,0,0:0:0:0:
320,192,110096,1,0,0:0:0:0:
64,192,110096,1,0,0:0:0:0:
192,192,110194,1,0,0:0:0:0:
64,192,110292,1,0,0:0:0:0:
320,192,110292,1,0,0:0:0:0:
448,192,110292,1,0,0:0:0:0:
192,192,110390,1,0,0:0:0:0:
320,192,110488,1,0,0:0:0:0:
448,192,110488,1,0,0:0:0:0:
64,192,110586,1,0,0:0:0:0:
448,192,110684,1,0,0:0:0:0:
320,192,110684,1,0,0:0:0:0:
192,192,110684,1,0,0:0:0:0:
64,192,110782,1,0,0:0:0:0:
192,192,110880,1,0,0:0:0:0:
448,192,110880,1,0,0:0:0:0:
320,192,110979,1,0,0:0:0:0:
192,192,111077,1,0,0:0:0:0:
64,192,111077,1,0,0:0:0:0:
448,192,111175,1,0,0:0:0:0:
64,192,111273,1,0,0:0:0:0:
192,192,111273,1,0,0:0:0:0:
320,192,111273,1,0,0:0:0:0:
448,192,111371,1,0,0:0:0:0:
64,192,111469,1,0,0:0:0:0:
192,192,111469,1,0,0:0:0:0:
320,192,111567,1,0,0:0:0:0:
64,192,111665,1,0,0:0:0:0:
448,192,111665,1,0,0:0:0:0:
320,192,111763,1,0,0:0:0:0:
64,192,111861,1,0,0:0:0:0:
192,192,111861,1,0,0:0:0:0:
320,192,111959,1,0,0:0:0:0:
448,192,111959,1,0,0:0:0:0:
192,192,112057,1,0,0:0:0:0:
64,192,112057,1,0,0:0:0:0:
320,192,112155,1,0,0:0:0:0:
448,192,112155,1,0,0:0:0:0:
64,192,112253,1,0,0:0:0:0:
192,192,112253,1,0,0:0:0:0:
448,192,112253,1,0,0:0:0:0:
320,192,112449,1,0,0:0:0:0:
192,192,112645,5,0,0:0:0:0:
64,192,112841,1,0,0:0:0:0:
192,192,113037,1,0,0:0:0:0:
320,192,113233,1,0,0:0:0:0:
448,192,113430,1,0,0:0:0:0:
320,192,113626,1,0,0:0:0:0:
64,192,113822,5,0,0:0:0:0:
192,192,113822,1,0,0:0:0:0:
448,192,113822,1,0,0:0:0:0:
192,192,113920,1,0,0:0:0:0:
320,192,113920,1,0,0:0:0:0:
64,192,114018,1,0,0:0:0:0:
320,192,114018,1,0,0:0:0:0:
448,192,114018,1,0,0:0:0:0:
64,192,114116,1,0,0:0:0:0:
192,192,114116,1,0,0:0:0:0:
192,192,114214,1,0,0:0:0:0:
320,192,114214,1,0,0:0:0:0:
448,192,114214,1,0,0:0:0:0:
64,192,114214,1,0,0:0:0:0:
320,192,114312,1,0,0:0:0:0:
448,192,114312,1,0,0:0:0:0:
64,192,114410,1,0,0:0:0:0:
192,192,114410,1,0,0:0:0:0:
448,192,114410,1,0,0:0:0:0:
192,192,114508,1,0,0:0:0:0:
320,192,114508,1,0,0:0:0:0:
64,192,114606,1,0,0:0:0:0:
320,192,114606,1,0,0:0:0:0:
448,192,114606,1,0,0:0:0:0:
192,192,114606,1,0,0:0:0:0:
64,192,114704,1,0,0:0:0:0:
448,192,114704,1,0,0:0:0:0:
320,192,114802,1,0,0:0:0:0:
448,192,114802,1,0,0:0:0:0:
192,192,114802,1,0,0:0:0:0:
64,192,114900,1,0,0:0:0:0:
320,192,114900,1,0,0:0:0:0:
64,192,114998,1,0,0:0:0:0:
192,192,114998,1,0,0:0:0:0:
448,192,114998,1,0,0:0:0:0:
192,192,115096,1,0,0:0:0:0:
320,192,115096,1,0,0:0:0:0:
64,192,115194,1,0,0:0:0:0:
320,192,115194,1,0,0:0:0:0:
448,192,115194,1,0,0:0:0:0:
192,192,115292,1,0,0:0:0:0:
448,192,115292,1,0,0:0:0:0:
64,192,115390,1,0,0:0:0:0:
320,192,115390,1,0,0:0:0:0:
448,192,115390,1,0,0:0:0:0:
192,192,115390,1,0,0:0:0:0:
192,192,115488,1,0,0:0:0:0:
64,192,115488,1,0,0:0:0:0:
64,192,115586,1,0,0:0:0:0:
320,192,115586,1,0,0:0:0:0:
448,192,115586,1,0,0:0:0:0:
192,192,115684,1,0,0:0:0:0:
448,192,115684,1,0,0:0:0:0:
64,192,115782,1,0,0:0:0:0:
320,192,115782,1,0,0:0:0:0:
448,192,115782,1,0,0:0:0:0:
192,192,115782,1,0,0:0:0:0:
64,192,115880,1,0,0:0:0:0:
192,192,115880,1,0,0:0:0:0:
64,192,115979,1,0,0:0:0:0:
320,192,115979,1,0,0:0:0:0:
448,192,115979,1,0,0:0:0:0:
192,192,116077,1,0,0:0:0:0:
448,192,116077,1,0,0:0:0:0:
64,192,116175,1,0,0:0:0:0:
320,192,116175,1,0,0:0:0:0:
448,192,116175,1,0,0:0:0:0:
192,192,116175,1,0,0:0:0:0:
64,192,116273,1,0,0:0:0:0:
320,192,116273,1,0,0:0:0:0:
192,192,116371,1,0,0:0:0:0:
448,192,116371,1,0,0:0:0:0:
64,192,116371,1,0,0:0:0:0:
320,192,116469,1,0,0:0:0:0:
448,192,116469,1,0,0:0:0:0:
64,192,116567,1,0,0:0:0:0:
192,192,116567,1,0,0:0:0:0:
320,192,116567,1,0,0:0:0:0:
448,192,116567,1,0,0:0:0:0:
192,192,116665,1,0,0:0:0:0:
64,192,116665,1,0,0:0:0:0:
192,192,116763,1,0,0:0:0:0:
448,192,116763,1,0,0:0:0:0:
320,192,116763,1,0,0:0:0:0:
64,192,116861,1,0,0:0:0:0:
448,192,116861,1,0,0:0:0:0:
64,192,116959,1,0,0:0:0:0:
320,192,116959,1,0,0:0:0:0:
448,192,116959,1,0,0:0:0:0:
192,192,116959,1,0,0:0:0:0:
64,192,117057,1,0,0:0:0:0:
320,192,117057,1,0,0:0:0:0:
192,192,117155,1,0,0:0:0:0:
448,192,117155,1,0,0:0:0:0:
320,192,117155,1,0,0:0:0:0:
64,192,117253,1,0,0:0:0:0:
448,192,117253,1,0,0:0:0:0:
192,192,117351,1,0,0:0:0:0:
320,192,117351,1,0,0:0:0:0:
64,192,117351,1,0,0:0:0:0:
320,192,117449,1,0,0:0:0:0:
448,192,117449,1,0,0:0:0:0:
64,192,117547,1,0,0:0:0:0:
192,192,117547,1,0,0:0:0:0:
448,192,117547,1,0,0:0:0:0:
320,192,117547,1,0,0:0:0:0:
192,192,117645,1,0,0:0:0:0:
64,192,117645,1,0,0:0:0:0:
64,192,117743,1,0,0:0:0:0:
320,192,117743,1,0,0:0:0:0:
448,192,117743,1,0,0:0:0:0:
192,192,117841,1,0,0:0:0:0:
448,192,117841,1,0,0:0:0:0:
64,192,117939,1,0,0:0:0:0:
320,192,117939,1,0,0:0:0:0:
448,192,117939,1,0,0:0:0:0:
320,192,118037,1,0,0:0:0:0:
192,192,118037,1,0,0:0:0:0:
64,192,118135,1,0,0:0:0:0:
192,192,118135,1,0,0:0:0:0:
448,192,118135,1,0,0:0:0:0:
320,192,118135,1,0,0:0:0:0:
64,192,118233,1,0,0:0:0:0:
448,192,118233,1,0,0:0:0:0:
192,192,118331,1,0,0:0:0:0:
320,192,118331,1,0,0:0:0:0:
448,192,118331,1,0,0:0:0:0:
64,192,118430,1,0,0:0:0:0:
192,192,118430,1,0,0:0:0:0:
64,192,118528,1,0,0:0:0:0:
320,192,118528,1,0,0:0:0:0:
448,192,118528,1,0,0:0:0:0:
192,192,118626,1,0,0:0:0:0:
320,192,118626,1,0,0:0:0:0:
64,192,118724,1,0,0:0:0:0:
192,192,118724,1,0,0:0:0:0:
448,192,118724,1,0,0:0:0:0:
64,192,118822,1,0,0:0:0:0:
320,192,118822,1,0,0:0:0:0:
64,192,118920,1,0,0:0:0:0:
192,192,118920,1,0,0:0:0:0:
320,192,118920,1,0,0:0:0:0:
448,192,118920,1,0,0:0:0:0:
192,192,119018,1,0,0:0:0:0:
448,192,119018,1,0,0:0:0:0:
64,192,119116,1,0,0:0:0:0:
320,192,119116,1,0,0:0:0:0:
448,192,119116,1,0,0:0:0:0:
192,192,119214,1,0,0:0:0:0:
320,192,119214,1,0,0:0:0:0:
64,192,119312,1,0,0:0:0:0:
192,192,119312,1,0,0:0:0:0:
448,192,119312,1,0,0:0:0:0:
320,192,119312,1,0,0:0:0:0:
64,192,119410,1,0,0:0:0:0:
192,192,119410,1,0,0:0:0:0:
64,192,119508,1,0,0:0:0:0:
320,192,119508,1,0,0:0:0:0:
448,192,119508,1,0,0:0:0:0:
192,192,119606,1,0,0:0:0:0:
320,192,119606,1,0,0:0:0:0:
64,192,119704,1,0,0:0:0:0:
192,192,119704,1,0,0:0:0:0:
448,192,119704,1,0,0:0:0:0:
448,192,119802,1,0,0:0:0:0:
320,192,119802,1,0,0:0:0:0:
64,192,119900,1,0,0:0:0:0:
320,192,119900,1,0,0:0:0:0:
192,192,119900,1,0,0:0:0:0:
448,192,119900,1,0,0:0:0:0:
192,192,119998,1,0,0:0:0:0:
64,192,119998,1,0,0:0:0:0:
64,192,120096,1,0,0:0:0:0:
320,192,120096,1,0,0:0:0:0:
192,192,120096,1,0,0:0:0:0:
448,192,120096,1,0,0:0:0:0:
320,192,120194,1,0,0:0:0:0:
448,192,120194,1,0,0:0:0:0:
64,192,120292,1,0,0:0:0:0:
192,192,120292,1,0,0:0:0:0:
448,192,120292,1,0,0:0:0:0:
192,192,120390,1,0,0:0:0:0:
320,192,120390,1,0,0:0:0:0:
64,192,120488,1,0,0:0:0:0:
320,192,120488,1,0,0:0:0:0:
448,192,120488,1,0,0:0:0:0:
192,192,120586,1,0,0:0:0:0:
448,192,120586,1,0,0:0:0:0:
64,192,120684,1,0,0:0:0:0:
192,192,120684,1,0,0:0:0:0:
320,192,120684,1,0,0:0:0:0:
64,192,120782,1,0,0:0:0:0:
448,192,120782,1,0,0:0:0:0:
64,192,120880,1,0,0:0:0:0:
192,192,120880,1,0,0:0:0:0:
320,192,120880,1,0,0:0:0:0:
448,192,120880,1,0,0:0:0:0:
320,192,120979,1,0,0:0:0:0:
448,192,120979,1,0,0:0:0:0:
64,192,121077,1,0,0:0:0:0:
320,192,121077,1,0,0:0:0:0:
192,192,121077,1,0,0:0:0:0:
64,192,121175,1,0,0:0:0:0:
448,192,121175,1,0,0:0:0:0:
320,192,121273,1,0,0:0:0:0:
448,192,121273,1,0,0:0:0:0:
192,192,121273,1,0,0:0:0:0:
64,192,121371,1,0,0:0:0:0:
192,192,121371,1,0,0:0:0:0:
64,192,121469,1,0,0:0:0:0:
320,192,121469,1,0,0:0:0:0:
448,192,121469,1,0,0:0:0:0:
192,192,121567,1,0,0:0:0:0:
320,192,121567,1,0,0:0:0:0:
64,192,121665,1,0,0:0:0:0:
320,192,121665,1,0,0:0:0:0:
448,192,121665,1,0,0:0:0:0:
192,192,121665,1,0,0:0:0:0:
64,192,121763,1,0,0:0:0:0:
448,192,121763,1,0,0:0:0:0:
192,192,121861,1,0,0:0:0:0:
320,192,121861,1,0,0:0:0:0:
448,192,121861,1,0,0:0:0:0:
64,192,121959,1,0,0:0:0:0:
320,192,121959,1,0,0:0:0:0:
192,192,122057,1,0,0:0:0:0:
64,192,122057,1,0,0:0:0:0:
448,192,122057,1,0,0:0:0:0:
320,192,122155,1,0,0:0:0:0:
448,192,122155,1,0,0:0:0:0:
64,192,122253,1,0,0:0:0:0:
192,192,122253,1,0,0:0:0:0:
320,192,122253,1,0,0:0:0:0:
192,192,122351,1,0,0:0:0:0:
448,192,122351,1,0,0:0:0:0:
64,192,122449,1,0,0:0:0:0:
320,192,122449,1,0,0:0:0:0:
448,192,122449,1,0,0:0:0:0:
192,192,122449,1,0,0:0:0:0:
320,192,122547,1,0,0:0:0:0:
448,192,122547,1,0,0:0:0:0:
64,192,122645,1,0,0:0:0:0:
192,192,122645,1,0,0:0:0:0:
320,192,122645,1,0,0:0:0:0:
64,192,122743,1,0,0:0:0:0:
448,192,122743,1,0,0:0:0:0:
192,192,122841,1,0,0:0:0:0:
448,192,122841,1,0,0:0:0:0:
320,192,122841,1,0,0:0:0:0:
64,192,122939,1,0,0:0:0:0:
192,192,122939,1,0,0:0:0:0:
64,192,123037,1,0,0:0:0:0:
320,192,123037,1,0,0:0:0:0:
448,192,123037,1,0,0:0:0:0:
192,192,123135,1,0,0:0:0:0:
320,192,123135,1,0,0:0:0:0:
64,192,123233,1,0,0:0:0:0:
320,192,123233,1,0,0:0:0:0:
448,192,123233,1,0,0:0:0:0:
192,192,123233,1,0,0:0:0:0:
64,192,123331,1,0,0:0:0:0:
192,192,123331,1,0,0:0:0:0:
64,192,123430,1,0,0:0:0:0:
320,192,123430,1,0,0:0:0:0:
448,192,123430,1,0,0:0:0:0:
320,192,123528,1,0,0:0:0:0:
192,192,123528,1,0,0:0:0:0:
64,192,123626,1,0,0:0:0:0:
192,192,123626,1,0,0:0:0:0:
448,192,123626,1,0,0:0:0:0:
320,192,123626,1,0,0:0:0:0:
64,192,123724,1,0,0:0:0:0:
448,192,123724,1,0,0:0:0:0:
320,192,123822,1,0,0:0:0:0:
448,192,123822,1,0,0:0:0:0:
192,192,123822,1,0,0:0:0:0:
64,192,123920,1,0,0:0:0:0:
320,192,123920,1,0,0:0:0:0:
192,192,124018,1,0,0:0:0:0:
448,192,124018,1,0,0:0:0:0:
64,192,124018,1,0,0:0:0:0:
448,192,124116,1,0,0:0:0:0:
320,192,124116,1,0,0:0:0:0:
64,192,124214,1,0,0:0:0:0:
192,192,124214,1,0,0:0:0:0:
320,192,124214,1,0,0:0:0:0:
192,192,124312,1,0,0:0:0:0:
448,192,124312,1,0,0:0:0:0:
64,192,124410,1,0,0:0:0:0:
320,192,124410,1,0,0:0:0:0:
448,192,124410,1,0,0:0:0:0:
192,192,124410,1,0,0:0:0:0:
320,192,124508,1,0,0:0:0:0:
448,192,124508,1,0,0:0:0:0:
192,192,124606,1,0,0:0:0:0:
64,192,124606,1,0,0:0:0:0:
320,192,124606,1,0,0:0:0:0:
192,192,124704,1,0,0:0:0:0:
448,192,124704,1,0,0:0:0:0:
64,192,124802,1,0,0:0:0:0:
192,192,124802,1,0,0:0:0:0:
320,192,124802,1,0,0:0:0:0:
448,192,124802,1,0,0:0:0:0:
64,192,124900,1,0,0:0:0:0:
320,192,124900,1,0,0:0:0:0:
448,192,124998,1,0,0:0:0:0:
320,192,124998,1,0,0:0:0:0:
192,192,124998,1,0,0:0:0:0:
64,192,125096,1,0,0:0:0:0:
192,192,125096,1,0,0:0:0:0:
64,192,125194,1,0,0:0:0:0:
192,192,125194,1,0,0:0:0:0:
320,192,125194,1,0,0:0:0:0:
448,192,125194,1,0,0:0:0:0:
320,192,125292,1,0,0:0:0:0:
448,192,125292,1,0,0:0:0:0:
64,192,125390,1,0,0:0:0:0:
192,192,125390,1,0,0:0:0:0:
448,192,125390,1,0,0:0:0:0:
64,192,125488,1,0,0:0:0:0:
320,192,125488,1,0,0:0:0:0:
192,192,125586,1,0,0:0:0:0:
320,192,125586,1,0,0:0:0:0:
448,192,125586,1,0,0:0:0:0:
64,192,125684,1,0,0:0:0:0:
192,192,125684,1,0,0:0:0:0:
64,192,125782,1,0,0:0:0:0:
192,192,125782,1,0,0:0:0:0:
320,192,125782,1,0,0:0:0:0:
448,192,125782,1,0,0:0:0:0:
64,192,125880,1,0,0:0:0:0:
448,192,125880,1,0,0:0:0:0:
64,192,125979,1,0,0:0:0:0:
192,192,125979,1,0,0:0:0:0:
320,192,125979,1,0,0:0:0:0:
448,192,125979,1,0,0:0:0:0:
64,192,126077,1,0,0:0:0:0:
192,192,126077,1,0,0:0:0:0:
64,192,126175,1,0,0:0:0:0:
192,192,126175,1,0,0:0:0:0:
320,192,126175,1,0,0:0:0:0:
448,192,126175,1,0,0:0:0:0:
320,192,126273,1,0,0:0:0:0:
448,192,126273,1,0,0:0:0:0:
64,192,126371,1,0,0:0:0:0:
192,192,126371,1,0,0:0:0:0:
320,192,126371,1,0,0:0:0:0:
448,192,126371,1,0,0:0:0:0:
192,192,126469,1,0,0:0:0:0:
64,192,126469,1,0,0:0:0:0:
64,192,126567,1,0,0:0:0:0:
320,192,126567,1,0,0:0:0:0:
448,192,126567,1,0,0:0:0:0:
192,192,126665,1,0,0:0:0:0:
320,192,126665,1,0,0:0:0:0:
64,192,126763,1,0,0:0:0:0:
192,192,126763,1,0,0:0:0:0:
448,192,126763,1,0,0:0:0:0:
320,192,126861,1,0,0:0:0:0:
448,192,126861,1,0,0:0:0:0:
64,192,126959,1,0,0:0:0:0:
192,192,126959,1,0,0:0:0:0:
320,192,126959,1,0,0:0:0:0:
192,192,127057,1,0,0:0:0:0:
448,192,127057,1,0,0:0:0:0:
64,192,127155,1,0,0:0:0:0:
320,192,127155,1,0,0:0:0:0:
448,192,127155,1,0,0:0:0:0:
192,192,127155,1,0,0:0:0:0:
64,192,127253,1,0,0:0:0:0:
320,192,127253,1,0,0:0:0:0:
192,192,127351,1,0,0:0:0:0:
320,192,127351,1,0,0:0:0:0:
448,192,127351,1,0,0:0:0:0:
64,192,127449,1,0,0:0:0:0:
192,192,127449,1,0,0:0:0:0:
64,192,127547,1,0,0:0:0:0:
320,192,127547,1,0,0:0:0:0:
448,192,127547,1,0,0:0:0:0:
192,192,127645,1,0,0:0:0:0:
320,192,127645,1,0,0:0:0:0:
448,192,127743,1,0,0:0:0:0:
64,192,127743,1,0,0:0:0:0:
192,192,127743,1,0,0:0:0:0:
320,192,127841,1,0,0:0:0:0:
448,192,127841,1,0,0:0:0:0:
64,192,127939,1,0,0:0:0:0:
192,192,127939,1,0,0:0:0:0:
320,192,127939,1,0,0:0:0:0:
448,192,127939,1,0,0:0:0:0:
192,192,128037,1,0,0:0:0:0:
64,192,128037,1,0,0:0:0:0:
64,192,128135,1,0,0:0:0:0:
320,192,128135,1,0,0:0:0:0:
448,192,128135,1,0,0:0:0:0:
192,192,128233,1,0,0:0:0:0:
320,192,128233,1,0,0:0:0:0:
64,192,128331,1,0,0:0:0:0:
192,192,128331,1,0,0:0:0:0:
320,192,128331,1,0,0:0:0:0:
448,192,128331,1,0,0:0:0:0:
64,192,128430,1,0,0:0:0:0:
192,192,128430,1,0,0:0:0:0:
64,192,128528,1,0,0:0:0:0:
320,192,128528,1,0,0:0:0:0:
448,192,128528,1,0,0:0:0:0:
192,192,128626,1,0,0:0:0:0:
320,192,128626,1,0,0:0:0:0:
64,192,128724,1,0,0:0:0:0:
320,192,128724,1,0,0:0:0:0:
448,192,128724,1,0,0:0:0:0:
192,192,128724,1,0,0:0:0:0:
192,192,128822,1,0,0:0:0:0:
448,192,128822,1,0,0:0:0:0:
64,192,128920,1,0,0:0:0:0:
320,192,128920,1,0,0:0:0:0:
448,192,128920,1,0,0:0:0:0:
192,192,129018,1,0,0:0:0:0:
64,192,129018,1,0,0:0:0:0:
320,192,129116,1,0,0:0:0:0:
448,192,129116,1,0,0:0:0:0:
64,192,129116,1,0,0:0:0:0:
192,192,129116,1,0,0:0:0:0:
320,192,129214,1,0,0:0:0:0:
448,192,129214,1,0,0:0:0:0:
64,192,129312,1,0,0:0:0:0:
192,192,129312,1,0,0:0:0:0:
448,192,129312,1,0,0:0:0:0:
192,192,129410,1,0,0:0:0:0:
320,192,129410,1,0,0:0:0:0:
64,192,129508,1,0,0:0:0:0:
320,192,129508,1,0,0:0:0:0:
448,192,129508,1,0,0:0:0:0:
192,192,129508,1,0,0:0:0:0:
64,192,129606,1,0,0:0:0:0:
448,192,129606,1,0,0:0:0:0:
192,192,129704,1,0,0:0:0:0:
320,192,129704,1,0,0:0:0:0:
448,192,129704,1,0,0:0:0:0:
64,192,129802,1,0,0:0:0:0:
320,192,129802,1,0,0:0:0:0:
192,192,129900,1,0,0:0:0:0:
448,192,129900,1,0,0:0:0:0:
320,192,129900,1,0,0:0:0:0:
64,192,129998,1,0,0:0:0:0:
192,192,129998,1,0,0:0:0:0:
64,192,130096,1,0,0:0:0:0:
192,192,130096,1,0,0:0:0:0:
320,192,130096,1,0,0:0:0:0:
448,192,130096,1,0,0:0:0:0:
320,192,130194,1,0,0:0:0:0:
448,192,130194,1,0,0:0:0:0:
64,192,130292,1,0,0:0:0:0:
448,192,130292,1,0,0:0:0:0:
192,192,130292,1,0,0:0:0:0:
192,192,130390,1,0,0:0:0:0:
320,192,130390,1,0,0:0:0:0:
64,192,130488,1,0,0:0:0:0:
320,192,130488,1,0,0:0:0:0:
448,192,130488,1,0,0:0:0:0:
192,192,130586,1,0,0:0:0:0:
64,192,130586,1,0,0:0:0:0:
64,192,130684,1,0,0:0:0:0:
192,192,130684,1,0,0:0:0:0:
320,192,130684,1,0,0:0:0:0:
448,192,130684,1,0,0:0:0:0:
320,192,130782,1,0,0:0:0:0:
448,192,130782,1,0,0:0:0:0:
64,192,130880,1,0,0:0:0:0:
192,192,130880,1,0,0:0:0:0:
448,192,130880,1,0,0:0:0:0:
320,192,130979,1,0,0:0:0:0:
192,192,130979,1,0,0:0:0:0:
64,192,131077,1,0,0:0:0:0:
320,192,131077,1,0,0:0:0:0:
448,192,131077,1,0,0:0:0:0:
192,192,131175,1,0,0:0:0:0:
448,192,131175,1,0,0:0:0:0:
64,192,131273,1,0,0:0:0:0:
192,192,131273,1,0,0:0:0:0:
320,192,131273,1,0,0:0:0:0:
448,192,131371,1,0,0:0:0:0:
320,192,131371,1,0,0:0:0:0:
64,192,131469,1,0,0:0:0:0:
192,192,131469,1,0,0:0:0:0:
320,192,131469,1,0,0:0:0:0:
448,192,131469,1,0,0:0:0:0:
64,192,131567,1,0,0:0:0:0:
192,192,131567,1,0,0:0:0:0:
64,192,131665,1,0,0:0:0:0:
320,192,131665,1,0,0:0:0:0:
448,192,131665,1,0,0:0:0:0:
192,192,131763,1,0,0:0:0:0:
320,192,131763,1,0,0:0:0:0:
64,192,131861,1,0,0:0:0:0:
192,192,131861,1,0,0:0:0:0:
448,192,131861,1,0,0:0:0:0:
320,192,131861,1,0,0:0:0:0:
192,192,131959,1,0,0:0:0:0:
64,192,131959,1,0,0:0:0:0:
64,192,132057,1,0,0:0:0:0:
320,192,132057,1,0,0:0:0:0:
448,192,132057,1,0,0:0:0:0:
192,192,132155,1,0,0:0:0:0:
320,192,132155,1,0,0:0:0:0:
64,192,132253,1,0,0:0:0:0:
192,192,132253,1,0,0:0:0:0:
320,192,132253,1,0,0:0:0:0:
448,192,132253,1,0,0:0:0:0:
192,192,132351,1,0,0:0:0:0:
448,192,132351,1,0,0:0:0:0:
64,192,132449,1,0,0:0:0:0:
320,192,132449,1,0,0:0:0:0:
448,192,132449,1,0,0:0:0:0:
192,192,132547,1,0,0:0:0:0:
64,192,132547,1,0,0:0:0:0:
64,192,132645,1,0,0:0:0:0:
192,192,132645,1,0,0:0:0:0:
320,192,132645,1,0,0:0:0:0:
448,192,132645,1,0,0:0:0:0:
448,192,132743,1,0,0:0:0:0:
192,192,132841,1,0,0:0:0:0:
64,192,132841,1,0,0:0:0:0:
320,192,132939,1,0,0:0:0:0:
64,192,133037,1,0,0:0:0:0:
448,192,133037,1,0,0:0:0:0:
192,192,133135,1,0,0:0:0:0:
448,192,133233,1,0,0:0:0:0:
320,192,133233,1,0,0:0:0:0:
64,192,133331,1,0,0:0:0:0:
192,192,133430,1,0,0:0:0:0:
448,192,133430,1,0,0:0:0:0:
320,192,133430,1,0,0:0:0:0:
64,192,133528,1,0,0:0:0:0:
192,192,133626,1,0,0:0:0:0:
448,192,133626,1,0,0:0:0:0:
320,192,133724,1,0,0:0:0:0:
192,192,133822,1,0,0:0:0:0:
64,192,133822,1,0,0:0:0:0:
448,192,133920,1,0,0:0:0:0:
320,192,134018,1,0,0:0:0:0:
64,192,134018,1,0,0:0:0:0:
192,192,134116,1,0,0:0:0:0:
320,192,134214,1,0,0:0:0:0:
448,192,134214,1,0,0:0:0:0:
64,192,134214,1,0,0:0:0:0:
192,192,134312,1,0,0:0:0:0:
320,192,134410,1,0,0:0:0:0:
448,192,134410,1,0,0:0:0:0:
64,192,134508,1,0,0:0:0:0:
192,192,134606,1,0,0:0:0:0:
448,192,134606,1,0,0:0:0:0:
320,192,134704,1,0,0:0:0:0:
192,192,134802,1,0,0:0:0:0:
64,192,134802,1,0,0:0:0:0:
448,192,134900,1,0,0:0:0:0:
320,192,134998,1,0,0:0:0:0:
192,192,134998,1,0,0:0:0:0:
64,192,134998,1,0,0:0:0:0:
448,192,135096,1,0,0:0:0:0:
320,192,135194,1,0,0:0:0:0:
64,192,135194,1,0,0:0:0:0:
192,192,135292,1,0,0:0:0:0:
320,192,135390,1,0,0:0:0:0:
448,192,135390,1,0,0:0:0:0:
64,192,135488,1,0,0:0:0:0:
192,192,135488,1,0,0:0:0:0:
448,192,135586,1,0,0:0:0:0:
320,192,135586,1,0,0:0:0:0:
192,192,135684,1,0,0:0:0:0:
64,192,135684,1,0,0:0:0:0:
64,192,135782,1,0,0:0:0:0:
320,192,135782,1,0,0:0:0:0:
448,192,135782,1,0,0:0:0:0:
192,192,135880,1,0,0:0:0:0:
320,192,135880,1,0,0:0:0:0:
64,192,135979,1,0,0:0:0:0:
192,192,135979,1,0,0:0:0:0:
448,192,135979,1,0,0:0:0:0:
320,192,136077,1,0,0:0:0:0:
448,192,136077,1,0,0:0:0:0:
64,192,136175,1,0,0:0:0:0:
192,192,136175,1,0,0:0:0:0:
320,192,136175,1,0,0:0:0:0:
64,192,136273,1,0,0:0:0:0:
448,192,136273,1,0,0:0:0:0:
320,192,136371,1,0,0:0:0:0:
192,192,136371,1,0,0:0:0:0:
64,192,136371,1,0,0:0:0:0:
448,192,136371,1,0,0:0:0:0:
320,192,136469,1,0,0:0:0:0:
448,192,136469,1,0,0:0:0:0:
64,192,136567,1,0,0:0:0:0:
192,192,136567,1,0,0:0:0:0:
320,192,136567,1,0,0:0:0:0:
64,192,136665,1,0,0:0:0:0:
448,192,136665,1,0,0:0:0:0:
320,192,136763,1,0,0:0:0:0:
448,192,136763,1,0,0:0:0:0:
192,192,136763,1,0,0:0:0:0:
64,192,136861,1,0,0:0:0:0:
192,192,136861,1,0,0:0:0:0:
64,192,136959,1,0,0:0:0:0:
192,192,136959,1,0,0:0:0:0:
320,192,136959,1,0,0:0:0:0:
448,192,136959,1,0,0:0:0:0:
320,192,137057,1,0,0:0:0:0:
448,192,137057,1,0,0:0:0:0:
64,192,137155,1,0,0:0:0:0:
192,192,137155,1,0,0:0:0:0:
448,192,137155,1,0,0:0:0:0:
320,192,137253,1,0,0:0:0:0:
192,192,137253,1,0,0:0:0:0:
64,192,137351,1,0,0:0:0:0:
192,192,137351,1,0,0:0:0:0:
320,192,137351,1,0,0:0:0:0:
448,192,137351,1,0,0:0:0:0:
64,192,137743,1,0,0:0:0:0:
192,192,138135,1,0,0:0:0:0:
320,192,138528,1,0,0:0:0:0:
448,192,138920,1,0,0:0:0:0:
192,192,138920,1,0,0:0:0:0:
64,192,138920,1,0,0:0:0:0:
320,192,139116,1,0,0:0:0:0:
192,192,139312,1,0,0:0:0:0:
64,192,139704,1,0,0:0:0:0:
320,192,139704,1,0,0:0:0:0:
448,192,139704,1,0,0:0:0:0:
64,192,140488,1,0,0:0:0:0:
192,192,140488,1,0,0:0:0:0:
320,192,140488,1,0,0:0:0:0:
64,192,140880,1,0,0:0:0:0:
320,192,140880,1,0,0:0:0:0:
448,192,140880,1,0,0:0:0:0:
448,192,141273,1,0,0:0:0:0:
192,192,141273,1,0,0:0:0:0:
320,192,141273,1,0,0:0:0:0:
448,192,141665,1,0,0:0:0:0:
192,192,141665,1,0,0:0:0:0:
64,192,141665,1,0,0:0:0:0:
64,192,142057,1,0,0:0:0:0:
320,192,142057,1,0,0:0:0:0:
448,192,142057,1,0,0:0:0:0:
192,192,142253,1,0,0:0:0:0:
320,192,142449,1,0,0:0:0:0:
192,192,142645,1,0,0:0:0:0:
64,192,142645,1,0,0:0:0:0:
448,192,142645,1,0,0:0:0:0:
448,192,143626,1,0,0:0:0:0:
192,192,143626,1,0,0:0:0:0:
64,192,143822,1,0,0:0:0:0:
192,192,143822,1,0,0:0:0:0:
64,192,144018,1,0,0:0:0:0:
320,192,144018,1,0,0:0:0:0:
448,192,144018,1,0,0:0:0:0:
192,192,144214,1,0,0:0:0:0:
320,192,144214,1,0,0:0:0:0:
192,192,144410,1,0,0:0:0:0:
448,192,144410,1,0,0:0:0:0:
64,192,144410,1,0,0:0:0:0:
320,192,144606,1,0,0:0:0:0:
448,192,144606,1,0,0:0:0:0:
192,192,144802,1,0,0:0:0:0:
64,192,144802,1,0,0:0:0:0:
320,192,144998,1,0,0:0:0:0:
448,192,144998,1,0,0:0:0:0:
64,192,145194,1,0,0:0:0:0:
192,192,145194,1,0,0:0:0:0:
448,192,145194,1,0,0:0:0:0:
320,192,145390,1,0,0:0:0:0:
192,192,145586,1,0,0:0:0:0:
320,192,145979,1,0,0:0:0:0:
448,192,145979,1,0,0:0:0:0:
64,192,145979,1,0,0:0:0:0:
64,192,146763,1,0,0:0:0:0:
320,192,146763,1,0,0:0:0:0:
448,192,146763,1,0,0:0:0:0:
192,192,146959,1,0,0:0:0:0:
320,192,147155,1,0,0:0:0:0:
64,192,147547,1,0,0:0:0:0:
192,192,147547,1,0,0:0:0:0:
448,192,147547,1,0,0:0:0:0:
192,192,148331,1,0,0:0:0:0:
448,192,148331,1,0,0:0:0:0:
