osu file format v14

[General]
AudioFilename: audio120.mp3
AudioLeadIn: 0
PreviewTime: 73726
Countdown: 1
SampleSet: Soft
StackLeniency: 0.7
Mode: 3
LetterboxInBreaks: 0
SpecialStyle: 0
WidescreenStoryboard: 0

[Editor]
DistanceSpacing: 0.8
BeatDivisor: 4
GridSize: 8
TimelineZoom: 1.8

[Metadata]
Title:The Truth Never Spoken
TitleUnicode:The Truth Never Spoken
Artist:3R2
ArtistUnicode:3R2
Creator:[Crz]Rachel
Version:Empty Pages 1.2x
Source:Rabi-Ribi
Tags:Noah Video Game Electronic Instrumental OST Original Soundtrack ラビ-リビ ラビリビ RabiRibi CreSpirit Kevin Tseng 曾鎧維 CUSA-08233
BeatmapID:3260900
BeatmapSetID:808948

[Difficulty]
HPDrainRate:8
CircleSize:4
OverallDifficulty:8
ApproachRate:5
SliderMultiplier:1.4
SliderTickRate:1

[Events]
//Background and Video events
0,0,"noah.png",0,0
//Break Periods
//Storyboard Layer 0 (Background)
//Storyboard Layer 1 (Fail)
//Storyboard Layer 2 (Pass)
//Storyboard Layer 3 (Foreground)
//Storyboard Layer 4 (Overlay)
//Storyboard Sound Samples

[TimingPoints]
818,326.797385620915,4,2,0,0,1,0

[HitObjects]
64,192,818,5,0,0:0:0:0:
448,192,818,1,0,0:0:0:0:
192,192,981,1,0,0:0:0:0:
320,192,1144,1,0,0:0:0:0:
64,192,1471,1,0,0:0:0:0:
192,192,1471,1,0,0:0:0:0:
64,192,2125,1,0,0:0:0:0:
448,192,2125,1,0,0:0:0:0:
320,192,2125,1,0,0:0:0:0:
192,192,2288,1,0,0:0:0:0:
448,192,2451,1,0,0:0:0:0:
320,192,2451,1,0,0:0:0:0:
448,192,2778,1,0,0:0:0:0:
192,192,2778,1,0,0:0:0:0:
64,192,2778,1,0,0:0:0:0:
448,192,3105,1,0,0:0:0:0:
320,192,3105,1,0,0:0:0:0:
64,192,3105,1,0,0:0:0:0:
448,192,3432,1,0,0:0:0:0:
64,192,3432,1,0,0:0:0:0:
320,192,3595,1,0,0:0:0:0:
192,192,3759,1,0,0:0:0:0:
448,192,3922,1,0,0:0:0:0:
320,192,3922,1,0,0:0:0:0:
64,192,3922,1,0,0:0:0:0:
448,192,4739,1,0,0:0:0:0:
192,192,4739,1,0,0:0:0:0:
64,192,4739,1,0,0:0:0:0:
320,192,4902,1,0,0:0:0:0:
192,192,4902,1,0,0:0:0:0:
448,192,5066,1,0,0:0:0:0:
320,192,5066,1,0,0:0:0:0:
64,192,5066,1,0,0:0:0:0:
448,192,5229,1,0,0:0:0:0:
192,192,5229,1,0,0:0:0:0:
64,192,5393,1,0,0:0:0:0:
320,192,5393,1,0,0:0:0:0:
192,192,5393,1,0,0:0:0:0:
64,192,5556,1,0,0:0:0:0:
448,192,5556,1,0,0:0:0:0:
448,192,5719,1,0,0:0:0:0:
192,192,5719,1,0,0:0:0:0:
320,192,5883,1,0,0:0:0:0:
192,192,5883,1,0,0:0:0:0:
448,192,6046,1,0,0:0:0:0:
320,192,6046,1,0,0:0:0:0:
64,192,6046,1,0,0:0:0:0:
192,192,6210,1,0,0:0:0:0:
320,192,6373,1,0,0:0:0:0:
448,192,6700,1,0,0:0:0:0:
192,192,6700,1,0,0:0:0:0:
64,192,6700,1,0,0:0:0:0:
448,192,7353,1,0,0:0:0:0:
192,192,7353,1,0,0:0:0:0:
64,192,7353,1,0,0:0:0:0:
320,192,7517,1,0,0:0:0:0:
64,192,7680,1,0,0:0:0:0:
192,192,7680,1,0,0:0:0:0:
64,192,8007,1,0,0:0:0:0:
448,192,8007,1,0,0:0:0:0:
320,192,8007,1,0,0:0:0:0:
448,192,8661,1,0,0:0:0:0:
64,192,8661,1,0,0:0:0:0:
192,192,8824,1,0,0:0:0:0:
320,192,8987,1,0,0:0:0:0:
448,192,9151,1,0,0:0:0:0:
192,192,9151,1,0,0:0:0:0:
64,192,9151,1,0,0:0:0:0:
448,192,9641,1,0,0:0:0:0:
320,192,9641,1,0,0:0:0:0:
64,192,9641,1,0,0:0:0:0:
448,192,9968,1,0,0:0:0:0:
64,192,9968,1,0,0:0:0:0:
192,192,10131,1,0,0:0:0:0:
320,192,10295,1,0,0:0:0:0:
448,192,10621,1,0,0:0:0:0:
192,192,10621,1,0,0:0:0:0:
64,192,10621,1,0,0:0:0:0:
448,192,10948,1,0,0:0:0:0:
320,192,10989,1,0,0:0:0:0:
192,192,11030,1,0,0:0:0:0:
64,192,11071,1,0,0:0:0:0:
448,192,11112,1,0,0:0:0:0:
320,192,11152,1,0,0:0:0:0:
192,192,11193,1,0,0:0:0:0:
64,192,11234,1,0,0:0:0:0:
448,192,11275,1,0,0:0:0:0:
320,192,11275,1,0,0:0:0:0:
192,192,11438,1,0,0:0:0:0:
448,192,11602,1,0,0:0:0:0:
320,192,11602,1,0,0:0:0:0:
64,192,11602,1,0,0:0:0:0:
448,192,11929,1,0,0:0:0:0:
192,192,11929,1,0,0:0:0:0:
64,192,11929,1,0,0:0:0:0:
320,192,12582,1,0,0:0:0:0:
192,192,12582,1,0,0:0:0:0:
64,192,12582,1,0,0:0:0:0:
448,192,12909,1,0,0:0:0:0:
320,192,12909,1,0,0:0:0:0:
64,192,12909,1,0,0:0:0:0:
448,192,13236,1,0,0:0:0:0:
320,192,13236,1,0,0:0:0:0:
192,192,13236,1,0,0:0:0:0:
448,192,13563,1,0,0:0:0:0:
192,192,13563,1,0,0:0:0:0:
64,192,13563,1,0,0:0:0:0:
448,192,13889,1,0,0:0:0:0:
320,192,13889,1,0,0:0:0:0:
64,192,13889,1,0,0:0:0:0:
192,192,14053,1,0,0:0:0:0:
320,192,14216,1,0,0:0:0:0:
448,192,14380,1,0,0:0:0:0:
64,192,14380,1,0,0:0:0:0:
192,192,14380,1,0,0:0:0:0:
448,192,15197,1,0,0:0:0:0:
192,192,15197,1,0,0:0:0:0:
64,192,15197,1,0,0:0:0:0:
320,192,15360,1,0,0:0:0:0:
192,192,15360,1,0,0:0:0:0:
320,192,15523,1,0,0:0:0:0:
64,192,15523,1,0,0:0:0:0:
448,192,15687,1,0,0:0:0:0:
64,192,15687,1,0,0:0:0:0:
320,192,15850,1,0,0:0:0:0:
448,192,15850,1,0,0:0:0:0:
192,192,15850,1,0,0:0:0:0:
320,192,16014,1,0,0:0:0:0:
448,192,16014,1,0,0:0:0:0:
64,192,16014,1,0,0:0:0:0:
320,192,16177,1,0,0:0:0:0:
192,192,16177,1,0,0:0:0:0:
64,192,16177,1,0,0:0:0:0:
64,192,16340,1,0,0:0:0:0:
448,192,16340,1,0,0:0:0:0:
192,192,16340,1,0,0:0:0:0:
64,192,16504,1,0,0:0:0:0:
448,192,16504,1,0,0:0:0:0:
320,192,16504,1,0,0:0:0:0:
192,192,16667,1,0,0:0:0:0:
320,192,16831,1,0,0:0:0:0:
448,192,17157,1,0,0:0:0:0:
192,192,17157,1,0,0:0:0:0:
64,192,17157,1,0,0:0:0:0:
448,192,17811,1,0,0:0:0:0:
64,192,17811,1,0,0:0:0:0:
320,192,17974,1,0,0:0:0:0:
192,192,18138,1,0,0:0:0:0:
448,192,18465,1,0,0:0:0:0:
320,192,18465,1,0,0:0:0:0:
64,192,18465,1,0,0:0:0:0:
448,192,19118,1,0,0:0:0:0:
64,192,19118,1,0,0:0:0:0:
320,192,19282,1,0,0:0:0:0:
192,192,19445,1,0,0:0:0:0:
448,192,19608,1,0,0:0:0:0:
320,192,19608,1,0,0:0:0:0:
64,192,19608,1,0,0:0:0:0:
448,192,20099,1,0,0:0:0:0:
320,192,20099,1,0,0:0:0:0:
192,192,20099,1,0,0:0:0:0:
448,192,20425,1,0,0:0:0:0:
192,192,20425,1,0,0:0:0:0:
64,192,20425,1,0,0:0:0:0:
64,192,20752,1,0,0:0:0:0:
192,192,20916,1,0,0:0:0:0:
448,192,21242,1,0,0:0:0:0:
320,192,21242,1,0,0:0:0:0:
64,192,21242,1,0,0:0:0:0:
192,192,21406,1,0,0:0:0:0:
448,192,21569,1,0,0:0:0:0:
320,192,21569,1,0,0:0:0:0:
448,192,21733,1,0,0:0:0:0:
192,192,21733,1,0,0:0:0:0:
64,192,21733,1,0,0:0:0:0:
320,192,21814,1,0,0:0:0:0:
64,192,21896,1,0,0:0:0:0:
192,192,21896,1,0,0:0:0:0:
448,192,21978,1,0,0:0:0:0:
192,192,22059,1,0,0:0:0:0:
320,192,22059,1,0,0:0:0:0:
64,192,22059,1,0,0:0:0:0:
448,192,22141,1,0,0:0:0:0:
320,192,22223,1,0,0:0:0:0:
192,192,22223,1,0,0:0:0:0:
64,192,22304,1,0,0:0:0:0:
320,192,22386,1,0,0:0:0:0:
448,192,22386,1,0,0:0:0:0:
192,192,22386,1,0,0:0:0:0:
64,192,22468,1,0,0:0:0:0:
320,192,22550,1,0,0:0:0:0:
448,192,22550,1,0,0:0:0:0:
192,192,22631,1,0,0:0:0:0:
64,192,22713,1,0,0:0:0:0:
448,192,22713,1,0,0:0:0:0:
320,192,22713,1,0,0:0:0:0:
192,192,22795,1,0,0:0:0:0:
448,192,22876,1,0,0:0:0:0:
320,192,22876,1,0,0:0:0:0:
64,192,22958,1,0,0:0:0:0:
320,192,23040,1,0,0:0:0:0:
448,192,23040,1,0,0:0:0:0:
192,192,23040,1,0,0:0:0:0:
64,192,23121,1,0,0:0:0:0:
448,192,23203,1,0,0:0:0:0:
320,192,23203,1,0,0:0:0:0:
192,192,23285,1,0,0:0:0:0:
448,192,23367,1,0,0:0:0:0:
320,192,23367,1,0,0:0:0:0:
64,192,23367,1,0,0:0:0:0:
192,192,23448,1,0,0:0:0:0:
448,192,23530,1,0,0:0:0:0:
64,192,23530,1,0,0:0:0:0:
320,192,23612,1,0,0:0:0:0:
64,192,23693,1,0,0:0:0:0:
448,192,23693,1,0,0:0:0:0:
192,192,23693,1,0,0:0:0:0:
320,192,23775,1,0,0:0:0:0:
192,192,23857,1,0,0:0:0:0:
64,192,23857,1,0,0:0:0:0:
448,192,23938,1,0,0:0:0:0:
192,192,24020,1,0,0:0:0:0:
320,192,24020,1,0,0:0:0:0:
64,192,24020,1,0,0:0:0:0:
448,192,24102,1,0,0:0:0:0:
320,192,24184,1,0,0:0:0:0:
64,192,24184,1,0,0:0:0:0:
192,192,24265,1,0,0:0:0:0:
448,192,24347,1,0,0:0:0:0:
320,192,24347,1,0,0:0:0:0:
64,192,24347,1,0,0:0:0:0:
192,192,24429,1,0,0:0:0:0:
448,192,24510,1,0,0:0:0:0:
320,192,24510,1,0,0:0:0:0:
64,192,24592,1,0,0:0:0:0:
448,192,24674,1,0,0:0:0:0:
192,192,24674,1,0,0:0:0:0:
320,192,24755,1,0,0:0:0:0:
448,192,24837,1,0,0:0:0:0:
64,192,24837,1,0,0:0:0:0:
192,192,24837,1,0,0:0:0:0:
320,192,24919,1,0,0:0:0:0:
192,192,25001,1,0,0:0:0:0:
64,192,25001,1,0,0:0:0:0:
448,192,25082,1,0,0:0:0:0:
320,192,25164,1,0,0:0:0:0:
64,192,25164,1,0,0:0:0:0:
192,192,25246,1,0,0:0:0:0:
448,192,25327,1,0,0:0:0:0:
320,192,25327,1,0,0:0:0:0:
64,192,25327,1,0,0:0:0:0:
192,192,25409,1,0,0:0:0:0:
448,192,25491,1,0,0:0:0:0:
320,192,25491,1,0,0:0:0:0:
64,192,25572,1,0,0:0:0:0:
448,192,25654,1,0,0:0:0:0:
192,192,25654,1,0,0:0:0:0:
320,192,25736,1,0,0:0:0:0:
192,192,25817,1,0,0:0:0:0:
64,192,25817,1,0,0:0:0:0:
448,192,25817,1,0,0:0:0:0:
448,192,25899,1,0,0:0:0:0:
192,192,25981,1,0,0:0:0:0:
320,192,25981,1,0,0:0:0:0:
64,192,25981,1,0,0:0:0:0:
64,192,26063,1,0,0:0:0:0:
448,192,26144,1,0,0:0:0:0:
320,192,26144,1,0,0:0:0:0:
192,192,26144,1,0,0:0:0:0:
320,192,26226,1,0,0:0:0:0:
64,192,26308,1,0,0:0:0:0:
448,192,26308,1,0,0:0:0:0:
192,192,26308,1,0,0:0:0:0:
192,192,26389,1,0,0:0:0:0:
448,192,26471,1,0,0:0:0:0:
64,192,26471,1,0,0:0:0:0:
320,192,26471,1,0,0:0:0:0:
448,192,26553,1,0,0:0:0:0:
320,192,26634,1,0,0:0:0:0:
192,192,26634,1,0,0:0:0:0:
64,192,26634,1,0,0:0:0:0:
192,192,26716,1,0,0:0:0:0:
320,192,26798,1,0,0:0:0:0:
448,192,26798,1,0,0:0:0:0:
64,192,26798,1,0,0:0:0:0:
320,192,26880,1,0,0:0:0:0:
448,192,26961,1,0,0:0:0:0:
192,192,26961,1,0,0:0:0:0:
64,192,26961,1,0,0:0:0:0:
64,192,27043,1,0,0:0:0:0:
448,192,27125,1,0,0:0:0:0:
320,192,27125,1,0,0:0:0:0:
64,192,27206,1,0,0:0:0:0:
448,192,27288,1,0,0:0:0:0:
320,192,27288,1,0,0:0:0:0:
192,192,27288,1,0,0:0:0:0:
64,192,27370,1,0,0:0:0:0:
448,192,27451,1,0,0:0:0:0:
192,192,27451,1,0,0:0:0:0:
320,192,27533,1,0,0:0:0:0:
448,192,27615,1,0,0:0:0:0:
64,192,27615,1,0,0:0:0:0:
192,192,27615,1,0,0:0:0:0:
320,192,27697,1,0,0:0:0:0:
192,192,27778,1,0,0:0:0:0:
64,192,27778,1,0,0:0:0:0:
448,192,27860,1,0,0:0:0:0:
192,192,27942,1,0,0:0:0:0:
320,192,27942,1,0,0:0:0:0:
64,192,27942,1,0,0:0:0:0:
448,192,28023,1,0,0:0:0:0:
320,192,28105,1,0,0:0:0:0:
64,192,28105,1,0,0:0:0:0:
192,192,28187,1,0,0:0:0:0:
64,192,28268,1,0,0:0:0:0:
448,192,28268,1,0,0:0:0:0:
320,192,28268,1,0,0:0:0:0:
192,192,28350,1,0,0:0:0:0:
448,192,28432,1,0,0:0:0:0:
320,192,28432,1,0,0:0:0:0:
64,192,28514,1,0,0:0:0:0:
320,192,28595,1,0,0:0:0:0:
448,192,28595,1,0,0:0:0:0:
192,192,28595,1,0,0:0:0:0:
64,192,28677,1,0,0:0:0:0:
448,192,28759,1,0,0:0:0:0:
192,192,28759,1,0,0:0:0:0:
320,192,28840,1,0,0:0:0:0:
448,192,28922,1,0,0:0:0:0:
64,192,28922,1,0,0:0:0:0:
192,192,28922,1,0,0:0:0:0:
320,192,29004,1,0,0:0:0:0:
64,192,29085,1,0,0:0:0:0:
192,192,29085,1,0,0:0:0:0:
448,192,29167,1,0,0:0:0:0:
320,192,29249,1,0,0:0:0:0:
64,192,29249,1,0,0:0:0:0:
192,192,29331,1,0,0:0:0:0:
448,192,29412,1,0,0:0:0:0:
64,192,29412,1,0,0:0:0:0:
320,192,29494,1,0,0:0:0:0:
448,192,29576,1,0,0:0:0:0:
192,192,29576,1,0,0:0:0:0:
64,192,29576,1,0,0:0:0:0:
192,192,29657,1,0,0:0:0:0:
448,192,29739,1,0,0:0:0:0:
320,192,29739,1,0,0:0:0:0:
64,192,29739,1,0,0:0:0:0:
448,192,29821,1,0,0:0:0:0:
320,192,29902,1,0,0:0:0:0:
192,192,29902,1,0,0:0:0:0:
64,192,29902,1,0,0:0:0:0:
64,192,29984,1,0,0:0:0:0:
448,192,30066,1,0,0:0:0:0:
320,192,30066,1,0,0:0:0:0:
192,192,30066,1,0,0:0:0:0:
320,192,30148,1,0,0:0:0:0:
448,192,30229,1,0,0:0:0:0:
192,192,30229,1,0,0:0:0:0:
64,192,30229,1,0,0:0:0:0:
320,192,30311,1,0,0:0:0:0:
192,192,30311,1,0,0:0:0:0:
448,192,30393,1,0,0:0:0:0:
320,192,30393,1,0,0:0:0:0:
64,192,30393,1,0,0:0:0:0:
448,192,30474,1,0,0:0:0:0:
192,192,30474,1,0,0:0:0:0:
192,192,30556,1,0,0:0:0:0:
64,192,30556,1,0,0:0:0:0:
448,192,30638,1,0,0:0:0:0:
320,192,30638,1,0,0:0:0:0:
64,192,30719,1,0,0:0:0:0:
192,192,30719,1,0,0:0:0:0:
448,192,30801,1,0,0:0:0:0:
320,192,30801,1,0,0:0:0:0:
192,192,30883,1,0,0:0:0:0:
64,192,30883,128,0,31536:0:0:0:0:
320,192,31536,1,0,0:0:0:0:
448,192,31536,128,0,32190:0:0:0:0:
192,192,31700,1,0,0:0:0:0:
320,192,31945,1,0,0:0:0:0:
320,192,32190,1,0,0:0:0:0:
64,192,32190,1,0,0:0:0:0:
192,192,32190,1,0,0:0:0:0:
64,192,32272,1,0,0:0:0:0:
192,192,32272,1,0,0:0:0:0:
448,192,32353,1,0,0:0:0:0:
64,192,32353,1,0,0:0:0:0:
320,192,32353,1,0,0:0:0:0:
192,192,32435,1,0,0:0:0:0:
448,192,32435,1,0,0:0:0:0:
192,192,32517,1,0,0:0:0:0:
320,192,32517,1,0,0:0:0:0:
64,192,32517,1,0,0:0:0:0:
448,192,32599,1,0,0:0:0:0:
320,192,32599,1,0,0:0:0:0:
448,192,32680,1,0,0:0:0:0:
192,192,32680,1,0,0:0:0:0:
64,192,32680,1,0,0:0:0:0:
320,192,32762,1,0,0:0:0:0:
192,192,32762,1,0,0:0:0:0:
448,192,32844,1,0,0:0:0:0:
320,192,32844,1,0,0:0:0:0:
64,192,32844,1,0,0:0:0:0:
192,192,32925,1,0,0:0:0:0:
64,192,32925,1,0,0:0:0:0:
448,192,33007,1,0,0:0:0:0:
320,192,33007,1,0,0:0:0:0:
192,192,33007,1,0,0:0:0:0:
320,192,33089,1,0,0:0:0:0:
64,192,33089,1,0,0:0:0:0:
64,192,33170,1,0,0:0:0:0:
448,192,33170,1,0,0:0:0:0:
192,192,33170,1,0,0:0:0:0:
448,192,33252,1,0,0:0:0:0:
320,192,33252,1,0,0:0:0:0:
64,192,33334,1,0,0:0:0:0:
320,192,33334,1,0,0:0:0:0:
192,192,33334,1,0,0:0:0:0:
448,192,33416,1,0,0:0:0:0:
192,192,33416,1,0,0:0:0:0:
448,192,33497,1,0,0:0:0:0:
320,192,33497,1,0,0:0:0:0:
64,192,33497,1,0,0:0:0:0:
320,192,33579,1,0,0:0:0:0:
192,192,33579,1,0,0:0:0:0:
448,192,33661,1,0,0:0:0:0:
192,192,33661,1,0,0:0:0:0:
64,192,33661,1,0,0:0:0:0:
320,192,33742,1,0,0:0:0:0:
64,192,33742,1,0,0:0:0:0:
448,192,33824,1,0,0:0:0:0:
320,192,33824,1,0,0:0:0:0:
192,192,33824,1,0,0:0:0:0:
448,192,33906,1,0,0:0:0:0:
64,192,33906,1,0,0:0:0:0:
64,192,33987,1,0,0:0:0:0:
320,192,33987,1,0,0:0:0:0:
192,192,33987,1,0,0:0:0:0:
448,192,34069,1,0,0:0:0:0:
320,192,34069,1,0,0:0:0:0:
448,192,34151,1,0,0:0:0:0:
192,192,34151,1,0,0:0:0:0:
64,192,34151,1,0,0:0:0:0:
320,192,34233,1,0,0:0:0:0:
192,192,34233,1,0,0:0:0:0:
448,192,34314,1,0,0:0:0:0:
320,192,34314,1,0,0:0:0:0:
64,192,34314,1,0,0:0:0:0:
448,192,34396,1,0,0:0:0:0:
192,192,34396,1,0,0:0:0:0:
320,192,34478,1,0,0:0:0:0:
192,192,34478,1,0,0:0:0:0:
64,192,34478,1,0,0:0:0:0:
448,192,34559,1,0,0:0:0:0:
64,192,34559,1,0,0:0:0:0:
448,192,34641,1,0,0:0:0:0:
320,192,34641,1,0,0:0:0:0:
192,192,34641,1,0,0:0:0:0:
320,192,34723,1,0,0:0:0:0:
64,192,34723,1,0,0:0:0:0:
448,192,34804,1,0,0:0:0:0:
192,192,34804,1,0,0:0:0:0:
64,192,34804,1,0,0:0:0:0:
448,192,34886,1,0,0:0:0:0:
320,192,34886,1,0,0:0:0:0:
320,192,34968,1,0,0:0:0:0:
192,192,34968,1,0,0:0:0:0:
64,192,34968,1,0,0:0:0:0:
448,192,35050,1,0,0:0:0:0:
192,192,35050,1,0,0:0:0:0:
448,192,35131,1,0,0:0:0:0:
320,192,35131,1,0,0:0:0:0:
64,192,35131,1,0,0:0:0:0:
320,192,35213,1,0,0:0:0:0:
192,192,35213,1,0,0:0:0:0:
192,192,35295,1,0,0:0:0:0:
448,192,35295,1,0,0:0:0:0:
64,192,35295,1,0,0:0:0:0:
320,192,35376,1,0,0:0:0:0:
64,192,35376,1,0,0:0:0:0:
448,192,35458,1,0,0:0:0:0:
320,192,35458,1,0,0:0:0:0:
192,192,35458,1,0,0:0:0:0:
448,192,35540,1,0,0:0:0:0:
64,192,35540,1,0,0:0:0:0:
64,192,35621,1,0,0:0:0:0:
320,192,35621,1,0,0:0:0:0:
192,192,35621,1,0,0:0:0:0:
448,192,35703,1,0,0:0:0:0:
192,192,35703,1,0,0:0:0:0:
64,192,35785,1,0,0:0:0:0:
448,192,35785,1,0,0:0:0:0:
320,192,35785,1,0,0:0:0:0:
64,192,35867,1,0,0:0:0:0:
192,192,35867,1,0,0:0:0:0:
448,192,35948,1,0,0:0:0:0:
320,192,35948,1,0,0:0:0:0:
192,192,35948,1,0,0:0:0:0:
320,192,36030,1,0,0:0:0:0:
64,192,36030,1,0,0:0:0:0:
64,192,36112,1,0,0:0:0:0:
192,192,36112,1,0,0:0:0:0:
448,192,36112,1,0,0:0:0:0:
320,192,36193,1,0,0:0:0:0:
192,192,36193,1,0,0:0:0:0:
64,192,36275,1,0,0:0:0:0:
448,192,36275,1,0,0:0:0:0:
320,192,36275,1,0,0:0:0:0:
192,192,36357,1,0,0:0:0:0:
64,192,36357,1,0,0:0:0:0:
448,192,36438,1,0,0:0:0:0:
320,192,36438,1,0,0:0:0:0:
192,192,36438,1,0,0:0:0:0:
448,192,36520,1,0,0:0:0:0:
64,192,36520,1,0,0:0:0:0:
320,192,36602,1,0,0:0:0:0:
192,192,36602,1,0,0:0:0:0:
64,192,36602,1,0,0:0:0:0:
448,192,36684,1,0,0:0:0:0:
192,192,36684,1,0,0:0:0:0:
64,192,36765,1,0,0:0:0:0:
448,192,36765,1,0,0:0:0:0:
320,192,36765,1,0,0:0:0:0:
320,192,36847,1,0,0:0:0:0:
192,192,36847,1,0,0:0:0:0:
448,192,36929,1,0,0:0:0:0:
192,192,36929,1,0,0:0:0:0:
64,192,36929,1,0,0:0:0:0:
448,192,37010,1,0,0:0:0:0:
320,192,37010,1,0,0:0:0:0:
192,192,37092,1,0,0:0:0:0:
320,192,37092,1,0,0:0:0:0:
64,192,37092,1,0,0:0:0:0:
448,192,37174,1,0,0:0:0:0:
64,192,37174,1,0,0:0:0:0:
448,192,37255,1,0,0:0:0:0:
320,192,37255,1,0,0:0:0:0:
192,192,37255,1,0,0:0:0:0:
192,192,37337,1,0,0:0:0:0:
64,192,37337,1,0,0:0:0:0:
320,192,37419,1,0,0:0:0:0:
448,192,37419,1,0,0:0:0:0:
64,192,37419,1,0,0:0:0:0:
192,192,37419,1,0,0:0:0:0:
448,192,37501,1,0,0:0:0:0:
320,192,37501,1,0,0:0:0:0:
448,192,37582,1,0,0:0:0:0:
192,192,37582,1,0,0:0:0:0:
64,192,37582,1,0,0:0:0:0:
320,192,37664,1,0,0:0:0:0:
192,192,37664,1,0,0:0:0:0:
448,192,37746,1,0,0:0:0:0:
320,192,37746,1,0,0:0:0:0:
64,192,37746,1,0,0:0:0:0:
192,192,37827,1,0,0:0:0:0:
64,192,37827,1,0,0:0:0:0:
448,192,37909,1,0,0:0:0:0:
320,192,37909,1,0,0:0:0:0:
192,192,37909,1,0,0:0:0:0:
448,192,37991,1,0,0:0:0:0:
64,192,37991,1,0,0:0:0:0:
64,192,38072,1,0,0:0:0:0:
192,192,38072,1,0,0:0:0:0:
320,192,38072,1,0,0:0:0:0:
448,192,38154,1,0,0:0:0:0:
192,192,38154,1,0,0:0:0:0:
448,192,38236,1,0,0:0:0:0:
320,192,38236,1,0,0:0:0:0:
64,192,38236,1,0,0:0:0:0:
320,192,38317,1,0,0:0:0:0:
192,192,38317,1,0,0:0:0:0:
448,192,38399,1,0,0:0:0:0:
192,192,38399,1,0,0:0:0:0:
64,192,38399,1,0,0:0:0:0:
64,192,38481,1,0,0:0:0:0:
320,192,38481,1,0,0:0:0:0:
448,192,38563,1,0,0:0:0:0:
320,192,38563,1,0,0:0:0:0:
192,192,38563,1,0,0:0:0:0:
448,192,38644,1,0,0:0:0:0:
64,192,38644,1,0,0:0:0:0:
64,192,38726,1,0,0:0:0:0:
192,192,38726,1,0,0:0:0:0:
320,192,38726,1,0,0:0:0:0:
448,192,38808,1,0,0:0:0:0:
320,192,38808,1,0,0:0:0:0:
448,192,38889,1,0,0:0:0:0:
192,192,38889,1,0,0:0:0:0:
64,192,38889,1,0,0:0:0:0:
320,192,38971,1,0,0:0:0:0:
192,192,38971,1,0,0:0:0:0:
448,192,39053,1,0,0:0:0:0:
320,192,39053,1,0,0:0:0:0:
64,192,39053,1,0,0:0:0:0:
448,192,39134,1,0,0:0:0:0:
192,192,39134,1,0,0:0:0:0:
64,192,39216,1,0,0:0:0:0:
192,192,39216,1,0,0:0:0:0:
320,192,39216,1,0,0:0:0:0:
448,192,39298,1,0,0:0:0:0:
64,192,39298,1,0,0:0:0:0:
448,192,39380,1,0,0:0:0:0:
320,192,39380,1,0,0:0:0:0:
192,192,39380,1,0,0:0:0:0:
192,192,39461,1,0,0:0:0:0:
64,192,39461,1,0,0:0:0:0:
448,192,39543,1,0,0:0:0:0:
320,192,39543,1,0,0:0:0:0:
64,192,39543,1,0,0:0:0:0:
320,192,39625,1,0,0:0:0:0:
192,192,39625,1,0,0:0:0:0:
64,192,39706,1,0,0:0:0:0:
448,192,39706,1,0,0:0:0:0:
192,192,39706,1,0,0:0:0:0:
448,192,39788,1,0,0:0:0:0:
320,192,39788,1,0,0:0:0:0:
320,192,39870,1,0,0:0:0:0:
192,192,39870,1,0,0:0:0:0:
64,192,39870,1,0,0:0:0:0:
448,192,39951,1,0,0:0:0:0:
192,192,39951,1,0,0:0:0:0:
448,192,40033,1,0,0:0:0:0:
320,192,40033,1,0,0:0:0:0:
64,192,40033,1,0,0:0:0:0:
320,192,40115,1,0,0:0:0:0:
192,192,40115,1,0,0:0:0:0:
448,192,40197,1,0,0:0:0:0:
192,192,40197,1,0,0:0:0:0:
64,192,40197,1,0,0:0:0:0:
64,192,40278,1,0,0:0:0:0:
320,192,40278,1,0,0:0:0:0:
448,192,40360,1,0,0:0:0:0:
320,192,40360,1,0,0:0:0:0:
192,192,40360,1,0,0:0:0:0:
448,192,40442,1,0,0:0:0:0:
64,192,40442,1,0,0:0:0:0:
64,192,40523,1,0,0:0:0:0:
192,192,40523,1,0,0:0:0:0:
320,192,40523,1,0,0:0:0:0:
448,192,40605,1,0,0:0:0:0:
192,192,40605,1,0,0:0:0:0:
448,192,40687,1,0,0:0:0:0:
64,192,40687,1,0,0:0:0:0:
320,192,40687,1,0,0:0:0:0:
320,192,40768,1,0,0:0:0:0:
192,192,40768,1,0,0:0:0:0:
448,192,40850,1,0,0:0:0:0:
64,192,40850,1,0,0:0:0:0:
192,192,40850,1,0,0:0:0:0:
320,192,40932,1,0,0:0:0:0:
64,192,40932,1,0,0:0:0:0:
448,192,41014,1,0,0:0:0:0:
320,192,41014,1,0,0:0:0:0:
192,192,41014,1,0,0:0:0:0:
448,192,41095,1,0,0:0:0:0:
64,192,41095,1,0,0:0:0:0:
64,192,41177,1,0,0:0:0:0:
192,192,41177,1,0,0:0:0:0:
320,192,41177,1,0,0:0:0:0:
448,192,41259,1,0,0:0:0:0:
192,192,41259,1,0,0:0:0:0:
192,192,41340,1,0,0:0:0:0:
64,192,41340,1,0,0:0:0:0:
320,192,41340,1,0,0:0:0:0:
448,192,41340,1,0,0:0:0:0:
320,192,41422,1,0,0:0:0:0:
64,192,41504,1,0,0:0:0:0:
448,192,41504,1,0,0:0:0:0:
192,192,41585,1,0,0:0:0:0:
448,192,41667,1,0,0:0:0:0:
64,192,41667,1,0,0:0:0:0:
320,192,41667,1,0,0:0:0:0:
448,192,41749,1,0,0:0:0:0:
192,192,41749,1,0,0:0:0:0:
64,192,41749,1,0,0:0:0:0:
192,192,41831,1,0,0:0:0:0:
64,192,41831,1,0,0:0:0:0:
320,192,41912,1,0,0:0:0:0:
448,192,41912,1,0,0:0:0:0:
64,192,41994,1,0,0:0:0:0:
192,192,41994,1,0,0:0:0:0:
320,192,42076,1,0,0:0:0:0:
448,192,42157,1,0,0:0:0:0:
192,192,42157,1,0,0:0:0:0:
64,192,42157,1,0,0:0:0:0:
320,192,42239,1,0,0:0:0:0:
192,192,42239,1,0,0:0:0:0:
448,192,42321,1,0,0:0:0:0:
320,192,42321,1,0,0:0:0:0:
64,192,42321,1,0,0:0:0:0:
448,192,42402,1,0,0:0:0:0:
192,192,42402,1,0,0:0:0:0:
320,192,42484,1,0,0:0:0:0:
192,192,42484,1,0,0:0:0:0:
64,192,42484,1,0,0:0:0:0:
448,192,42566,1,0,0:0:0:0:
320,192,42566,1,0,0:0:0:0:
448,192,42648,1,0,0:0:0:0:
64,192,42648,1,0,0:0:0:0:
320,192,42648,1,0,0:0:0:0:
192,192,42648,1,0,0:0:0:0:
64,192,42729,1,0,0:0:0:0:
192,192,42729,1,0,0:0:0:0:
320,192,42811,1,0,0:0:0:0:
448,192,42811,1,0,0:0:0:0:
192,192,42811,1,0,0:0:0:0:
320,192,42893,1,0,0:0:0:0:
64,192,42893,1,0,0:0:0:0:
320,192,42974,1,0,0:0:0:0:
448,192,42974,1,0,0:0:0:0:
64,192,42974,1,0,0:0:0:0:
192,192,42974,1,0,0:0:0:0:
448,192,43056,1,0,0:0:0:0:
192,192,43056,1,0,0:0:0:0:
192,192,43138,1,0,0:0:0:0:
320,192,43138,1,0,0:0:0:0:
64,192,43138,1,0,0:0:0:0:
448,192,43219,1,0,0:0:0:0:
320,192,43219,1,0,0:0:0:0:
448,192,43301,1,0,0:0:0:0:
192,192,43301,1,0,0:0:0:0:
64,192,43301,1,0,0:0:0:0:
320,192,43383,1,0,0:0:0:0:
192,192,43383,1,0,0:0:0:0:
448,192,43465,1,0,0:0:0:0:
320,192,43465,1,0,0:0:0:0:
64,192,43465,1,0,0:0:0:0:
448,192,43546,1,0,0:0:0:0:
192,192,43546,1,0,0:0:0:0:
448,192,43628,1,0,0:0:0:0:
192,192,43628,1,0,0:0:0:0:
64,192,43628,1,0,0:0:0:0:
320,192,43628,1,0,0:0:0:0:
192,192,43710,1,0,0:0:0:0:
64,192,43710,1,0,0:0:0:0:
448,192,43791,1,0,0:0:0:0:
320,192,43791,1,0,0:0:0:0:
64,192,43791,1,0,0:0:0:0:
448,192,43873,1,0,0:0:0:0:
192,192,43873,1,0,0:0:0:0:
64,192,43955,1,0,0:0:0:0:
192,192,43955,1,0,0:0:0:0:
320,192,43955,1,0,0:0:0:0:
448,192,44036,1,0,0:0:0:0:
64,192,44036,1,0,0:0:0:0:
320,192,44118,1,0,0:0:0:0:
448,192,44118,1,0,0:0:0:0:
192,192,44118,1,0,0:0:0:0:
192,192,44200,1,0,0:0:0:0:
64,192,44200,1,0,0:0:0:0:
320,192,44282,1,0,0:0:0:0:
448,192,44282,1,0,0:0:0:0:
64,192,44282,1,0,0:0:0:0:
192,192,44282,1,0,0:0:0:0:
448,192,44363,1,0,0:0:0:0:
320,192,44363,1,0,0:0:0:0:
448,192,44445,1,0,0:0:0:0:
192,192,44445,1,0,0:0:0:0:
64,192,44445,1,0,0:0:0:0:
320,192,44527,1,0,0:0:0:0:
192,192,44527,1,0,0:0:0:0:
448,192,44608,1,0,0:0:0:0:
192,192,44608,1,0,0:0:0:0:
64,192,44608,1,0,0:0:0:0:
320,192,44690,1,0,0:0:0:0:
64,192,44690,1,0,0:0:0:0:
448,192,44772,1,0,0:0:0:0:
320,192,44772,1,0,0:0:0:0:
192,192,44772,1,0,0:0:0:0:
192,192,44853,1,0,0:0:0:0:
64,192,44853,1,0,0:0:0:0:
320,192,44935,1,0,0:0:0:0:
448,192,44935,1,0,0:0:0:0:
64,192,44935,1,0,0:0:0:0:
192,192,44935,1,0,0:0:0:0:
448,192,45017,1,0,0:0:0:0:
320,192,45017,1,0,0:0:0:0:
448,192,45099,1,0,0:0:0:0:
192,192,45099,1,0,0:0:0:0:
64,192,45099,1,0,0:0:0:0:
320,192,45180,1,0,0:0:0:0:
64,192,45180,1,0,0:0:0:0:
448,192,45262,1,0,0:0:0:0:
320,192,45262,1,0,0:0:0:0:
192,192,45262,1,0,0:0:0:0:
448,192,45344,1,0,0:0:0:0:
64,192,45344,1,0,0:0:0:0:
320,192,45425,1,0,0:0:0:0:
192,192,45425,1,0,0:0:0:0:
64,192,45425,1,0,0:0:0:0:
448,192,45507,1,0,0:0:0:0:
192,192,45507,1,0,0:0:0:0:
320,192,45589,1,0,0:0:0:0:
448,192,45589,1,0,0:0:0:0:
64,192,45589,1,0,0:0:0:0:
192,192,45589,1,0,0:0:0:0:
320,192,45670,1,0,0:0:0:0:
448,192,45670,1,0,0:0:0:0:
320,192,45752,1,0,0:0:0:0:
192,192,45752,1,0,0:0:0:0:
64,192,45752,1,0,0:0:0:0:
448,192,45834,1,0,0:0:0:0:
192,192,45834,1,0,0:0:0:0:
448,192,45916,1,0,0:0:0:0:
320,192,45916,1,0,0:0:0:0:
64,192,45916,1,0,0:0:0:0:
320,192,45997,1,0,0:0:0:0:
192,192,45997,1,0,0:0:0:0:
448,192,46079,1,0,0:0:0:0:
192,192,46079,1,0,0:0:0:0:
64,192,46079,1,0,0:0:0:0:
448,192,46161,1,0,0:0:0:0:
320,192,46161,1,0,0:0:0:0:
320,192,46242,1,0,0:0:0:0:
448,192,46242,1,0,0:0:0:0:
64,192,46242,1,0,0:0:0:0:
192,192,46242,1,0,0:0:0:0:
64,192,46324,1,0,0:0:0:0:
192,192,46324,1,0,0:0:0:0:
448,192,46406,1,0,0:0:0:0:
320,192,46406,1,0,0:0:0:0:
64,192,46406,1,0,0:0:0:0:
320,192,46487,1,0,0:0:0:0:
192,192,46487,1,0,0:0:0:0:
192,192,46569,1,0,0:0:0:0:
448,192,46569,1,0,0:0:0:0:
64,192,46569,1,0,0:0:0:0:
448,192,46651,1,0,0:0:0:0:
320,192,46651,1,0,0:0:0:0:
320,192,46733,1,0,0:0:0:0:
192,192,46733,1,0,0:0:0:0:
64,192,46733,1,0,0:0:0:0:
448,192,46814,1,0,0:0:0:0:
192,192,46814,1,0,0:0:0:0:
448,192,46896,1,0,0:0:0:0:
192,192,46896,1,0,0:0:0:0:
64,192,46896,1,0,0:0:0:0:
320,192,46896,1,0,0:0:0:0:
320,192,46978,1,0,0:0:0:0:
64,192,46978,1,0,0:0:0:0:
64,192,47059,1,0,0:0:0:0:
448,192,47059,1,0,0:0:0:0:
192,192,47059,1,0,0:0:0:0:
320,192,47141,1,0,0:0:0:0:
192,192,47141,1,0,0:0:0:0:
64,192,47223,1,0,0:0:0:0:
448,192,47223,1,0,0:0:0:0:
320,192,47223,1,0,0:0:0:0:
192,192,47304,1,0,0:0:0:0:
64,192,47304,1,0,0:0:0:0:
448,192,47386,1,0,0:0:0:0:
320,192,47386,1,0,0:0:0:0:
192,192,47386,1,0,0:0:0:0:
448,192,47468,1,0,0:0:0:0:
64,192,47468,1,0,0:0:0:0:
320,192,47550,1,0,0:0:0:0:
448,192,47550,1,0,0:0:0:0:
64,192,47550,1,0,0:0:0:0:
192,192,47550,1,0,0:0:0:0:
320,192,47631,1,0,0:0:0:0:
192,192,47631,1,0,0:0:0:0:
448,192,47713,1,0,0:0:0:0:
320,192,47713,1,0,0:0:0:0:
64,192,47713,1,0,0:0:0:0:
448,192,47795,1,0,0:0:0:0:
192,192,47795,1,0,0:0:0:0:
192,192,47876,1,0,0:0:0:0:
320,192,47876,1,0,0:0:0:0:
64,192,47876,1,0,0:0:0:0:
448,192,47958,1,0,0:0:0:0:
320,192,47958,1,0,0:0:0:0:
448,192,48040,1,0,0:0:0:0:
192,192,48040,1,0,0:0:0:0:
64,192,48040,1,0,0:0:0:0:
320,192,48121,1,0,0:0:0:0:
192,192,48121,1,0,0:0:0:0:
448,192,48203,1,0,0:0:0:0:
192,192,48203,1,0,0:0:0:0:
64,192,48203,1,0,0:0:0:0:
320,192,48203,1,0,0:0:0:0:
448,192,48285,1,0,0:0:0:0:
64,192,48285,1,0,0:0:0:0:
448,192,48367,1,0,0:0:0:0:
320,192,48367,1,0,0:0:0:0:
192,192,48367,1,0,0:0:0:0:
192,192,48448,1,0,0:0:0:0:
64,192,48448,1,0,0:0:0:0:
448,192,48530,1,0,0:0:0:0:
320,192,48530,1,0,0:0:0:0:
64,192,48530,1,0,0:0:0:0:
320,192,48612,1,0,0:0:0:0:
192,192,48612,1,0,0:0:0:0:
64,192,48693,1,0,0:0:0:0:
448,192,48693,1,0,0:0:0:0:
192,192,48693,1,0,0:0:0:0:
448,192,48775,1,0,0:0:0:0:
320,192,48775,1,0,0:0:0:0:
320,192,48857,1,0,0:0:0:0:
192,192,48857,1,0,0:0:0:0:
64,192,48857,1,0,0:0:0:0:
448,192,48857,1,0,0:0:0:0:
192,192,48938,1,0,0:0:0:0:
64,192,48938,1,0,0:0:0:0:
320,192,49020,1,0,0:0:0:0:
448,192,49020,1,0,0:0:0:0:
64,192,49020,1,0,0:0:0:0:
320,192,49102,1,0,0:0:0:0:
192,192,49102,1,0,0:0:0:0:
448,192,49184,1,0,0:0:0:0:
192,192,49184,1,0,0:0:0:0:
64,192,49184,1,0,0:0:0:0:
448,192,49265,1,0,0:0:0:0:
320,192,49265,1,0,0:0:0:0:
320,192,49347,1,0,0:0:0:0:
192,192,49347,1,0,0:0:0:0:
64,192,49347,1,0,0:0:0:0:
448,192,49429,1,0,0:0:0:0:
192,192,49429,1,0,0:0:0:0:
448,192,49510,1,0,0:0:0:0:
192,192,49510,1,0,0:0:0:0:
64,192,49510,1,0,0:0:0:0:
320,192,49510,1,0,0:0:0:0:
320,192,49592,1,0,0:0:0:0:
64,192,49592,1,0,0:0:0:0:
448,192,49674,1,0,0:0:0:0:
192,192,49674,1,0,0:0:0:0:
64,192,49674,1,0,0:0:0:0:
192,192,49755,1,0,0:0:0:0:
320,192,49755,1,0,0:0:0:0:
64,192,49837,1,0,0:0:0:0:
448,192,49837,1,0,0:0:0:0:
320,192,49837,1,0,0:0:0:0:
192,192,49919,1,0,0:0:0:0:
64,192,49919,1,0,0:0:0:0:
448,192,50001,1,0,0:0:0:0:
320,192,50001,1,0,0:0:0:0:
192,192,50001,1,0,0:0:0:0:
320,192,50082,1,0,0:0:0:0:
64,192,50082,1,0,0:0:0:0:
320,192,50164,1,0,0:0:0:0:
448,192,50164,1,0,0:0:0:0:
64,192,50164,1,0,0:0:0:0:
192,192,50164,1,0,0:0:0:0:
448,192,50246,1,0,0:0:0:0:
192,192,50246,1,0,0:0:0:0:
448,192,50327,1,0,0:0:0:0:
320,192,50327,1,0,0:0:0:0:
64,192,50327,1,0,0:0:0:0:
320,192,50409,1,0,0:0:0:0:
192,192,50409,1,0,0:0:0:0:
192,192,50491,1,0,0:0:0:0:
448,192,50491,1,0,0:0:0:0:
64,192,50491,1,0,0:0:0:0:
320,192,50572,1,0,0:0:0:0:
64,192,50572,1,0,0:0:0:0:
320,192,50654,1,0,0:0:0:0:
448,192,50654,1,0,0:0:0:0:
192,192,50654,1,0,0:0:0:0:
448,192,50736,1,0,0:0:0:0:
64,192,50736,1,0,0:0:0:0:
320,192,50817,1,0,0:0:0:0:
448,192,50817,1,0,0:0:0:0:
64,192,50817,1,0,0:0:0:0:
192,192,50817,1,0,0:0:0:0:
320,192,50899,1,0,0:0:0:0:
192,192,50899,1,0,0:0:0:0:
448,192,50981,1,0,0:0:0:0:
192,192,50981,1,0,0:0:0:0:
64,192,50981,1,0,0:0:0:0:
448,192,51063,1,0,0:0:0:0:
320,192,51063,1,0,0:0:0:0:
192,192,51144,1,0,0:0:0:0:
320,192,51144,1,0,0:0:0:0:
64,192,51144,1,0,0:0:0:0:
448,192,51226,1,0,0:0:0:0:
64,192,51226,1,0,0:0:0:0:
448,192,51308,1,0,0:0:0:0:
320,192,51308,1,0,0:0:0:0:
192,192,51308,1,0,0:0:0:0:
192,192,51389,1,0,0:0:0:0:
64,192,51389,1,0,0:0:0:0:
320,192,51471,1,0,0:0:0:0:
448,192,51471,1,0,0:0:0:0:
64,192,51471,1,0,0:0:0:0:
192,192,51471,1,0,0:0:0:0:
448,192,51553,1,0,0:0:0:0:
320,192,51553,1,0,0:0:0:0:
448,192,51634,1,0,0:0:0:0:
192,192,51634,1,0,0:0:0:0:
64,192,51634,1,0,0:0:0:0:
64,192,51716,1,0,0:0:0:0:
192,192,51716,1,0,0:0:0:0:
448,192,51798,1,0,0:0:0:0:
320,192,51798,1,0,0:0:0:0:
64,192,51798,1,0,0:0:0:0:
192,192,51880,1,0,0:0:0:0:
448,192,51961,1,0,0:0:0:0:
320,192,51961,1,0,0:0:0:0:
64,192,52043,1,0,0:0:0:0:
192,192,52125,1,0,0:0:0:0:
320,192,52206,1,0,0:0:0:0:
448,192,52288,1,0,0:0:0:0:
64,192,52370,1,0,0:0:0:0:
192,192,52451,1,0,0:0:0:0:
320,192,52533,1,0,0:0:0:0:
64,192,52615,1,0,0:0:0:0:
192,192,52615,1,0,0:0:0:0:
448,192,52615,1,0,0:0:0:0:
320,192,52697,1,0,0:0:0:0:
64,192,52778,1,0,0:0:0:0:
192,192,52778,1,0,0:0:0:0:
448,192,52860,1,0,0:0:0:0:
320,192,52942,1,0,0:0:0:0:
192,192,53023,1,0,0:0:0:0:
448,192,53105,1,0,0:0:0:0:
320,192,53105,1,0,0:0:0:0:
64,192,53105,1,0,0:0:0:0:
320,192,53187,1,0,0:0:0:0:
192,192,53187,1,0,0:0:0:0:
64,192,53268,1,0,0:0:0:0:
448,192,53268,1,0,0:0:0:0:
192,192,53268,1,0,0:0:0:0:
448,192,53350,1,0,0:0:0:0:
320,192,53350,1,0,0:0:0:0:
320,192,53432,1,0,0:0:0:0:
448,192,53432,1,0,0:0:0:0:
64,192,53432,1,0,0:0:0:0:
192,192,53432,1,0,0:0:0:0:
64,192,53514,1,0,0:0:0:0:
192,192,53514,1,0,0:0:0:0:
448,192,53595,1,0,0:0:0:0:
320,192,53595,1,0,0:0:0:0:
64,192,53595,1,0,0:0:0:0:
320,192,53677,1,0,0:0:0:0:
192,192,53677,1,0,0:0:0:0:
64,192,53759,1,0,0:0:0:0:
192,192,53759,1,0,0:0:0:0:
448,192,53759,1,0,0:0:0:0:
448,192,53840,1,0,0:0:0:0:
320,192,53840,1,0,0:0:0:0:
320,192,53922,1,0,0:0:0:0:
192,192,53922,1,0,0:0:0:0:
64,192,53922,1,0,0:0:0:0:
448,192,54004,1,0,0:0:0:0:
192,192,54004,1,0,0:0:0:0:
448,192,54085,1,0,0:0:0:0:
192,192,54085,1,0,0:0:0:0:
64,192,54085,1,0,0:0:0:0:
320,192,54085,1,0,0:0:0:0:
320,192,54167,1,0,0:0:0:0:
64,192,54167,1,0,0:0:0:0:
320,192,54249,1,0,0:0:0:0:
448,192,54249,1,0,0:0:0:0:
192,192,54249,1,0,0:0:0:0:
448,192,54331,1,0,0:0:0:0:
64,192,54331,1,0,0:0:0:0:
64,192,54412,1,0,0:0:0:0:
320,192,54412,1,0,0:0:0:0:
192,192,54412,1,0,0:0:0:0:
448,192,54494,1,0,0:0:0:0:
192,192,54494,1,0,0:0:0:0:
448,192,54576,1,0,0:0:0:0:
320,192,54576,1,0,0:0:0:0:
64,192,54576,1,0,0:0:0:0:
192,192,54657,1,0,0:0:0:0:
64,192,54657,1,0,0:0:0:0:
320,192,54739,1,0,0:0:0:0:
448,192,54739,1,0,0:0:0:0:
64,192,54739,1,0,0:0:0:0:
192,192,54739,1,0,0:0:0:0:
448,192,54821,1,0,0:0:0:0:
320,192,54821,1,0,0:0:0:0:
448,192,54902,1,0,0:0:0:0:
192,192,54902,1,0,0:0:0:0:
64,192,54902,1,0,0:0:0:0:
320,192,54984,1,0,0:0:0:0:
192,192,54984,1,0,0:0:0:0:
448,192,55066,1,0,0:0:0:0:
320,192,55066,1,0,0:0:0:0:
64,192,55066,1,0,0:0:0:0:
448,192,55148,1,0,0:0:0:0:
192,192,55148,1,0,0:0:0:0:
64,192,55229,1,0,0:0:0:0:
192,192,55229,1,0,0:0:0:0:
320,192,55229,1,0,0:0:0:0:
448,192,55311,1,0,0:0:0:0:
64,192,55311,1,0,0:0:0:0:
320,192,55393,1,0,0:0:0:0:
448,192,55393,1,0,0:0:0:0:
64,192,55393,1,0,0:0:0:0:
192,192,55393,1,0,0:0:0:0:
320,192,55474,1,0,0:0:0:0:
192,192,55474,1,0,0:0:0:0:
64,192,55556,1,0,0:0:0:0:
448,192,55556,1,0,0:0:0:0:
192,192,55556,1,0,0:0:0:0:
448,192,55638,1,0,0:0:0:0:
320,192,55638,1,0,0:0:0:0:
320,192,55719,1,0,0:0:0:0:
64,192,55719,1,0,0:0:0:0:
192,192,55719,1,0,0:0:0:0:
448,192,55801,1,0,0:0:0:0:
192,192,55801,1,0,0:0:0:0:
64,192,55883,1,0,0:0:0:0:
448,192,55883,1,0,0:0:0:0:
320,192,55883,1,0,0:0:0:0:
320,192,55965,1,0,0:0:0:0:
192,192,55965,1,0,0:0:0:0:
320,192,56046,1,0,0:0:0:0:
448,192,56046,1,0,0:0:0:0:
64,192,56046,1,0,0:0:0:0:
192,192,56046,1,0,0:0:0:0:
448,192,56128,1,0,0:0:0:0:
64,192,56128,1,0,0:0:0:0:
64,192,56210,1,0,0:0:0:0:
320,192,56210,1,0,0:0:0:0:
192,192,56210,1,0,0:0:0:0:
448,192,56291,1,0,0:0:0:0:
192,192,56291,1,0,0:0:0:0:
448,192,56373,1,0,0:0:0:0:
64,192,56373,1,0,0:0:0:0:
320,192,56373,1,0,0:0:0:0:
64,192,56455,1,0,0:0:0:0:
192,192,56455,1,0,0:0:0:0:
192,192,56536,1,0,0:0:0:0:
448,192,56536,1,0,0:0:0:0:
320,192,56536,1,0,0:0:0:0:
448,192,56618,1,0,0:0:0:0:
64,192,56618,1,0,0:0:0:0:
320,192,56700,1,0,0:0:0:0:
448,192,56700,1,0,0:0:0:0:
64,192,56700,1,0,0:0:0:0:
192,192,56700,1,0,0:0:0:0:
320,192,56782,1,0,0:0:0:0:
192,192,56782,1,0,0:0:0:0:
448,192,56863,1,0,0:0:0:0:
192,192,56863,1,0,0:0:0:0:
64,192,56863,1,0,0:0:0:0:
448,192,56945,1,0,0:0:0:0:
320,192,56945,1,0,0:0:0:0:
320,192,57027,1,0,0:0:0:0:
192,192,57027,1,0,0:0:0:0:
64,192,57027,1,0,0:0:0:0:
448,192,57108,1,0,0:0:0:0:
192,192,57108,1,0,0:0:0:0:
448,192,57190,1,0,0:0:0:0:
320,192,57190,1,0,0:0:0:0:
64,192,57190,1,0,0:0:0:0:
320,192,57272,1,0,0:0:0:0:
192,192,57272,1,0,0:0:0:0:
448,192,57353,1,0,0:0:0:0:
320,192,57353,1,0,0:0:0:0:
64,192,57353,1,0,0:0:0:0:
192,192,57353,1,0,0:0:0:0:
448,192,57435,1,0,0:0:0:0:
64,192,57435,1,0,0:0:0:0:
192,192,57517,1,0,0:0:0:0:
320,192,57517,1,0,0:0:0:0:
64,192,57517,1,0,0:0:0:0:
448,192,57599,1,0,0:0:0:0:
192,192,57599,1,0,0:0:0:0:
64,192,57680,1,0,0:0:0:0:
448,192,57680,1,0,0:0:0:0:
320,192,57680,1,0,0:0:0:0:
320,192,57762,1,0,0:0:0:0:
192,192,57762,1,0,0:0:0:0:
448,192,57844,1,0,0:0:0:0:
192,192,57844,1,0,0:0:0:0:
64,192,57844,1,0,0:0:0:0:
448,192,57925,1,0,0:0:0:0:
320,192,57925,1,0,0:0:0:0:
320,192,58007,1,0,0:0:0:0:
448,192,58007,1,0,0:0:0:0:
64,192,58007,1,0,0:0:0:0:
192,192,58007,1,0,0:0:0:0:
192,192,58089,1,0,0:0:0:0:
64,192,58089,1,0,0:0:0:0:
448,192,58170,1,0,0:0:0:0:
320,192,58170,1,0,0:0:0:0:
64,192,58170,1,0,0:0:0:0:
320,192,58252,1,0,0:0:0:0:
192,192,58252,1,0,0:0:0:0:
64,192,58334,1,0,0:0:0:0:
448,192,58334,1,0,0:0:0:0:
192,192,58334,1,0,0:0:0:0:
448,192,58416,1,0,0:0:0:0:
320,192,58416,1,0,0:0:0:0:
320,192,58497,1,0,0:0:0:0:
192,192,58497,1,0,0:0:0:0:
64,192,58497,1,0,0:0:0:0:
448,192,58579,1,0,0:0:0:0:
192,192,58579,1,0,0:0:0:0:
448,192,58661,1,0,0:0:0:0:
192,192,58661,1,0,0:0:0:0:
64,192,58661,1,0,0:0:0:0:
320,192,58661,1,0,0:0:0:0:
320,192,58742,1,0,0:0:0:0:
64,192,58742,1,0,0:0:0:0:
448,192,58824,1,0,0:0:0:0:
320,192,58824,1,0,0:0:0:0:
192,192,58824,1,0,0:0:0:0:
192,192,58906,1,0,0:0:0:0:
64,192,58906,1,0,0:0:0:0:
448,192,58987,1,0,0:0:0:0:
320,192,58987,1,0,0:0:0:0:
64,192,58987,1,0,0:0:0:0:
320,192,59069,1,0,0:0:0:0:
192,192,59069,1,0,0:0:0:0:
64,192,59151,1,0,0:0:0:0:
448,192,59151,1,0,0:0:0:0:
192,192,59151,1,0,0:0:0:0:
448,192,59233,1,0,0:0:0:0:
320,192,59233,1,0,0:0:0:0:
320,192,59314,1,0,0:0:0:0:
448,192,59314,1,0,0:0:0:0:
64,192,59314,1,0,0:0:0:0:
192,192,59314,1,0,0:0:0:0:
192,192,59396,1,0,0:0:0:0:
64,192,59396,1,0,0:0:0:0:
64,192,59478,1,0,0:0:0:0:
448,192,59478,1,0,0:0:0:0:
320,192,59478,1,0,0:0:0:0:
320,192,59559,1,0,0:0:0:0:
192,192,59559,1,0,0:0:0:0:
320,192,59641,1,0,0:0:0:0:
448,192,59641,1,0,0:0:0:0:
64,192,59641,1,0,0:0:0:0:
448,192,59723,1,0,0:0:0:0:
192,192,59723,1,0,0:0:0:0:
192,192,59804,1,0,0:0:0:0:
320,192,59804,1,0,0:0:0:0:
64,192,59804,1,0,0:0:0:0:
448,192,59886,1,0,0:0:0:0:
64,192,59886,1,0,0:0:0:0:
320,192,59968,1,0,0:0:0:0:
448,192,59968,1,0,0:0:0:0:
64,192,59968,1,0,0:0:0:0:
192,192,59968,1,0,0:0:0:0:
320,192,60050,1,0,0:0:0:0:
192,192,60050,1,0,0:0:0:0:
320,192,60131,1,0,0:0:0:0:
448,192,60131,1,0,0:0:0:0:
64,192,60131,1,0,0:0:0:0:
192,192,60213,1,0,0:0:0:0:
64,192,60213,1,0,0:0:0:0:
320,192,60295,1,0,0:0:0:0:
448,192,60295,1,0,0:0:0:0:
192,192,60295,1,0,0:0:0:0:
448,192,60376,1,0,0:0:0:0:
64,192,60376,1,0,0:0:0:0:
64,192,60458,1,0,0:0:0:0:
320,192,60458,1,0,0:0:0:0:
192,192,60458,1,0,0:0:0:0:
448,192,60540,1,0,0:0:0:0:
192,192,60540,1,0,0:0:0:0:
192,192,60621,1,0,0:0:0:0:
448,192,60621,1,0,0:0:0:0:
64,192,60621,1,0,0:0:0:0:
320,192,60621,1,0,0:0:0:0:
320,192,60703,1,0,0:0:0:0:
448,192,60703,1,0,0:0:0:0:
192,192,60785,1,0,0:0:0:0:
320,192,60785,1,0,0:0:0:0:
64,192,60785,1,0,0:0:0:0:
448,192,60867,1,0,0:0:0:0:
64,192,60867,1,0,0:0:0:0:
320,192,60948,1,0,0:0:0:0:
448,192,60948,1,0,0:0:0:0:
192,192,60948,1,0,0:0:0:0:
320,192,61030,1,0,0:0:0:0:
64,192,61030,1,0,0:0:0:0:
64,192,61112,1,0,0:0:0:0:
192,192,61112,1,0,0:0:0:0:
448,192,61112,1,0,0:0:0:0:
448,192,61193,1,0,0:0:0:0:
320,192,61193,1,0,0:0:0:0:
320,192,61275,1,0,0:0:0:0:
448,192,61275,1,0,0:0:0:0:
64,192,61275,1,0,0:0:0:0:
192,192,61275,1,0,0:0:0:0:
64,192,61357,1,0,0:0:0:0:
192,192,61357,1,0,0:0:0:0:
320,192,61438,1,0,0:0:0:0:
448,192,61438,1,0,0:0:0:0:
64,192,61438,1,0,0:0:0:0:
448,192,61520,1,0,0:0:0:0:
192,192,61520,1,0,0:0:0:0:
192,192,61602,1,0,0:0:0:0:
320,192,61602,1,0,0:0:0:0:
64,192,61602,1,0,0:0:0:0:
448,192,61684,1,0,0:0:0:0:
320,192,61684,1,0,0:0:0:0:
448,192,61765,1,0,0:0:0:0:
192,192,61765,1,0,0:0:0:0:
64,192,61765,1,0,0:0:0:0:
64,192,61847,1,0,0:0:0:0:
320,192,61847,1,0,0:0:0:0:
320,192,61929,1,0,0:0:0:0:
448,192,61929,1,0,0:0:0:0:
64,192,61929,1,0,0:0:0:0:
192,192,61929,1,0,0:0:0:0:
448,192,62010,1,0,0:0:0:0:
320,192,62010,1,0,0:0:0:0:
448,192,62092,1,0,0:0:0:0:
192,192,62092,1,0,0:0:0:0:
64,192,62092,1,0,0:0:0:0:
320,192,62174,1,0,0:0:0:0:
64,192,62174,1,0,0:0:0:0:
448,192,62255,1,0,0:0:0:0:
320,192,62255,1,0,0:0:0:0:
192,192,62255,1,0,0:0:0:0:
448,192,62337,1,0,0:0:0:0:
64,192,62337,1,0,0:0:0:0:
192,192,62419,1,0,0:0:0:0:
64,192,62419,1,0,0:0:0:0:
320,192,62419,1,0,0:0:0:0:
448,192,62501,1,0,0:0:0:0:
192,192,62501,1,0,0:0:0:0:
448,192,62582,1,0,0:0:0:0:
192,192,62582,1,0,0:0:0:0:
64,192,62582,1,0,0:0:0:0:
320,192,62582,1,0,0:0:0:0:
448,192,62664,1,0,0:0:0:0:
320,192,62664,1,0,0:0:0:0:
192,192,62746,1,0,0:0:0:0:
320,192,62746,1,0,0:0:0:0:
64,192,62746,1,0,0:0:0:0:
448,192,62827,1,0,0:0:0:0:
64,192,62827,1,0,0:0:0:0:
192,192,62909,1,0,0:0:0:0:
448,192,62909,1,0,0:0:0:0:
320,192,62909,1,0,0:0:0:0:
192,192,62991,1,0,0:0:0:0:
64,192,62991,1,0,0:0:0:0:
320,192,63072,1,0,0:0:0:0:
448,192,63072,1,0,0:0:0:0:
64,192,63072,1,0,0:0:0:0:
192,192,63072,1,0,0:0:0:0:
448,192,63154,1,0,0:0:0:0:
320,192,63154,1,0,0:0:0:0:
192,192,63236,1,0,0:0:0:0:
448,192,63236,1,0,0:0:0:0:
64,192,63236,1,0,0:0:0:0:
320,192,63317,1,0,0:0:0:0:
448,192,63317,1,0,0:0:0:0:
64,192,63317,1,0,0:0:0:0:
192,192,63317,1,0,0:0:0:0:
192,192,63399,1,0,0:0:0:0:
64,192,63399,1,0,0:0:0:0:
320,192,63481,1,0,0:0:0:0:
64,192,63481,1,0,0:0:0:0:
448,192,63481,1,0,0:0:0:0:
320,192,63563,1,0,0:0:0:0:
448,192,63563,1,0,0:0:0:0:
64,192,63563,1,0,0:0:0:0:
192,192,63563,1,0,0:0:0:0:
320,192,63644,1,0,0:0:0:0:
192,192,63644,1,0,0:0:0:0:
448,192,63726,1,0,0:0:0:0:
192,192,63726,1,0,0:0:0:0:
64,192,63726,1,0,0:0:0:0:
448,192,63808,1,0,0:0:0:0:
320,192,63808,1,0,0:0:0:0:
320,192,63889,1,0,0:0:0:0:
448,192,63889,1,0,0:0:0:0:
64,192,63889,1,0,0:0:0:0:
192,192,63889,1,0,0:0:0:0:
192,192,63971,1,0,0:0:0:0:
64,192,63971,1,0,0:0:0:0:
448,192,64053,1,0,0:0:0:0:
320,192,64053,1,0,0:0:0:0:
64,192,64053,1,0,0:0:0:0:
320,192,64134,1,0,0:0:0:0:
192,192,64134,1,0,0:0:0:0:
448,192,64216,1,0,0:0:0:0:
192,192,64216,1,0,0:0:0:0:
64,192,64216,1,0,0:0:0:0:
448,192,64298,1,0,0:0:0:0:
320,192,64298,1,0,0:0:0:0:
320,192,64380,1,0,0:0:0:0:
192,192,64380,1,0,0:0:0:0:
64,192,64380,1,0,0:0:0:0:
448,192,64461,1,0,0:0:0:0:
192,192,64461,1,0,0:0:0:0:
448,192,64543,1,0,0:0:0:0:
192,192,64543,1,0,0:0:0:0:
64,192,64543,1,0,0:0:0:0:
320,192,64543,1,0,0:0:0:0:
448,192,64625,1,0,0:0:0:0:
320,192,64625,1,0,0:0:0:0:
320,192,64706,1,0,0:0:0:0:
192,192,64706,1,0,0:0:0:0:
64,192,64706,1,0,0:0:0:0:
448,192,64788,1,0,0:0:0:0:
64,192,64788,1,0,0:0:0:0:
192,192,64870,1,0,0:0:0:0:
448,192,64870,1,0,0:0:0:0:
320,192,64870,1,0,0:0:0:0:
320,192,64951,1,0,0:0:0:0:
64,192,64951,1,0,0:0:0:0:
448,192,65033,1,0,0:0:0:0:
64,192,65033,1,0,0:0:0:0:
192,192,65033,1,0,0:0:0:0:
448,192,65115,1,0,0:0:0:0:
320,192,65115,1,0,0:0:0:0:
320,192,65197,1,0,0:0:0:0:
448,192,65197,1,0,0:0:0:0:
64,192,65197,1,0,0:0:0:0:
192,192,65197,1,0,0:0:0:0:
64,192,65278,1,0,0:0:0:0:
192,192,65278,1,0,0:0:0:0:
448,192,65360,1,0,0:0:0:0:
320,192,65360,1,0,0:0:0:0:
64,192,65360,1,0,0:0:0:0:
320,192,65442,1,0,0:0:0:0:
192,192,65442,1,0,0:0:0:0:
64,192,65523,1,0,0:0:0:0:
192,192,65523,1,0,0:0:0:0:
448,192,65523,1,0,0:0:0:0:
448,192,65605,1,0,0:0:0:0:
320,192,65605,1,0,0:0:0:0:
320,192,65687,1,0,0:0:0:0:
192,192,65687,1,0,0:0:0:0:
64,192,65687,1,0,0:0:0:0:
448,192,65768,1,0,0:0:0:0:
192,192,65768,1,0,0:0:0:0:
448,192,65850,1,0,0:0:0:0:
192,192,65850,1,0,0:0:0:0:
64,192,65850,1,0,0:0:0:0:
320,192,65850,1,0,0:0:0:0:
320,192,65932,1,0,0:0:0:0:
64,192,65932,1,0,0:0:0:0:
64,192,66014,1,0,0:0:0:0:
448,192,66014,1,0,0:0:0:0:
192,192,66014,1,0,0:0:0:0:
320,192,66095,1,0,0:0:0:0:
192,192,66095,1,0,0:0:0:0:
448,192,66177,1,0,0:0:0:0:
320,192,66177,1,0,0:0:0:0:
64,192,66177,1,0,0:0:0:0:
448,192,66259,1,0,0:0:0:0:
192,192,66259,1,0,0:0:0:0:
64,192,66340,1,0,0:0:0:0:
192,192,66340,1,0,0:0:0:0:
320,192,66340,1,0,0:0:0:0:
448,192,66422,1,0,0:0:0:0:
320,192,66422,1,0,0:0:0:0:
320,192,66504,1,0,0:0:0:0:
448,192,66504,1,0,0:0:0:0:
64,192,66504,1,0,0:0:0:0:
192,192,66504,1,0,0:0:0:0:
64,192,66585,1,0,0:0:0:0:
192,192,66585,1,0,0:0:0:0:
64,192,66667,1,0,0:0:0:0:
448,192,66667,1,0,0:0:0:0:
320,192,66667,1,0,0:0:0:0:
320,192,66749,1,0,0:0:0:0:
192,192,66749,1,0,0:0:0:0:
448,192,66831,1,0,0:0:0:0:
192,192,66831,1,0,0:0:0:0:
64,192,66831,1,0,0:0:0:0:
448,192,66912,1,0,0:0:0:0:
320,192,66912,1,0,0:0:0:0:
320,192,66994,1,0,0:0:0:0:
192,192,66994,1,0,0:0:0:0:
64,192,66994,1,0,0:0:0:0:
448,192,67076,1,0,0:0:0:0:
192,192,67076,1,0,0:0:0:0:
448,192,67157,1,0,0:0:0:0:
192,192,67157,1,0,0:0:0:0:
64,192,67157,1,0,0:0:0:0:
320,192,67157,1,0,0:0:0:0:
320,192,67239,1,0,0:0:0:0:
64,192,67239,1,0,0:0:0:0:
320,192,67321,1,0,0:0:0:0:
448,192,67321,1,0,0:0:0:0:
192,192,67321,1,0,0:0:0:0:
192,192,67402,1,0,0:0:0:0:
64,192,67402,1,0,0:0:0:0:
448,192,67484,1,0,0:0:0:0:
320,192,67484,1,0,0:0:0:0:
64,192,67484,1,0,0:0:0:0:
320,192,67566,1,0,0:0:0:0:
192,192,67566,1,0,0:0:0:0:
448,192,67648,1,0,0:0:0:0:
192,192,67648,1,0,0:0:0:0:
64,192,67648,1,0,0:0:0:0:
320,192,67729,1,0,0:0:0:0:
64,192,67729,1,0,0:0:0:0:
320,192,67811,1,0,0:0:0:0:
448,192,67811,1,0,0:0:0:0:
64,192,67811,1,0,0:0:0:0:
192,192,67811,1,0,0:0:0:0:
448,192,67893,1,0,0:0:0:0:
320,192,67893,1,0,0:0:0:0:
448,192,67974,1,0,0:0:0:0:
192,192,67974,1,0,0:0:0:0:
64,192,67974,1,0,0:0:0:0:
320,192,68056,1,0,0:0:0:0:
64,192,68056,1,0,0:0:0:0:
448,192,68138,1,0,0:0:0:0:
320,192,68138,1,0,0:0:0:0:
192,192,68138,1,0,0:0:0:0:
448,192,68219,1,0,0:0:0:0:
64,192,68219,1,0,0:0:0:0:
64,192,68301,1,0,0:0:0:0:
320,192,68301,1,0,0:0:0:0:
192,192,68301,1,0,0:0:0:0:
448,192,68383,1,0,0:0:0:0:
192,192,68383,1,0,0:0:0:0:
448,192,68465,1,0,0:0:0:0:
192,192,68465,1,0,0:0:0:0:
64,192,68465,1,0,0:0:0:0:
320,192,68465,1,0,0:0:0:0:
64,192,68546,1,0,0:0:0:0:
320,192,68546,1,0,0:0:0:0:
64,192,68628,1,0,0:0:0:0:
448,192,68628,1,0,0:0:0:0:
192,192,68628,1,0,0:0:0:0:
320,192,68710,1,0,0:0:0:0:
192,192,68710,1,0,0:0:0:0:
448,192,68791,1,0,0:0:0:0:
320,192,68791,1,0,0:0:0:0:
64,192,68791,1,0,0:0:0:0:
448,192,68873,1,0,0:0:0:0:
192,192,68873,1,0,0:0:0:0:
320,192,68955,1,0,0:0:0:0:
192,192,68955,1,0,0:0:0:0:
64,192,68955,1,0,0:0:0:0:
448,192,69036,1,0,0:0:0:0:
64,192,69036,1,0,0:0:0:0:
320,192,69118,1,0,0:0:0:0:
448,192,69118,1,0,0:0:0:0:
64,192,69118,1,0,0:0:0:0:
192,192,69118,1,0,0:0:0:0:
448,192,69200,1,0,0:0:0:0:
320,192,69200,1,0,0:0:0:0:
320,192,69282,1,0,0:0:0:0:
192,192,69282,1,0,0:0:0:0:
64,192,69282,1,0,0:0:0:0:
448,192,69363,1,0,0:0:0:0:
64,192,69363,1,0,0:0:0:0:
448,192,69445,1,0,0:0:0:0:
320,192,69445,1,0,0:0:0:0:
192,192,69445,1,0,0:0:0:0:
192,192,69527,1,0,0:0:0:0:
64,192,69527,1,0,0:0:0:0:
448,192,69608,1,0,0:0:0:0:
320,192,69608,1,0,0:0:0:0:
64,192,69608,1,0,0:0:0:0:
320,192,69690,1,0,0:0:0:0:
192,192,69690,1,0,0:0:0:0:
448,192,69772,1,0,0:0:0:0:
192,192,69772,1,0,0:0:0:0:
64,192,69772,1,0,0:0:0:0:
320,192,69772,1,0,0:0:0:0:
64,192,69853,1,0,0:0:0:0:
192,192,69853,1,0,0:0:0:0:
320,192,69935,1,0,0:0:0:0:
448,192,69935,1,0,0:0:0:0:
64,192,69935,1,0,0:0:0:0:
320,192,70017,1,0,0:0:0:0:
192,192,70017,1,0,0:0:0:0:
448,192,70099,1,0,0:0:0:0:
192,192,70099,1,0,0:0:0:0:
64,192,70099,1,0,0:0:0:0:
448,192,70180,1,0,0:0:0:0:
320,192,70180,1,0,0:0:0:0:
192,192,70262,1,0,0:0:0:0:
320,192,70262,1,0,0:0:0:0:
64,192,70262,1,0,0:0:0:0:
448,192,70344,1,0,0:0:0:0:
64,192,70344,1,0,0:0:0:0:
320,192,70425,1,0,0:0:0:0:
448,192,70425,1,0,0:0:0:0:
64,192,70425,1,0,0:0:0:0:
192,192,70425,1,0,0:0:0:0:
320,192,70507,1,0,0:0:0:0:
192,192,70507,1,0,0:0:0:0:
448,192,70589,1,0,0:0:0:0:
320,192,70589,1,0,0:0:0:0:
64,192,70589,1,0,0:0:0:0:
192,192,70670,1,0,0:0:0:0:
64,192,70670,1,0,0:0:0:0:
448,192,70752,1,0,0:0:0:0:
320,192,70752,1,0,0:0:0:0:
192,192,70752,1,0,0:0:0:0:
320,192,70834,1,0,0:0:0:0:
64,192,70834,1,0,0:0:0:0:
448,192,70916,1,0,0:0:0:0:
64,192,70916,1,0,0:0:0:0:
192,192,70916,1,0,0:0:0:0:
448,192,70997,1,0,0:0:0:0:
320,192,70997,1,0,0:0:0:0:
320,192,71079,1,0,0:0:0:0:
448,192,71079,1,0,0:0:0:0:
64,192,71079,1,0,0:0:0:0:
192,192,71079,1,0,0:0:0:0:
64,192,71161,1,0,0:0:0:0:
192,192,71161,1,0,0:0:0:0:
320,192,71242,1,0,0:0:0:0:
448,192,71242,1,0,0:0:0:0:
64,192,71242,1,0,0:0:0:0:
320,192,71324,1,0,0:0:0:0:
192,192,71324,1,0,0:0:0:0:
448,192,71406,1,0,0:0:0:0:
192,192,71406,1,0,0:0:0:0:
64,192,71406,1,0,0:0:0:0:
448,192,71487,1,0,0:0:0:0:
320,192,71487,1,0,0:0:0:0:
320,192,71569,1,0,0:0:0:0:
192,192,71569,1,0,0:0:0:0:
64,192,71569,1,0,0:0:0:0:
448,192,71651,1,0,0:0:0:0:
64,192,71651,1,0,0:0:0:0:
320,192,71733,1,0,0:0:0:0:
448,192,71733,1,0,0:0:0:0:
64,192,71733,1,0,0:0:0:0:
192,192,71733,1,0,0:0:0:0:
448,192,71814,1,0,0:0:0:0:
320,192,71814,1,0,0:0:0:0:
320,192,71896,1,0,0:0:0:0:
192,192,71896,1,0,0:0:0:0:
64,192,71896,1,0,0:0:0:0:
448,192,71978,1,0,0:0:0:0:
64,192,71978,1,0,0:0:0:0:
448,192,72059,1,0,0:0:0:0:
320,192,72059,1,0,0:0:0:0:
192,192,72059,1,0,0:0:0:0:
192,192,72141,1,0,0:0:0:0:
64,192,72141,1,0,0:0:0:0:
448,192,72223,1,0,0:0:0:0:
320,192,72223,1,0,0:0:0:0:
64,192,72223,1,0,0:0:0:0:
320,192,72304,1,0,0:0:0:0:
192,192,72304,1,0,0:0:0:0:
448,192,72386,1,0,0:0:0:0:
192,192,72386,1,0,0:0:0:0:
64,192,72386,1,0,0:0:0:0:
320,192,72386,1,0,0:0:0:0:
192,192,72468,1,0,0:0:0:0:
64,192,72468,1,0,0:0:0:0:
320,192,72550,1,0,0:0:0:0:
448,192,72550,1,0,0:0:0:0:
64,192,72550,1,0,0:0:0:0:
320,192,72631,1,0,0:0:0:0:
192,192,72631,1,0,0:0:0:0:
320,192,72713,1,0,0:0:0:0:
448,192,72713,1,0,0:0:0:0:
64,192,72713,1,0,0:0:0:0:
192,192,72713,1,0,0:0:0:0:
448,192,72795,1,0,0:0:0:0:
64,192,72795,1,0,0:0:0:0:
320,192,72876,1,0,0:0:0:0:
192,192,72876,1,0,0:0:0:0:
448,192,72958,1,0,0:0:0:0:
64,192,72958,1,0,0:0:0:0:
192,192,73040,1,0,0:0:0:0:
64,192,73040,1,0,0:0:0:0:
448,192,73121,1,0,0:0:0:0:
320,192,73121,1,0,0:0:0:0:
192,192,73203,1,0,0:0:0:0:
64,192,73203,1,0,0:0:0:0:
448,192,73285,1,0,0:0:0:0:
320,192,73285,1,0,0:0:0:0:
64,192,73367,1,0,0:0:0:0:
192,192,73394,1,0,0:0:0:0:
320,192,73421,1,0,0:0:0:0:
448,192,73448,1,0,0:0:0:0:
64,192,73475,1,0,0:0:0:0:
192,192,73503,1,0,0:0:0:0:
320,192,73530,1,0,0:0:0:0:
448,192,73557,1,0,0:0:0:0:
64,192,73584,1,0,0:0:0:0:
192,192,73612,1,0,0:0:0:0:
320,192,73639,1,0,0:0:0:0:
448,192,73666,1,0,0:0:0:0:
64,192,73693,1,0,0:0:0:0:
192,192,73721,1,0,0:0:0:0:
320,192,73748,1,0,0:0:0:0:
448,192,73775,1,0,0:0:0:0:
64,192,73802,1,0,0:0:0:0:
192,192,73829,1,0,0:0:0:0:
320,192,73857,1,0,0:0:0:0:
448,192,73884,1,0,0:0:0:0:
64,192,73911,1,0,0:0:0:0:
192,192,73938,1,0,0:0:0:0:
320,192,73966,1,0,0:0:0:0:
448,192,73993,1,0,0:0:0:0:
192,192,74020,1,0,0:0:0:0:
64,192,74020,1,0,0:0:0:0:
320,192,74184,1,0,0:0:0:0:
448,192,74347,1,0,0:0:0:0:
64,192,74347,1,0,0:0:0:0:
192,192,74347,1,0,0:0:0:0:
448,192,74510,1,0,0:0:0:0:
320,192,74510,1,0,0:0:0:0:
192,192,74674,1,0,0:0:0:0:
320,192,74837,1,0,0:0:0:0:
448,192,74837,1,0,0:0:0:0:
64,192,74837,1,0,0:0:0:0:
192,192,75001,1,0,0:0:0:0:
320,192,75164,1,0,0:0:0:0:
448,192,75164,1,0,0:0:0:0:
448,192,75327,1,0,0:0:0:0:
192,192,75327,1,0,0:0:0:0:
64,192,75327,1,0,0:0:0:0:
320,192,75491,1,0,0:0:0:0:
192,192,75491,1,0,0:0:0:0:
64,192,75654,1,0,0:0:0:0:
448,192,75654,1,0,0:0:0:0:
320,192,75654,1,0,0:0:0:0:
64,192,75818,1,0,0:0:0:0:
192,192,75818,1,0,0:0:0:0:
320,192,75981,1,0,0:0:0:0:
64,192,76144,1,0,0:0:0:0:
192,192,76144,1,0,0:0:0:0:
448,192,76144,1,0,0:0:0:0:
448,192,76308,1,0,0:0:0:0:
64,192,76308,1,0,0:0:0:0:
192,192,76308,1,0,0:0:0:0:
192,192,76471,1,0,0:0:0:0:
320,192,76471,1,0,0:0:0:0:
448,192,76634,1,0,0:0:0:0:
320,192,76634,1,0,0:0:0:0:
64,192,76634,1,0,0:0:0:0:
192,192,76798,1,0,0:0:0:0:
448,192,76961,1,0,0:0:0:0:
320,192,76961,1,0,0:0:0:0:
64,192,77125,1,0,0:0:0:0:
192,192,77125,1,0,0:0:0:0:
448,192,77288,1,0,0:0:0:0:
320,192,77288,1,0,0:0:0:0:
64,192,77288,1,0,0:0:0:0:
192,192,77451,1,0,0:0:0:0:
448,192,77615,1,0,0:0:0:0:
64,192,77615,1,0,0:0:0:0:
192,192,77778,1,0,0:0:0:0:
320,192,77778,1,0,0:0:0:0:
448,192,77942,1,0,0:0:0:0:
192,192,77942,1,0,0:0:0:0:
64,192,77942,1,0,0:0:0:0:
320,192,78105,1,0,0:0:0:0:
448,192,78268,1,0,0:0:0:0:
192,192,78268,1,0,0:0:0:0:
64,192,78268,1,0,0:0:0:0:
64,192,78432,1,0,0:0:0:0:
448,192,78432,1,0,0:0:0:0:
320,192,78432,1,0,0:0:0:0:
192,192,78595,1,0,0:0:0:0:
448,192,78759,1,0,0:0:0:0:
320,192,78759,1,0,0:0:0:0:
320,192,78922,1,0,0:0:0:0:
192,192,78922,1,0,0:0:0:0:
448,192,79085,1,0,0:0:0:0:
192,192,79085,1,0,0:0:0:0:
64,192,79085,1,0,0:0:0:0:
64,192,79249,1,0,0:0:0:0:
448,192,79249,1,0,0:0:0:0:
320,192,79249,1,0,0:0:0:0:
192,192,79412,1,0,0:0:0:0:
448,192,79576,1,0,0:0:0:0:
320,192,79576,1,0,0:0:0:0:
448,192,79739,1,0,0:0:0:0:
192,192,79739,1,0,0:0:0:0:
64,192,79739,1,0,0:0:0:0:
320,192,79902,1,0,0:0:0:0:
192,192,80066,1,0,0:0:0:0:
448,192,80229,1,0,0:0:0:0:
320,192,80229,1,0,0:0:0:0:
64,192,80229,1,0,0:0:0:0:
448,192,80393,1,0,0:0:0:0:
320,192,80393,1,0,0:0:0:0:
192,192,80393,1,0,0:0:0:0:
448,192,80556,1,0,0:0:0:0:
192,192,80556,1,0,0:0:0:0:
64,192,80556,1,0,0:0:0:0:
320,192,80719,1,0,0:0:0:0:
64,192,80883,1,0,0:0:0:0:
192,192,80883,1,0,0:0:0:0:
448,192,81046,1,0,0:0:0:0:
320,192,81046,1,0,0:0:0:0:
64,192,81046,1,0,0:0:0:0:
192,192,81210,1,0,0:0:0:0:
320,192,81373,1,0,0:0:0:0:
64,192,81536,1,0,0:0:0:0:
192,192,81536,1,0,0:0:0:0:
448,192,81536,1,0,0:0:0:0:
192,192,81700,1,0,0:0:0:0:
448,192,81700,1,0,0:0:0:0:
320,192,81700,1,0,0:0:0:0:
448,192,81863,1,0,0:0:0:0:
64,192,81863,1,0,0:0:0:0:
320,192,81863,1,0,0:0:0:0:
192,192,82027,1,0,0:0:0:0:
448,192,82190,1,0,0:0:0:0:
320,192,82190,1,0,0:0:0:0:
448,192,82353,1,0,0:0:0:0:
192,192,82353,1,0,0:0:0:0:
64,192,82353,1,0,0:0:0:0:
320,192,82517,1,0,0:0:0:0:
192,192,82680,1,0,0:0:0:0:
448,192,82844,1,0,0:0:0:0:
320,192,82844,1,0,0:0:0:0:
192,192,82925,1,0,0:0:0:0:
64,192,82925,1,0,0:0:0:0:
320,192,83007,1,0,0:0:0:0:
448,192,83007,1,0,0:0:0:0:
64,192,83089,1,0,0:0:0:0:
192,192,83089,1,0,0:0:0:0:
448,192,83170,1,0,0:0:0:0:
320,192,83170,1,0,0:0:0:0:
192,192,83334,1,0,0:0:0:0:
320,192,83497,1,0,0:0:0:0:
448,192,83497,1,0,0:0:0:0:
64,192,83497,1,0,0:0:0:0:
192,192,83661,1,0,0:0:0:0:
448,192,83824,1,0,0:0:0:0:
320,192,83824,1,0,0:0:0:0:
64,192,83987,1,0,0:0:0:0:
320,192,84151,1,0,0:0:0:0:
192,192,84151,1,0,0:0:0:0:
448,192,84314,1,0,0:0:0:0:
192,192,84478,1,0,0:0:0:0:
64,192,84478,1,0,0:0:0:0:
320,192,84559,1,0,0:0:0:0:
64,192,84641,1,0,0:0:0:0:
448,192,84641,1,0,0:0:0:0:
192,192,84723,1,0,0:0:0:0:
448,192,84804,1,0,0:0:0:0:
320,192,84804,1,0,0:0:0:0:
64,192,84886,1,0,0:0:0:0:
448,192,84968,1,0,0:0:0:0:
320,192,84968,1,0,0:0:0:0:
192,192,84968,1,0,0:0:0:0:
64,192,85050,1,0,0:0:0:0:
448,192,85131,1,0,0:0:0:0:
192,192,85131,1,0,0:0:0:0:
320,192,85213,1,0,0:0:0:0:
192,192,85295,1,0,0:0:0:0:
448,192,85295,1,0,0:0:0:0:
64,192,85295,1,0,0:0:0:0:
320,192,85376,1,0,0:0:0:0:
192,192,85458,1,0,0:0:0:0:
64,192,85458,1,0,0:0:0:0:
448,192,85540,1,0,0:0:0:0:
320,192,85621,1,0,0:0:0:0:
192,192,85621,1,0,0:0:0:0:
64,192,85621,1,0,0:0:0:0:
64,192,85703,1,0,0:0:0:0:
448,192,85785,1,0,0:0:0:0:
320,192,85785,1,0,0:0:0:0:
192,192,85785,1,0,0:0:0:0:
448,192,85867,1,0,0:0:0:0:
320,192,85948,1,0,0:0:0:0:
192,192,85948,1,0,0:0:0:0:
64,192,85948,1,0,0:0:0:0:
192,192,86030,1,0,0:0:0:0:
448,192,86112,1,0,0:0:0:0:
320,192,86112,1,0,0:0:0:0:
64,192,86112,1,0,0:0:0:0:
320,192,86193,1,0,0:0:0:0:
448,192,86275,1,0,0:0:0:0:
192,192,86275,1,0,0:0:0:0:
64,192,86275,1,0,0:0:0:0:
320,192,86357,1,0,0:0:0:0:
64,192,86438,1,0,0:0:0:0:
192,192,86438,1,0,0:0:0:0:
448,192,86520,1,0,0:0:0:0:
320,192,86602,1,0,0:0:0:0:
192,192,86602,1,0,0:0:0:0:
64,192,86602,1,0,0:0:0:0:
64,192,86684,1,0,0:0:0:0:
448,192,86765,1,0,0:0:0:0:
320,192,86765,1,0,0:0:0:0:
192,192,86765,1,0,0:0:0:0:
192,192,86847,1,0,0:0:0:0:
64,192,86929,1,0,0:0:0:0:
448,192,86929,1,0,0:0:0:0:
320,192,86929,1,0,0:0:0:0:
320,192,87010,1,0,0:0:0:0:
448,192,87092,1,0,0:0:0:0:
64,192,87092,1,0,0:0:0:0:
192,192,87092,1,0,0:0:0:0:
448,192,87174,1,0,0:0:0:0:
320,192,87255,1,0,0:0:0:0:
192,192,87255,1,0,0:0:0:0:
64,192,87337,1,0,0:0:0:0:
448,192,87419,1,0,0:0:0:0:
320,192,87419,1,0,0:0:0:0:
192,192,87501,1,0,0:0:0:0:
448,192,87582,1,0,0:0:0:0:
320,192,87582,1,0,0:0:0:0:
64,192,87582,1,0,0:0:0:0:
192,192,87664,1,0,0:0:0:0:
448,192,87746,1,0,0:0:0:0:
320,192,87746,1,0,0:0:0:0:
64,192,87746,1,0,0:0:0:0:
192,192,87827,1,0,0:0:0:0:
320,192,87909,1,0,0:0:0:0:
448,192,87909,1,0,0:0:0:0:
64,192,87991,1,0,0:0:0:0:
448,192,88072,1,0,0:0:0:0:
192,192,88072,1,0,0:0:0:0:
320,192,88154,1,0,0:0:0:0:
448,192,88236,1,0,0:0:0:0:
192,192,88236,1,0,0:0:0:0:
64,192,88236,1,0,0:0:0:0:
320,192,88318,1,0,0:0:0:0:
448,192,88399,1,0,0:0:0:0:
192,192,88399,1,0,0:0:0:0:
64,192,88399,1,0,0:0:0:0:
320,192,88481,1,0,0:0:0:0:
192,192,88563,1,0,0:0:0:0:
64,192,88563,1,0,0:0:0:0:
448,192,88644,1,0,0:0:0:0:
320,192,88726,1,0,0:0:0:0:
192,192,88726,1,0,0:0:0:0:
64,192,88726,1,0,0:0:0:0:
448,192,88808,1,0,0:0:0:0:
192,192,88889,1,0,0:0:0:0:
320,192,88889,1,0,0:0:0:0:
64,192,88889,1,0,0:0:0:0:
448,192,88971,1,0,0:0:0:0:
320,192,89053,1,0,0:0:0:0:
192,192,89053,1,0,0:0:0:0:
64,192,89134,1,0,0:0:0:0:
448,192,89216,1,0,0:0:0:0:
320,192,89216,1,0,0:0:0:0:
192,192,89216,1,0,0:0:0:0:
448,192,89298,1,0,0:0:0:0:
320,192,89380,1,0,0:0:0:0:
192,192,89380,1,0,0:0:0:0:
64,192,89380,1,0,0:0:0:0:
64,192,89461,1,0,0:0:0:0:
448,192,89543,1,0,0:0:0:0:
320,192,89543,1,0,0:0:0:0:
192,192,89543,1,0,0:0:0:0:
320,192,89625,1,0,0:0:0:0:
448,192,89706,1,0,0:0:0:0:
192,192,89706,1,0,0:0:0:0:
64,192,89706,1,0,0:0:0:0:
192,192,89788,1,0,0:0:0:0:
448,192,89870,1,0,0:0:0:0:
320,192,89870,1,0,0:0:0:0:
64,192,89951,1,0,0:0:0:0:
448,192,90033,1,0,0:0:0:0:
192,192,90033,1,0,0:0:0:0:
320,192,90115,1,0,0:0:0:0:
448,192,90197,1,0,0:0:0:0:
192,192,90197,1,0,0:0:0:0:
64,192,90197,1,0,0:0:0:0:
320,192,90278,1,0,0:0:0:0:
192,192,90360,1,0,0:0:0:0:
64,192,90360,1,0,0:0:0:0:
448,192,90442,1,0,0:0:0:0:
320,192,90523,1,0,0:0:0:0:
64,192,90523,1,0,0:0:0:0:
192,192,90605,1,0,0:0:0:0:
448,192,90687,1,0,0:0:0:0:
320,192,90687,1,0,0:0:0:0:
64,192,90687,1,0,0:0:0:0:
192,192,90768,1,0,0:0:0:0:
448,192,90850,1,0,0:0:0:0:
320,192,90850,1,0,0:0:0:0:
64,192,90932,1,0,0:0:0:0:
448,192,91014,1,0,0:0:0:0:
192,192,91014,1,0,0:0:0:0:
320,192,91014,1,0,0:0:0:0:
64,192,91095,1,0,0:0:0:0:
448,192,91177,1,0,0:0:0:0:
320,192,91177,1,0,0:0:0:0:
192,192,91259,1,0,0:0:0:0:
448,192,91340,1,0,0:0:0:0:
64,192,91340,1,0,0:0:0:0:
320,192,91422,1,0,0:0:0:0:
448,192,91504,1,0,0:0:0:0:
192,192,91504,1,0,0:0:0:0:
64,192,91504,1,0,0:0:0:0:
320,192,91585,1,0,0:0:0:0:
64,192,91667,1,0,0:0:0:0:
192,192,91667,1,0,0:0:0:0:
448,192,91749,1,0,0:0:0:0:
64,192,91831,1,0,0:0:0:0:
320,192,91831,1,0,0:0:0:0:
192,192,91912,1,0,0:0:0:0:
448,192,91994,1,0,0:0:0:0:
320,192,91994,1,0,0:0:0:0:
64,192,91994,1,0,0:0:0:0:
192,192,92076,1,0,0:0:0:0:
448,192,92157,1,0,0:0:0:0:
320,192,92157,1,0,0:0:0:0:
64,192,92239,1,0,0:0:0:0:
192,192,92321,1,0,0:0:0:0:
320,192,92321,1,0,0:0:0:0:
448,192,92321,1,0,0:0:0:0:
64,192,92402,1,0,0:0:0:0:
448,192,92484,1,0,0:0:0:0:
192,192,92484,1,0,0:0:0:0:
320,192,92566,1,0,0:0:0:0:
64,192,92648,1,0,0:0:0:0:
192,192,92648,1,0,0:0:0:0:
448,192,92729,1,0,0:0:0:0:
320,192,92811,1,0,0:0:0:0:
192,192,92811,1,0,0:0:0:0:
64,192,92811,1,0,0:0:0:0:
448,192,92893,1,0,0:0:0:0:
192,192,92974,1,0,0:0:0:0:
64,192,92974,1,0,0:0:0:0:
320,192,93056,1,0,0:0:0:0:
448,192,93138,1,0,0:0:0:0:
64,192,93138,1,0,0:0:0:0:
320,192,93219,1,0,0:0:0:0:
192,192,93301,1,0,0:0:0:0:
64,192,93301,1,0,0:0:0:0:
448,192,93383,1,0,0:0:0:0:
320,192,93383,1,0,0:0:0:0:
64,192,93465,1,0,0:0:0:0:
192,192,93465,1,0,0:0:0:0:
448,192,93546,1,0,0:0:0:0:
320,192,93546,1,0,0:0:0:0:
448,192,93628,1,0,0:0:0:0:
192,192,93628,1,0,0:0:0:0:
64,192,93628,1,0,0:0:0:0:
320,192,93791,1,0,0:0:0:0:
192,192,93955,5,0,0:0:0:0:
64,192,94118,1,0,0:0:0:0:
192,192,94282,1,0,0:0:0:0:
320,192,94445,1,0,0:0:0:0:
448,192,94608,1,0,0:0:0:0:
320,192,94772,1,0,0:0:0:0:
64,192,94935,5,0,0:0:0:0:
448,192,94935,1,0,0:0:0:0:
192,192,94935,1,0,0:0:0:0:
320,192,95017,1,0,0:0:0:0:
192,192,95017,1,0,0:0:0:0:
448,192,95099,1,0,0:0:0:0:
320,192,95099,1,0,0:0:0:0:
64,192,95099,1,0,0:0:0:0:
192,192,95180,1,0,0:0:0:0:
64,192,95180,1,0,0:0:0:0:
448,192,95262,1,0,0:0:0:0:
64,192,95262,1,0,0:0:0:0:
192,192,95262,1,0,0:0:0:0:
320,192,95262,1,0,0:0:0:0:
448,192,95344,1,0,0:0:0:0:
320,192,95344,1,0,0:0:0:0:
448,192,95425,1,0,0:0:0:0:
192,192,95425,1,0,0:0:0:0:
64,192,95425,1,0,0:0:0:0:
320,192,95507,1,0,0:0:0:0:
192,192,95507,1,0,0:0:0:0:
448,192,95589,1,0,0:0:0:0:
192,192,95589,1,0,0:0:0:0:
64,192,95589,1,0,0:0:0:0:
320,192,95589,1,0,0:0:0:0:
448,192,95670,1,0,0:0:0:0:
64,192,95670,1,0,0:0:0:0:
192,192,95752,1,0,0:0:0:0:
448,192,95752,1,0,0:0:0:0:
320,192,95752,1,0,0:0:0:0:
320,192,95834,1,0,0:0:0:0:
64,192,95834,1,0,0:0:0:0:
448,192,95916,1,0,0:0:0:0:
192,192,95916,1,0,0:0:0:0:
64,192,95916,1,0,0:0:0:0:
320,192,95997,1,0,0:0:0:0:
192,192,95997,1,0,0:0:0:0:
448,192,96079,1,0,0:0:0:0:
320,192,96079,1,0,0:0:0:0:
64,192,96079,1,0,0:0:0:0:
448,192,96161,1,0,0:0:0:0:
192,192,96161,1,0,0:0:0:0:
448,192,96242,1,0,0:0:0:0:
192,192,96242,1,0,0:0:0:0:
64,192,96242,1,0,0:0:0:0:
320,192,96242,1,0,0:0:0:0:
64,192,96324,1,0,0:0:0:0:
192,192,96324,1,0,0:0:0:0:
448,192,96406,1,0,0:0:0:0:
320,192,96406,1,0,0:0:0:0:
64,192,96406,1,0,0:0:0:0:
448,192,96487,1,0,0:0:0:0:
192,192,96487,1,0,0:0:0:0:
448,192,96569,1,0,0:0:0:0:
192,192,96569,1,0,0:0:0:0:
64,192,96569,1,0,0:0:0:0:
320,192,96569,1,0,0:0:0:0:
192,192,96651,1,0,0:0:0:0:
64,192,96651,1,0,0:0:0:0:
448,192,96733,1,0,0:0:0:0:
320,192,96733,1,0,0:0:0:0:
64,192,96733,1,0,0:0:0:0:
448,192,96814,1,0,0:0:0:0:
192,192,96814,1,0,0:0:0:0:
448,192,96896,1,0,0:0:0:0:
192,192,96896,1,0,0:0:0:0:
64,192,96896,1,0,0:0:0:0:
320,192,96896,1,0,0:0:0:0:
320,192,96978,1,0,0:0:0:0:
64,192,96978,1,0,0:0:0:0:
64,192,97059,1,0,0:0:0:0:
448,192,97059,1,0,0:0:0:0:
192,192,97059,1,0,0:0:0:0:
448,192,97141,1,0,0:0:0:0:
320,192,97141,1,0,0:0:0:0:
320,192,97223,1,0,0:0:0:0:
448,192,97223,1,0,0:0:0:0:
64,192,97223,1,0,0:0:0:0:
192,192,97223,1,0,0:0:0:0:
64,192,97304,1,0,0:0:0:0:
192,192,97304,1,0,0:0:0:0:
320,192,97386,1,0,0:0:0:0:
448,192,97386,1,0,0:0:0:0:
192,192,97386,1,0,0:0:0:0:
448,192,97468,1,0,0:0:0:0:
64,192,97468,1,0,0:0:0:0:
448,192,97550,1,0,0:0:0:0:
192,192,97550,1,0,0:0:0:0:
64,192,97550,1,0,0:0:0:0:
320,192,97550,1,0,0:0:0:0:
320,192,97631,1,0,0:0:0:0:
64,192,97631,1,0,0:0:0:0:
320,192,97713,1,0,0:0:0:0:
448,192,97713,1,0,0:0:0:0:
192,192,97713,1,0,0:0:0:0:
448,192,97795,1,0,0:0:0:0:
64,192,97795,1,0,0:0:0:0:
64,192,97876,1,0,0:0:0:0:
320,192,97876,1,0,0:0:0:0:
192,192,97876,1,0,0:0:0:0:
448,192,97958,1,0,0:0:0:0:
320,192,97958,1,0,0:0:0:0:
448,192,98040,1,0,0:0:0:0:
320,192,98040,1,0,0:0:0:0:
64,192,98040,1,0,0:0:0:0:
192,192,98040,1,0,0:0:0:0:
64,192,98121,1,0,0:0:0:0:
192,192,98121,1,0,0:0:0:0:
448,192,98203,1,0,0:0:0:0:
320,192,98203,1,0,0:0:0:0:
64,192,98203,1,0,0:0:0:0:
448,192,98285,1,0,0:0:0:0:
192,192,98285,1,0,0:0:0:0:
448,192,98367,1,0,0:0:0:0:
320,192,98367,1,0,0:0:0:0:
64,192,98367,1,0,0:0:0:0:
192,192,98448,1,0,0:0:0:0:
320,192,98448,1,0,0:0:0:0:
448,192,98530,1,0,0:0:0:0:
320,192,98530,1,0,0:0:0:0:
64,192,98530,1,0,0:0:0:0:
192,192,98530,1,0,0:0:0:0:
448,192,98612,1,0,0:0:0:0:
64,192,98612,1,0,0:0:0:0:
448,192,98693,1,0,0:0:0:0:
320,192,98693,1,0,0:0:0:0:
192,192,98693,1,0,0:0:0:0:
192,192,98775,1,0,0:0:0:0:
64,192,98775,1,0,0:0:0:0:
448,192,98857,1,0,0:0:0:0:
320,192,98857,1,0,0:0:0:0:
64,192,98857,1,0,0:0:0:0:
320,192,98938,1,0,0:0:0:0:
192,192,98938,1,0,0:0:0:0:
448,192,99020,1,0,0:0:0:0:
192,192,99020,1,0,0:0:0:0:
64,192,99020,1,0,0:0:0:0:
320,192,99102,1,0,0:0:0:0:
64,192,99102,1,0,0:0:0:0:
320,192,99184,1,0,0:0:0:0:
448,192,99184,1,0,0:0:0:0:
64,192,99184,1,0,0:0:0:0:
192,192,99184,1,0,0:0:0:0:
448,192,99265,1,0,0:0:0:0:
192,192,99265,1,0,0:0:0:0:
448,192,99347,1,0,0:0:0:0:
320,192,99347,1,0,0:0:0:0:
64,192,99347,1,0,0:0:0:0:
320,192,99429,1,0,0:0:0:0:
192,192,99429,1,0,0:0:0:0:
448,192,99510,1,0,0:0:0:0:
320,192,99510,1,0,0:0:0:0:
64,192,99510,1,0,0:0:0:0:
192,192,99510,1,0,0:0:0:0:
192,192,99592,1,0,0:0:0:0:
64,192,99592,1,0,0:0:0:0:
448,192,99674,1,0,0:0:0:0:
320,192,99674,1,0,0:0:0:0:
64,192,99674,1,0,0:0:0:0:
320,192,99755,1,0,0:0:0:0:
192,192,99755,1,0,0:0:0:0:
448,192,99837,1,0,0:0:0:0:
192,192,99837,1,0,0:0:0:0:
64,192,99837,1,0,0:0:0:0:
320,192,99919,1,0,0:0:0:0:
448,192,99919,1,0,0:0:0:0:
192,192,100001,1,0,0:0:0:0:
448,192,100001,1,0,0:0:0:0:
64,192,100001,1,0,0:0:0:0:
320,192,100001,1,0,0:0:0:0:
64,192,100082,1,0,0:0:0:0:
192,192,100082,1,0,0:0:0:0:
192,192,100164,1,0,0:0:0:0:
448,192,100164,1,0,0:0:0:0:
64,192,100164,1,0,0:0:0:0:
320,192,100164,1,0,0:0:0:0:
448,192,100246,1,0,0:0:0:0:
320,192,100246,1,0,0:0:0:0:
448,192,100327,1,0,0:0:0:0:
192,192,100327,1,0,0:0:0:0:
64,192,100327,1,0,0:0:0:0:
320,192,100409,1,0,0:0:0:0:
192,192,100409,1,0,0:0:0:0:
448,192,100491,1,0,0:0:0:0:
320,192,100491,1,0,0:0:0:0:
64,192,100491,1,0,0:0:0:0:
448,192,100572,1,0,0:0:0:0:
192,192,100572,1,0,0:0:0:0:
320,192,100654,1,0,0:0:0:0:
192,192,100654,1,0,0:0:0:0:
64,192,100654,1,0,0:0:0:0:
448,192,100736,1,0,0:0:0:0:
64,192,100736,1,0,0:0:0:0:
320,192,100817,1,0,0:0:0:0:
448,192,100817,1,0,0:0:0:0:
64,192,100817,1,0,0:0:0:0:
192,192,100817,1,0,0:0:0:0:
448,192,100899,1,0,0:0:0:0:
320,192,100899,1,0,0:0:0:0:
192,192,100981,1,0,0:0:0:0:
320,192,100981,1,0,0:0:0:0:
64,192,100981,1,0,0:0:0:0:
448,192,101063,1,0,0:0:0:0:
64,192,101063,1,0,0:0:0:0:
192,192,101144,1,0,0:0:0:0:
448,192,101144,1,0,0:0:0:0:
320,192,101144,1,0,0:0:0:0:
192,192,101226,1,0,0:0:0:0:
64,192,101226,1,0,0:0:0:0:
448,192,101308,1,0,0:0:0:0:
320,192,101308,1,0,0:0:0:0:
64,192,101308,1,0,0:0:0:0:
320,192,101389,1,0,0:0:0:0:
192,192,101389,1,0,0:0:0:0:
448,192,101471,1,0,0:0:0:0:
192,192,101471,1,0,0:0:0:0:
64,192,101471,1,0,0:0:0:0:
320,192,101471,1,0,0:0:0:0:
448,192,101553,1,0,0:0:0:0:
64,192,101553,1,0,0:0:0:0:
448,192,101634,1,0,0:0:0:0:
320,192,101634,1,0,0:0:0:0:
192,192,101634,1,0,0:0:0:0:
320,192,101716,1,0,0:0:0:0:
64,192,101716,1,0,0:0:0:0:
448,192,101798,1,0,0:0:0:0:
64,192,101798,1,0,0:0:0:0:
192,192,101798,1,0,0:0:0:0:
448,192,101880,1,0,0:0:0:0:
320,192,101880,1,0,0:0:0:0:
320,192,101961,1,0,0:0:0:0:
192,192,101961,1,0,0:0:0:0:
64,192,101961,1,0,0:0:0:0:
448,192,102043,1,0,0:0:0:0:
192,192,102043,1,0,0:0:0:0:
448,192,102125,1,0,0:0:0:0:
192,192,102125,1,0,0:0:0:0:
64,192,102125,1,0,0:0:0:0:
320,192,102125,1,0,0:0:0:0:
448,192,102206,1,0,0:0:0:0:
320,192,102206,1,0,0:0:0:0:
320,192,102288,1,0,0:0:0:0:
192,192,102288,1,0,0:0:0:0:
64,192,102288,1,0,0:0:0:0:
448,192,102370,1,0,0:0:0:0:
64,192,102370,1,0,0:0:0:0:
320,192,102451,1,0,0:0:0:0:
448,192,102451,1,0,0:0:0:0:
192,192,102451,1,0,0:0:0:0:
192,192,102533,1,0,0:0:0:0:
64,192,102533,1,0,0:0:0:0:
448,192,102615,1,0,0:0:0:0:
320,192,102615,1,0,0:0:0:0:
64,192,102615,1,0,0:0:0:0:
320,192,102697,1,0,0:0:0:0:
192,192,102697,1,0,0:0:0:0:
448,192,102778,1,0,0:0:0:0:
192,192,102778,1,0,0:0:0:0:
64,192,102778,1,0,0:0:0:0:
320,192,102778,1,0,0:0:0:0:
192,192,102860,1,0,0:0:0:0:
64,192,102860,1,0,0:0:0:0:
448,192,102942,1,0,0:0:0:0:
320,192,102942,1,0,0:0:0:0:
64,192,102942,1,0,0:0:0:0:
192,192,103023,1,0,0:0:0:0:
320,192,103023,1,0,0:0:0:0:
448,192,103105,1,0,0:0:0:0:
320,192,103105,1,0,0:0:0:0:
64,192,103105,1,0,0:0:0:0:
192,192,103105,1,0,0:0:0:0:
448,192,103187,1,0,0:0:0:0:
64,192,103187,1,0,0:0:0:0:
192,192,103268,1,0,0:0:0:0:
448,192,103268,1,0,0:0:0:0:
320,192,103268,1,0,0:0:0:0:
320,192,103350,1,0,0:0:0:0:
64,192,103350,1,0,0:0:0:0:
64,192,103432,1,0,0:0:0:0:
448,192,103432,1,0,0:0:0:0:
192,192,103432,1,0,0:0:0:0:
320,192,103514,1,0,0:0:0:0:
448,192,103514,1,0,0:0:0:0:
320,192,103595,1,0,0:0:0:0:
192,192,103595,1,0,0:0:0:0:
64,192,103595,1,0,0:0:0:0:
448,192,103677,1,0,0:0:0:0:
192,192,103677,1,0,0:0:0:0:
448,192,103759,1,0,0:0:0:0:
192,192,103759,1,0,0:0:0:0:
64,192,103759,1,0,0:0:0:0:
320,192,103759,1,0,0:0:0:0:
448,192,103840,1,0,0:0:0:0:
320,192,103840,1,0,0:0:0:0:
320,192,103922,1,0,0:0:0:0:
64,192,103922,1,0,0:0:0:0:
192,192,103922,1,0,0:0:0:0:
448,192,104004,1,0,0:0:0:0:
192,192,104004,1,0,0:0:0:0:
320,192,104085,1,0,0:0:0:0:
448,192,104085,1,0,0:0:0:0:
64,192,104085,1,0,0:0:0:0:
192,192,104085,1,0,0:0:0:0:
320,192,104167,1,0,0:0:0:0:
64,192,104167,1,0,0:0:0:0:
192,192,104249,1,0,0:0:0:0:
320,192,104249,1,0,0:0:0:0:
448,192,104249,1,0,0:0:0:0:
192,192,104331,1,0,0:0:0:0:
64,192,104331,1,0,0:0:0:0:
320,192,104412,1,0,0:0:0:0:
448,192,104412,1,0,0:0:0:0:
64,192,104412,1,0,0:0:0:0:
192,192,104412,1,0,0:0:0:0:
448,192,104494,1,0,0:0:0:0:
320,192,104494,1,0,0:0:0:0:
448,192,104576,1,0,0:0:0:0:
192,192,104576,1,0,0:0:0:0:
64,192,104576,1,0,0:0:0:0:
320,192,104657,1,0,0:0:0:0:
64,192,104657,1,0,0:0:0:0:
448,192,104739,1,0,0:0:0:0:
320,192,104739,1,0,0:0:0:0:
192,192,104739,1,0,0:0:0:0:
192,192,104821,1,0,0:0:0:0:
64,192,104821,1,0,0:0:0:0:
320,192,104902,1,0,0:0:0:0:
448,192,104902,1,0,0:0:0:0:
64,192,104902,1,0,0:0:0:0:
192,192,104902,1,0,0:0:0:0:
448,192,104984,1,0,0:0:0:0:
64,192,104984,1,0,0:0:0:0:
320,192,105066,1,0,0:0:0:0:
448,192,105066,1,0,0:0:0:0:
64,192,105066,1,0,0:0:0:0:
192,192,105066,1,0,0:0:0:0:
192,192,105148,1,0,0:0:0:0:
64,192,105148,1,0,0:0:0:0:
320,192,105229,1,0,0:0:0:0:
448,192,105229,1,0,0:0:0:0:
64,192,105229,1,0,0:0:0:0:
192,192,105229,1,0,0:0:0:0:
448,192,105311,1,0,0:0:0:0:
320,192,105311,1,0,0:0:0:0:
320,192,105393,1,0,0:0:0:0:
448,192,105393,1,0,0:0:0:0:
64,192,105393,1,0,0:0:0:0:
192,192,105393,1,0,0:0:0:0:
64,192,105474,1,0,0:0:0:0:
192,192,105474,1,0,0:0:0:0:
448,192,105556,1,0,0:0:0:0:
320,192,105556,1,0,0:0:0:0:
64,192,105556,1,0,0:0:0:0:
320,192,105638,1,0,0:0:0:0:
192,192,105638,1,0,0:0:0:0:
448,192,105719,1,0,0:0:0:0:
192,192,105719,1,0,0:0:0:0:
64,192,105719,1,0,0:0:0:0:
448,192,105801,1,0,0:0:0:0:
320,192,105801,1,0,0:0:0:0:
320,192,105883,1,0,0:0:0:0:
192,192,105883,1,0,0:0:0:0:
64,192,105883,1,0,0:0:0:0:
448,192,105965,1,0,0:0:0:0:
192,192,105965,1,0,0:0:0:0:
448,192,106046,1,0,0:0:0:0:
192,192,106046,1,0,0:0:0:0:
64,192,106046,1,0,0:0:0:0:
320,192,106046,1,0,0:0:0:0:
320,192,106128,1,0,0:0:0:0:
64,192,106128,1,0,0:0:0:0:
448,192,106210,1,0,0:0:0:0:
320,192,106210,1,0,0:0:0:0:
192,192,106210,1,0,0:0:0:0:
192,192,106291,1,0,0:0:0:0:
64,192,106291,1,0,0:0:0:0:
448,192,106373,1,0,0:0:0:0:
320,192,106373,1,0,0:0:0:0:
64,192,106373,1,0,0:0:0:0:
320,192,106455,1,0,0:0:0:0:
192,192,106455,1,0,0:0:0:0:
192,192,106536,1,0,0:0:0:0:
64,192,106536,1,0,0:0:0:0:
448,192,106536,1,0,0:0:0:0:
448,192,106618,1,0,0:0:0:0:
320,192,106618,1,0,0:0:0:0:
320,192,106700,1,0,0:0:0:0:
448,192,106700,1,0,0:0:0:0:
64,192,106700,1,0,0:0:0:0:
192,192,106700,1,0,0:0:0:0:
64,192,106782,1,0,0:0:0:0:
192,192,106782,1,0,0:0:0:0:
448,192,106863,1,0,0:0:0:0:
320,192,106863,1,0,0:0:0:0:
64,192,106863,1,0,0:0:0:0:
320,192,106945,1,0,0:0:0:0:
192,192,106945,1,0,0:0:0:0:
320,192,107027,1,0,0:0:0:0:
448,192,107027,1,0,0:0:0:0:
64,192,107027,1,0,0:0:0:0:
192,192,107027,1,0,0:0:0:0:
192,192,107108,1,0,0:0:0:0:
64,192,107108,1,0,0:0:0:0:
448,192,107190,1,0,0:0:0:0:
320,192,107190,1,0,0:0:0:0:
64,192,107190,1,0,0:0:0:0:
320,192,107272,1,0,0:0:0:0:
192,192,107272,1,0,0:0:0:0:
448,192,107353,1,0,0:0:0:0:
192,192,107353,1,0,0:0:0:0:
64,192,107353,1,0,0:0:0:0:
320,192,107353,1,0,0:0:0:0:
448,192,107435,1,0,0:0:0:0:
192,192,107435,1,0,0:0:0:0:
448,192,107517,1,0,0:0:0:0:
320,192,107517,1,0,0:0:0:0:
64,192,107517,1,0,0:0:0:0:
64,192,107599,1,0,0:0:0:0:
192,192,107599,1,0,0:0:0:0:
64,192,107680,1,0,0:0:0:0:
192,192,107680,1,0,0:0:0:0:
320,192,107680,1,0,0:0:0:0:
448,192,107680,1,0,0:0:0:0:
448,192,107762,1,0,0:0:0:0:
320,192,107762,1,0,0:0:0:0:
448,192,107844,1,0,0:0:0:0:
192,192,107844,1,0,0:0:0:0:
64,192,107844,1,0,0:0:0:0:
320,192,107925,1,0,0:0:0:0:
192,192,107925,1,0,0:0:0:0:
448,192,108007,1,0,0:0:0:0:
192,192,108007,1,0,0:0:0:0:
64,192,108007,1,0,0:0:0:0:
320,192,108007,1,0,0:0:0:0:
448,192,108089,1,0,0:0:0:0:
64,192,108089,1,0,0:0:0:0:
448,192,108170,1,0,0:0:0:0:
320,192,108170,1,0,0:0:0:0:
192,192,108170,1,0,0:0:0:0:
320,192,108252,1,0,0:0:0:0:
64,192,108252,1,0,0:0:0:0:
320,192,108334,1,0,0:0:0:0:
448,192,108334,1,0,0:0:0:0:
192,192,108334,1,0,0:0:0:0:
192,192,108416,1,0,0:0:0:0:
64,192,108416,1,0,0:0:0:0:
320,192,108497,1,0,0:0:0:0:
448,192,108497,1,0,0:0:0:0:
64,192,108497,1,0,0:0:0:0:
192,192,108497,1,0,0:0:0:0:
448,192,108579,1,0,0:0:0:0:
320,192,108579,1,0,0:0:0:0:
192,192,108661,1,0,0:0:0:0:
448,192,108661,1,0,0:0:0:0:
64,192,108661,1,0,0:0:0:0:
320,192,108742,1,0,0:0:0:0:
192,192,108742,1,0,0:0:0:0:
448,192,108824,1,0,0:0:0:0:
320,192,108824,1,0,0:0:0:0:
64,192,108824,1,0,0:0:0:0:
64,192,108906,1,0,0:0:0:0:
192,192,108906,1,0,0:0:0:0:
320,192,108987,1,0,0:0:0:0:
448,192,108987,1,0,0:0:0:0:
64,192,108987,1,0,0:0:0:0:
192,192,108987,1,0,0:0:0:0:
448,192,109069,1,0,0:0:0:0:
320,192,109069,1,0,0:0:0:0:
448,192,109151,1,0,0:0:0:0:
192,192,109151,1,0,0:0:0:0:
64,192,109151,1,0,0:0:0:0:
192,192,109233,1,0,0:0:0:0:
320,192,109233,1,0,0:0:0:0:
448,192,109314,1,0,0:0:0:0:
320,192,109314,1,0,0:0:0:0:
64,192,109314,1,0,0:0:0:0:
448,192,109396,1,0,0:0:0:0:
192,192,109396,1,0,0:0:0:0:
320,192,109478,1,0,0:0:0:0:
192,192,109478,1,0,0:0:0:0:
64,192,109478,1,0,0:0:0:0:
320,192,109559,1,0,0:0:0:0:
448,192,109559,1,0,0:0:0:0:
320,192,109641,1,0,0:0:0:0:
448,192,109641,1,0,0:0:0:0:
64,192,109641,1,0,0:0:0:0:
192,192,109641,1,0,0:0:0:0:
192,192,109723,1,0,0:0:0:0:
64,192,109723,1,0,0:0:0:0:
448,192,109804,1,0,0:0:0:0:
320,192,109804,1,0,0:0:0:0:
64,192,109804,1,0,0:0:0:0:
320,192,109886,1,0,0:0:0:0:
192,192,109886,1,0,0:0:0:0:
448,192,109968,1,0,0:0:0:0:
320,192,109968,1,0,0:0:0:0:
64,192,109968,1,0,0:0:0:0:
192,192,109968,1,0,0:0:0:0:
64,192,110050,1,0,0:0:0:0:
192,192,110050,1,0,0:0:0:0:
448,192,110131,1,0,0:0:0:0:
320,192,110131,1,0,0:0:0:0:
64,192,110131,1,0,0:0:0:0:
320,192,110213,1,0,0:0:0:0:
192,192,110213,1,0,0:0:0:0:
320,192,110295,1,0,0:0:0:0:
448,192,110295,1,0,0:0:0:0:
64,192,110295,1,0,0:0:0:0:
192,192,110295,1,0,0:0:0:0:
448,192,110376,1,0,0:0:0:0:
192,192,110376,1,0,0:0:0:0:
448,192,110458,1,0,0:0:0:0:
320,192,110458,1,0,0:0:0:0:
64,192,110458,1,0,0:0:0:0:
64,192,110540,1,0,0:0:0:0:
192,192,110540,1,0,0:0:0:0:
320,192,110621,1,0,0:0:0:0:
448,192,110621,1,0,0:0:0:0:
64,192,110621,1,0,0:0:0:0:
192,192,110621,1,0,0:0:0:0:
448,192,110703,1,0,0:0:0:0:
64,192,110785,1,0,0:0:0:0:
192,192,110785,1,0,0:0:0:0:
320,192,110867,1,0,0:0:0:0:
448,192,110948,1,0,0:0:0:0:
64,192,110948,1,0,0:0:0:0:
192,192,111030,1,0,0:0:0:0:
320,192,111112,1,0,0:0:0:0:
448,192,111112,1,0,0:0:0:0:
64,192,111193,1,0,0:0:0:0:
320,192,111275,1,0,0:0:0:0:
448,192,111275,1,0,0:0:0:0:
192,192,111275,1,0,0:0:0:0:
64,192,111357,1,0,0:0:0:0:
448,192,111438,1,0,0:0:0:0:
192,192,111438,1,0,0:0:0:0:
320,192,111520,1,0,0:0:0:0:
64,192,111602,1,0,0:0:0:0:
192,192,111602,1,0,0:0:0:0:
448,192,111684,1,0,0:0:0:0:
64,192,111765,1,0,0:0:0:0:
320,192,111765,1,0,0:0:0:0:
192,192,111847,1,0,0:0:0:0:
64,192,111929,1,0,0:0:0:0:
448,192,111929,1,0,0:0:0:0:
320,192,111929,1,0,0:0:0:0:
192,192,112010,1,0,0:0:0:0:
448,192,112092,1,0,0:0:0:0:
320,192,112092,1,0,0:0:0:0:
64,192,112174,1,0,0:0:0:0:
448,192,112255,1,0,0:0:0:0:
192,192,112255,1,0,0:0:0:0:
320,192,112337,1,0,0:0:0:0:
64,192,112419,1,0,0:0:0:0:
192,192,112419,1,0,0:0:0:0:
448,192,112501,1,0,0:0:0:0:
64,192,112582,1,0,0:0:0:0:
192,192,112582,1,0,0:0:0:0:
320,192,112582,1,0,0:0:0:0:
448,192,112664,1,0,0:0:0:0:
64,192,112746,1,0,0:0:0:0:
320,192,112746,1,0,0:0:0:0:
192,192,112827,1,0,0:0:0:0:
448,192,112909,1,0,0:0:0:0:
320,192,112909,1,0,0:0:0:0:
192,192,112991,1,0,0:0:0:0:
64,192,112991,1,0,0:0:0:0:
320,192,113072,1,0,0:0:0:0:
448,192,113072,1,0,0:0:0:0:
64,192,113154,1,0,0:0:0:0:
192,192,113154,1,0,0:0:0:0:
448,192,113236,1,0,0:0:0:0:
320,192,113236,1,0,0:0:0:0:
64,192,113236,1,0,0:0:0:0:
320,192,113317,1,0,0:0:0:0:
192,192,113317,1,0,0:0:0:0:
448,192,113399,1,0,0:0:0:0:
192,192,113399,1,0,0:0:0:0:
64,192,113399,1,0,0:0:0:0:
448,192,113481,1,0,0:0:0:0:
320,192,113481,1,0,0:0:0:0:
320,192,113563,1,0,0:0:0:0:
192,192,113563,1,0,0:0:0:0:
64,192,113563,1,0,0:0:0:0:
448,192,113644,1,0,0:0:0:0:
64,192,113644,1,0,0:0:0:0:
64,192,113726,1,0,0:0:0:0:
448,192,113726,1,0,0:0:0:0:
320,192,113726,1,0,0:0:0:0:
192,192,113726,1,0,0:0:0:0:
448,192,113808,1,0,0:0:0:0:
320,192,113808,1,0,0:0:0:0:
320,192,113889,1,0,0:0:0:0:
192,192,113889,1,0,0:0:0:0:
64,192,113889,1,0,0:0:0:0:
448,192,113971,1,0,0:0:0:0:
64,192,113971,1,0,0:0:0:0:
192,192,114053,1,0,0:0:0:0:
448,192,114053,1,0,0:0:0:0:
320,192,114053,1,0,0:0:0:0:
192,192,114134,1,0,0:0:0:0:
64,192,114134,1,0,0:0:0:0:
320,192,114216,1,0,0:0:0:0:
448,192,114216,1,0,0:0:0:0:
64,192,114216,1,0,0:0:0:0:
192,192,114216,1,0,0:0:0:0:
448,192,114298,1,0,0:0:0:0:
320,192,114298,1,0,0:0:0:0:
448,192,114380,1,0,0:0:0:0:
192,192,114380,1,0,0:0:0:0:
64,192,114380,1,0,0:0:0:0:
192,192,114461,1,0,0:0:0:0:
320,192,114461,1,0,0:0:0:0:
320,192,114543,1,0,0:0:0:0:
448,192,114543,1,0,0:0:0:0:
64,192,114543,1,0,0:0:0:0:
192,192,114543,1,0,0:0:0:0:
64,192,114870,1,0,0:0:0:0:
192,192,115197,1,0,0:0:0:0:
320,192,115523,1,0,0:0:0:0:
64,192,115850,1,0,0:0:0:0:
192,192,115850,1,0,0:0:0:0:
448,192,115850,1,0,0:0:0:0:
320,192,116014,1,0,0:0:0:0:
192,192,116177,1,0,0:0:0:0:
448,192,116504,1,0,0:0:0:0:
320,192,116504,1,0,0:0:0:0:
64,192,116504,1,0,0:0:0:0:
320,192,117157,1,0,0:0:0:0:
192,192,117157,1,0,0:0:0:0:
64,192,117157,1,0,0:0:0:0:
448,192,117484,1,0,0:0:0:0:
320,192,117484,1,0,0:0:0:0:
64,192,117484,1,0,0:0:0:0:
320,192,117811,1,0,0:0:0:0:
192,192,117811,1,0,0:0:0:0:
448,192,117811,1,0,0:0:0:0:
64,192,118138,1,0,0:0:0:0:
192,192,118138,1,0,0:0:0:0:
448,192,118138,1,0,0:0:0:0:
448,192,118465,1,0,0:0:0:0:
320,192,118465,1,0,0:0:0:0:
64,192,118465,1,0,0:0:0:0:
192,192,118628,1,0,0:0:0:0:
320,192,118791,1,0,0:0:0:0:
448,192,118955,1,0,0:0:0:0:
64,192,118955,1,0,0:0:0:0:
192,192,118955,1,0,0:0:0:0:
192,192,119772,1,0,0:0:0:0:
448,192,119772,1,0,0:0:0:0:
192,192,119935,1,0,0:0:0:0:
64,192,119935,1,0,0:0:0:0:
448,192,120099,1,0,0:0:0:0:
320,192,120099,1,0,0:0:0:0:
64,192,120099,1,0,0:0:0:0:
320,192,120262,1,0,0:0:0:0:
192,192,120262,1,0,0:0:0:0:
64,192,120425,1,0,0:0:0:0:
448,192,120425,1,0,0:0:0:0:
192,192,120425,1,0,0:0:0:0:
448,192,120589,1,0,0:0:0:0:
320,192,120589,1,0,0:0:0:0:
64,192,120752,1,0,0:0:0:0:
192,192,120752,1,0,0:0:0:0:
448,192,120916,1,0,0:0:0:0:
320,192,120916,1,0,0:0:0:0:
448,192,121079,1,0,0:0:0:0:
192,192,121079,1,0,0:0:0:0:
64,192,121079,1,0,0:0:0:0:
320,192,121242,1,0,0:0:0:0:
192,192,121406,1,0,0:0:0:0:
64,192,121733,1,0,0:0:0:0:
448,192,121733,1,0,0:0:0:0:
320,192,121733,1,0,0:0:0:0:
448,192,122386,1,0,0:0:0:0:
320,192,122386,1,0,0:0:0:0:
64,192,122386,1,0,0:0:0:0:
192,192,122550,1,0,0:0:0:0:
320,192,122713,1,0,0:0:0:0:
448,192,123040,1,0,0:0:0:0:
192,192,123040,1,0,0:0:0:0:
64,192,123040,1,0,0:0:0:0:
448,192,123693,1,0,0:0:0:0:
192,192,123693,1,0,0:0:0:0:
