osu file format v14

[General]
AudioFilename: audio105.mp3
AudioLeadIn: 0
PreviewTime: 84258
Countdown: 1
SampleSet: Soft
StackLeniency: 0.7
Mode: 3
LetterboxInBreaks: 0
SpecialStyle: 0
WidescreenStoryboard: 0

[Editor]
DistanceSpacing: 0.8
BeatDivisor: 4
GridSize: 8
TimelineZoom: 1.8

[Metadata]
Title:The Truth Never Spoken
TitleUnicode:The Truth Never Spoken
Artist:3R2
ArtistUnicode:3R2
Creator:[Crz]Rachel
Version:Empty Pages 1.05x
Source:Rabi-Ribi
Tags:Noah Video Game Electronic Instrumental OST Original Soundtrack ラビ-リビ ラビリビ RabiRibi CreSpirit Kevin Tseng 曾鎧維 CUSA-08233
BeatmapID:3211370
BeatmapSetID:808948

[Difficulty]
HPDrainRate:8
CircleSize:4
OverallDifficulty:8
ApproachRate:5
SliderMultiplier:1.4
SliderTickRate:1

[Events]
//Background and Video events
0,0,"noah.png",0,0
//Break Periods
//Storyboard Layer 0 (Background)
//Storyboard Layer 1 (Fail)
//Storyboard Layer 2 (Pass)
//Storyboard Layer 3 (Foreground)
//Storyboard Layer 4 (Overlay)
//Storyboard Sound Samples

[TimingPoints]
931,373.482726423903,4,2,0,0,1,0

[HitObjects]
64,192,931,5,0,0:0:0:0:
448,192,931,1,0,0:0:0:0:
192,192,1117,1,0,0:0:0:0:
320,192,1304,1,0,0:0:0:0:
64,192,1677,1,0,0:0:0:0:
192,192,1677,1,0,0:0:0:0:
64,192,2424,1,0,0:0:0:0:
448,192,2424,1,0,0:0:0:0:
320,192,2424,1,0,0:0:0:0:
192,192,2611,1,0,0:0:0:0:
448,192,2798,1,0,0:0:0:0:
320,192,2798,1,0,0:0:0:0:
448,192,3171,1,0,0:0:0:0:
192,192,3171,1,0,0:0:0:0:
64,192,3171,1,0,0:0:0:0:
448,192,3545,1,0,0:0:0:0:
320,192,3545,1,0,0:0:0:0:
64,192,3545,1,0,0:0:0:0:
448,192,3918,1,0,0:0:0:0:
64,192,3918,1,0,0:0:0:0:
320,192,4105,1,0,0:0:0:0:
192,192,4292,1,0,0:0:0:0:
448,192,4479,1,0,0:0:0:0:
320,192,4479,1,0,0:0:0:0:
64,192,4479,1,0,0:0:0:0:
448,192,5412,1,0,0:0:0:0:
192,192,5412,1,0,0:0:0:0:
64,192,5412,1,0,0:0:0:0:
320,192,5599,1,0,0:0:0:0:
192,192,5599,1,0,0:0:0:0:
448,192,5786,1,0,0:0:0:0:
320,192,5786,1,0,0:0:0:0:
64,192,5786,1,0,0:0:0:0:
448,192,5973,1,0,0:0:0:0:
192,192,5973,1,0,0:0:0:0:
64,192,6159,1,0,0:0:0:0:
320,192,6159,1,0,0:0:0:0:
192,192,6159,1,0,0:0:0:0:
64,192,6346,1,0,0:0:0:0:
448,192,6346,1,0,0:0:0:0:
448,192,6533,1,0,0:0:0:0:
192,192,6533,1,0,0:0:0:0:
320,192,6719,1,0,0:0:0:0:
192,192,6719,1,0,0:0:0:0:
448,192,6906,1,0,0:0:0:0:
320,192,6906,1,0,0:0:0:0:
64,192,6906,1,0,0:0:0:0:
192,192,7093,1,0,0:0:0:0:
320,192,7280,1,0,0:0:0:0:
448,192,7653,1,0,0:0:0:0:
192,192,7653,1,0,0:0:0:0:
64,192,7653,1,0,0:0:0:0:
448,192,8400,1,0,0:0:0:0:
192,192,8400,1,0,0:0:0:0:
64,192,8400,1,0,0:0:0:0:
320,192,8587,1,0,0:0:0:0:
64,192,8774,1,0,0:0:0:0:
192,192,8774,1,0,0:0:0:0:
64,192,9147,1,0,0:0:0:0:
448,192,9147,1,0,0:0:0:0:
320,192,9147,1,0,0:0:0:0:
448,192,9894,1,0,0:0:0:0:
64,192,9894,1,0,0:0:0:0:
192,192,10081,1,0,0:0:0:0:
320,192,10268,1,0,0:0:0:0:
448,192,10454,1,0,0:0:0:0:
192,192,10454,1,0,0:0:0:0:
64,192,10454,1,0,0:0:0:0:
448,192,11015,1,0,0:0:0:0:
320,192,11015,1,0,0:0:0:0:
64,192,11015,1,0,0:0:0:0:
448,192,11388,1,0,0:0:0:0:
64,192,11388,1,0,0:0:0:0:
192,192,11575,1,0,0:0:0:0:
320,192,11761,1,0,0:0:0:0:
448,192,12135,1,0,0:0:0:0:
192,192,12135,1,0,0:0:0:0:
64,192,12135,1,0,0:0:0:0:
448,192,12508,1,0,0:0:0:0:
320,192,12555,1,0,0:0:0:0:
192,192,12602,1,0,0:0:0:0:
64,192,12649,1,0,0:0:0:0:
448,192,12695,1,0,0:0:0:0:
320,192,12742,1,0,0:0:0:0:
192,192,12789,1,0,0:0:0:0:
64,192,12835,1,0,0:0:0:0:
448,192,12882,1,0,0:0:0:0:
320,192,12882,1,0,0:0:0:0:
192,192,13069,1,0,0:0:0:0:
448,192,13255,1,0,0:0:0:0:
320,192,13255,1,0,0:0:0:0:
64,192,13255,1,0,0:0:0:0:
448,192,13629,1,0,0:0:0:0:
192,192,13629,1,0,0:0:0:0:
64,192,13629,1,0,0:0:0:0:
320,192,14376,1,0,0:0:0:0:
192,192,14376,1,0,0:0:0:0:
64,192,14376,1,0,0:0:0:0:
448,192,14749,1,0,0:0:0:0:
320,192,14749,1,0,0:0:0:0:
64,192,14749,1,0,0:0:0:0:
448,192,15123,1,0,0:0:0:0:
320,192,15123,1,0,0:0:0:0:
192,192,15123,1,0,0:0:0:0:
448,192,15496,1,0,0:0:0:0:
192,192,15496,1,0,0:0:0:0:
64,192,15496,1,0,0:0:0:0:
448,192,15870,1,0,0:0:0:0:
320,192,15870,1,0,0:0:0:0:
64,192,15870,1,0,0:0:0:0:
192,192,16057,1,0,0:0:0:0:
320,192,16243,1,0,0:0:0:0:
448,192,16430,1,0,0:0:0:0:
64,192,16430,1,0,0:0:0:0:
192,192,16430,1,0,0:0:0:0:
448,192,17364,1,0,0:0:0:0:
192,192,17364,1,0,0:0:0:0:
64,192,17364,1,0,0:0:0:0:
320,192,17550,1,0,0:0:0:0:
192,192,17550,1,0,0:0:0:0:
320,192,17737,1,0,0:0:0:0:
64,192,17737,1,0,0:0:0:0:
448,192,17924,1,0,0:0:0:0:
64,192,17924,1,0,0:0:0:0:
320,192,18111,1,0,0:0:0:0:
448,192,18111,1,0,0:0:0:0:
192,192,18111,1,0,0:0:0:0:
320,192,18297,1,0,0:0:0:0:
448,192,18297,1,0,0:0:0:0:
64,192,18297,1,0,0:0:0:0:
320,192,18484,1,0,0:0:0:0:
192,192,18484,1,0,0:0:0:0:
64,192,18484,1,0,0:0:0:0:
64,192,18671,1,0,0:0:0:0:
448,192,18671,1,0,0:0:0:0:
192,192,18671,1,0,0:0:0:0:
64,192,18858,1,0,0:0:0:0:
448,192,18858,1,0,0:0:0:0:
320,192,18858,1,0,0:0:0:0:
192,192,19044,1,0,0:0:0:0:
320,192,19231,1,0,0:0:0:0:
448,192,19605,1,0,0:0:0:0:
192,192,19605,1,0,0:0:0:0:
64,192,19605,1,0,0:0:0:0:
448,192,20352,1,0,0:0:0:0:
64,192,20352,1,0,0:0:0:0:
320,192,20538,1,0,0:0:0:0:
192,192,20725,1,0,0:0:0:0:
448,192,21099,1,0,0:0:0:0:
320,192,21099,1,0,0:0:0:0:
64,192,21099,1,0,0:0:0:0:
448,192,21846,1,0,0:0:0:0:
64,192,21846,1,0,0:0:0:0:
320,192,22032,1,0,0:0:0:0:
192,192,22219,1,0,0:0:0:0:
448,192,22406,1,0,0:0:0:0:
320,192,22406,1,0,0:0:0:0:
64,192,22406,1,0,0:0:0:0:
448,192,22966,1,0,0:0:0:0:
320,192,22966,1,0,0:0:0:0:
192,192,22966,1,0,0:0:0:0:
448,192,23339,1,0,0:0:0:0:
192,192,23339,1,0,0:0:0:0:
64,192,23339,1,0,0:0:0:0:
64,192,23713,1,0,0:0:0:0:
192,192,23900,1,0,0:0:0:0:
448,192,24273,1,0,0:0:0:0:
320,192,24273,1,0,0:0:0:0:
64,192,24273,1,0,0:0:0:0:
192,192,24460,1,0,0:0:0:0:
448,192,24647,1,0,0:0:0:0:
320,192,24647,1,0,0:0:0:0:
448,192,24833,1,0,0:0:0:0:
192,192,24833,1,0,0:0:0:0:
64,192,24833,1,0,0:0:0:0:
320,192,24927,1,0,0:0:0:0:
64,192,25020,1,0,0:0:0:0:
192,192,25020,1,0,0:0:0:0:
448,192,25114,1,0,0:0:0:0:
192,192,25207,1,0,0:0:0:0:
320,192,25207,1,0,0:0:0:0:
64,192,25207,1,0,0:0:0:0:
448,192,25300,1,0,0:0:0:0:
320,192,25394,1,0,0:0:0:0:
192,192,25394,1,0,0:0:0:0:
64,192,25487,1,0,0:0:0:0:
320,192,25580,1,0,0:0:0:0:
448,192,25580,1,0,0:0:0:0:
192,192,25580,1,0,0:0:0:0:
64,192,25674,1,0,0:0:0:0:
320,192,25767,1,0,0:0:0:0:
448,192,25767,1,0,0:0:0:0:
192,192,25860,1,0,0:0:0:0:
64,192,25954,1,0,0:0:0:0:
448,192,25954,1,0,0:0:0:0:
320,192,25954,1,0,0:0:0:0:
192,192,26047,1,0,0:0:0:0:
448,192,26141,1,0,0:0:0:0:
320,192,26141,1,0,0:0:0:0:
64,192,26234,1,0,0:0:0:0:
320,192,26327,1,0,0:0:0:0:
448,192,26327,1,0,0:0:0:0:
192,192,26327,1,0,0:0:0:0:
64,192,26421,1,0,0:0:0:0:
448,192,26514,1,0,0:0:0:0:
320,192,26514,1,0,0:0:0:0:
192,192,26607,1,0,0:0:0:0:
448,192,26701,1,0,0:0:0:0:
320,192,26701,1,0,0:0:0:0:
64,192,26701,1,0,0:0:0:0:
192,192,26794,1,0,0:0:0:0:
448,192,26888,1,0,0:0:0:0:
64,192,26888,1,0,0:0:0:0:
320,192,26981,1,0,0:0:0:0:
64,192,27074,1,0,0:0:0:0:
448,192,27074,1,0,0:0:0:0:
192,192,27074,1,0,0:0:0:0:
320,192,27168,1,0,0:0:0:0:
192,192,27261,1,0,0:0:0:0:
64,192,27261,1,0,0:0:0:0:
448,192,27354,1,0,0:0:0:0:
192,192,27448,1,0,0:0:0:0:
320,192,27448,1,0,0:0:0:0:
64,192,27448,1,0,0:0:0:0:
448,192,27541,1,0,0:0:0:0:
320,192,27635,1,0,0:0:0:0:
64,192,27635,1,0,0:0:0:0:
192,192,27728,1,0,0:0:0:0:
448,192,27821,1,0,0:0:0:0:
320,192,27821,1,0,0:0:0:0:
64,192,27821,1,0,0:0:0:0:
192,192,27915,1,0,0:0:0:0:
448,192,28008,1,0,0:0:0:0:
320,192,28008,1,0,0:0:0:0:
64,192,28101,1,0,0:0:0:0:
448,192,28195,1,0,0:0:0:0:
192,192,28195,1,0,0:0:0:0:
320,192,28288,1,0,0:0:0:0:
448,192,28381,1,0,0:0:0:0:
64,192,28381,1,0,0:0:0:0:
192,192,28381,1,0,0:0:0:0:
320,192,28475,1,0,0:0:0:0:
192,192,28568,1,0,0:0:0:0:
64,192,28568,1,0,0:0:0:0:
448,192,28662,1,0,0:0:0:0:
320,192,28755,1,0,0:0:0:0:
64,192,28755,1,0,0:0:0:0:
192,192,28848,1,0,0:0:0:0:
448,192,28942,1,0,0:0:0:0:
320,192,28942,1,0,0:0:0:0:
64,192,28942,1,0,0:0:0:0:
192,192,29035,1,0,0:0:0:0:
448,192,29128,1,0,0:0:0:0:
320,192,29128,1,0,0:0:0:0:
64,192,29222,1,0,0:0:0:0:
448,192,29315,1,0,0:0:0:0:
192,192,29315,1,0,0:0:0:0:
320,192,29409,1,0,0:0:0:0:
192,192,29502,1,0,0:0:0:0:
64,192,29502,1,0,0:0:0:0:
448,192,29502,1,0,0:0:0:0:
448,192,29595,1,0,0:0:0:0:
192,192,29689,1,0,0:0:0:0:
320,192,29689,1,0,0:0:0:0:
64,192,29689,1,0,0:0:0:0:
64,192,29782,1,0,0:0:0:0:
448,192,29875,1,0,0:0:0:0:
320,192,29875,1,0,0:0:0:0:
192,192,29875,1,0,0:0:0:0:
320,192,29969,1,0,0:0:0:0:
64,192,30062,1,0,0:0:0:0:
448,192,30062,1,0,0:0:0:0:
192,192,30062,1,0,0:0:0:0:
192,192,30156,1,0,0:0:0:0:
448,192,30249,1,0,0:0:0:0:
64,192,30249,1,0,0:0:0:0:
320,192,30249,1,0,0:0:0:0:
448,192,30342,1,0,0:0:0:0:
320,192,30436,1,0,0:0:0:0:
192,192,30436,1,0,0:0:0:0:
64,192,30436,1,0,0:0:0:0:
192,192,30529,1,0,0:0:0:0:
320,192,30622,1,0,0:0:0:0:
448,192,30622,1,0,0:0:0:0:
64,192,30622,1,0,0:0:0:0:
320,192,30716,1,0,0:0:0:0:
448,192,30809,1,0,0:0:0:0:
192,192,30809,1,0,0:0:0:0:
64,192,30809,1,0,0:0:0:0:
64,192,30902,1,0,0:0:0:0:
448,192,30996,1,0,0:0:0:0:
320,192,30996,1,0,0:0:0:0:
64,192,31089,1,0,0:0:0:0:
448,192,31183,1,0,0:0:0:0:
320,192,31183,1,0,0:0:0:0:
192,192,31183,1,0,0:0:0:0:
64,192,31276,1,0,0:0:0:0:
448,192,31369,1,0,0:0:0:0:
192,192,31369,1,0,0:0:0:0:
320,192,31463,1,0,0:0:0:0:
448,192,31556,1,0,0:0:0:0:
64,192,31556,1,0,0:0:0:0:
192,192,31556,1,0,0:0:0:0:
320,192,31649,1,0,0:0:0:0:
192,192,31743,1,0,0:0:0:0:
64,192,31743,1,0,0:0:0:0:
448,192,31836,1,0,0:0:0:0:
192,192,31930,1,0,0:0:0:0:
320,192,31930,1,0,0:0:0:0:
64,192,31930,1,0,0:0:0:0:
448,192,32023,1,0,0:0:0:0:
320,192,32116,1,0,0:0:0:0:
64,192,32116,1,0,0:0:0:0:
192,192,32210,1,0,0:0:0:0:
64,192,32303,1,0,0:0:0:0:
448,192,32303,1,0,0:0:0:0:
320,192,32303,1,0,0:0:0:0:
192,192,32396,1,0,0:0:0:0:
448,192,32490,1,0,0:0:0:0:
320,192,32490,1,0,0:0:0:0:
64,192,32583,1,0,0:0:0:0:
320,192,32677,1,0,0:0:0:0:
448,192,32677,1,0,0:0:0:0:
192,192,32677,1,0,0:0:0:0:
64,192,32770,1,0,0:0:0:0:
448,192,32863,1,0,0:0:0:0:
192,192,32863,1,0,0:0:0:0:
320,192,32957,1,0,0:0:0:0:
448,192,33050,1,0,0:0:0:0:
64,192,33050,1,0,0:0:0:0:
192,192,33050,1,0,0:0:0:0:
320,192,33143,1,0,0:0:0:0:
64,192,33237,1,0,0:0:0:0:
192,192,33237,1,0,0:0:0:0:
448,192,33330,1,0,0:0:0:0:
320,192,33423,1,0,0:0:0:0:
64,192,33423,1,0,0:0:0:0:
192,192,33517,1,0,0:0:0:0:
448,192,33610,1,0,0:0:0:0:
64,192,33610,1,0,0:0:0:0:
320,192,33704,1,0,0:0:0:0:
448,192,33797,1,0,0:0:0:0:
192,192,33797,1,0,0:0:0:0:
64,192,33797,1,0,0:0:0:0:
192,192,33890,1,0,0:0:0:0:
448,192,33984,1,0,0:0:0:0:
320,192,33984,1,0,0:0:0:0:
64,192,33984,1,0,0:0:0:0:
448,192,34077,1,0,0:0:0:0:
320,192,34170,1,0,0:0:0:0:
192,192,34170,1,0,0:0:0:0:
64,192,34170,1,0,0:0:0:0:
64,192,34264,1,0,0:0:0:0:
448,192,34357,1,0,0:0:0:0:
320,192,34357,1,0,0:0:0:0:
192,192,34357,1,0,0:0:0:0:
320,192,34451,1,0,0:0:0:0:
448,192,34544,1,0,0:0:0:0:
192,192,34544,1,0,0:0:0:0:
64,192,34544,1,0,0:0:0:0:
320,192,34637,1,0,0:0:0:0:
192,192,34637,1,0,0:0:0:0:
448,192,34731,1,0,0:0:0:0:
320,192,34731,1,0,0:0:0:0:
64,192,34731,1,0,0:0:0:0:
448,192,34824,1,0,0:0:0:0:
192,192,34824,1,0,0:0:0:0:
192,192,34917,1,0,0:0:0:0:
64,192,34917,1,0,0:0:0:0:
448,192,35011,1,0,0:0:0:0:
320,192,35011,1,0,0:0:0:0:
64,192,35104,1,0,0:0:0:0:
192,192,35104,1,0,0:0:0:0:
448,192,35198,1,0,0:0:0:0:
320,192,35198,1,0,0:0:0:0:
192,192,35291,1,0,0:0:0:0:
64,192,35291,128,0,36038:0:0:0:0:
320,192,36038,1,0,0:0:0:0:
448,192,36038,128,0,36785:0:0:0:0:
192,192,36225,1,0,0:0:0:0:
320,192,36505,1,0,0:0:0:0:
320,192,36785,1,0,0:0:0:0:
64,192,36785,1,0,0:0:0:0:
192,192,36785,1,0,0:0:0:0:
64,192,36878,1,0,0:0:0:0:
192,192,36878,1,0,0:0:0:0:
448,192,36972,1,0,0:0:0:0:
64,192,36972,1,0,0:0:0:0:
320,192,36972,1,0,0:0:0:0:
192,192,37065,1,0,0:0:0:0:
448,192,37065,1,0,0:0:0:0:
192,192,37158,1,0,0:0:0:0:
320,192,37158,1,0,0:0:0:0:
64,192,37158,1,0,0:0:0:0:
448,192,37252,1,0,0:0:0:0:
320,192,37252,1,0,0:0:0:0:
448,192,37345,1,0,0:0:0:0:
192,192,37345,1,0,0:0:0:0:
64,192,37345,1,0,0:0:0:0:
320,192,37438,1,0,0:0:0:0:
192,192,37438,1,0,0:0:0:0:
448,192,37532,1,0,0:0:0:0:
320,192,37532,1,0,0:0:0:0:
64,192,37532,1,0,0:0:0:0:
192,192,37625,1,0,0:0:0:0:
64,192,37625,1,0,0:0:0:0:
448,192,37719,1,0,0:0:0:0:
320,192,37719,1,0,0:0:0:0:
192,192,37719,1,0,0:0:0:0:
320,192,37812,1,0,0:0:0:0:
64,192,37812,1,0,0:0:0:0:
64,192,37905,1,0,0:0:0:0:
448,192,37905,1,0,0:0:0:0:
192,192,37905,1,0,0:0:0:0:
448,192,37999,1,0,0:0:0:0:
320,192,37999,1,0,0:0:0:0:
64,192,38092,1,0,0:0:0:0:
320,192,38092,1,0,0:0:0:0:
192,192,38092,1,0,0:0:0:0:
448,192,38185,1,0,0:0:0:0:
192,192,38185,1,0,0:0:0:0:
448,192,38279,1,0,0:0:0:0:
320,192,38279,1,0,0:0:0:0:
64,192,38279,1,0,0:0:0:0:
320,192,38372,1,0,0:0:0:0:
192,192,38372,1,0,0:0:0:0:
448,192,38466,1,0,0:0:0:0:
192,192,38466,1,0,0:0:0:0:
64,192,38466,1,0,0:0:0:0:
320,192,38559,1,0,0:0:0:0:
64,192,38559,1,0,0:0:0:0:
448,192,38652,1,0,0:0:0:0:
320,192,38652,1,0,0:0:0:0:
192,192,38652,1,0,0:0:0:0:
448,192,38746,1,0,0:0:0:0:
64,192,38746,1,0,0:0:0:0:
64,192,38839,1,0,0:0:0:0:
320,192,38839,1,0,0:0:0:0:
192,192,38839,1,0,0:0:0:0:
448,192,38932,1,0,0:0:0:0:
320,192,38932,1,0,0:0:0:0:
448,192,39026,1,0,0:0:0:0:
192,192,39026,1,0,0:0:0:0:
64,192,39026,1,0,0:0:0:0:
320,192,39119,1,0,0:0:0:0:
192,192,39119,1,0,0:0:0:0:
448,192,39212,1,0,0:0:0:0:
320,192,39212,1,0,0:0:0:0:
64,192,39212,1,0,0:0:0:0:
448,192,39306,1,0,0:0:0:0:
192,192,39306,1,0,0:0:0:0:
320,192,39399,1,0,0:0:0:0:
192,192,39399,1,0,0:0:0:0:
64,192,39399,1,0,0:0:0:0:
448,192,39493,1,0,0:0:0:0:
64,192,39493,1,0,0:0:0:0:
448,192,39586,1,0,0:0:0:0:
320,192,39586,1,0,0:0:0:0:
192,192,39586,1,0,0:0:0:0:
320,192,39679,1,0,0:0:0:0:
64,192,39679,1,0,0:0:0:0:
448,192,39773,1,0,0:0:0:0:
192,192,39773,1,0,0:0:0:0:
64,192,39773,1,0,0:0:0:0:
448,192,39866,1,0,0:0:0:0:
320,192,39866,1,0,0:0:0:0:
320,192,39959,1,0,0:0:0:0:
192,192,39959,1,0,0:0:0:0:
64,192,39959,1,0,0:0:0:0:
448,192,40053,1,0,0:0:0:0:
192,192,40053,1,0,0:0:0:0:
448,192,40146,1,0,0:0:0:0:
320,192,40146,1,0,0:0:0:0:
64,192,40146,1,0,0:0:0:0:
320,192,40240,1,0,0:0:0:0:
192,192,40240,1,0,0:0:0:0:
192,192,40333,1,0,0:0:0:0:
448,192,40333,1,0,0:0:0:0:
64,192,40333,1,0,0:0:0:0:
320,192,40426,1,0,0:0:0:0:
64,192,40426,1,0,0:0:0:0:
448,192,40520,1,0,0:0:0:0:
320,192,40520,1,0,0:0:0:0:
192,192,40520,1,0,0:0:0:0:
448,192,40613,1,0,0:0:0:0:
64,192,40613,1,0,0:0:0:0:
64,192,40706,1,0,0:0:0:0:
320,192,40706,1,0,0:0:0:0:
192,192,40706,1,0,0:0:0:0:
448,192,40800,1,0,0:0:0:0:
192,192,40800,1,0,0:0:0:0:
64,192,40893,1,0,0:0:0:0:
448,192,40893,1,0,0:0:0:0:
320,192,40893,1,0,0:0:0:0:
64,192,40987,1,0,0:0:0:0:
192,192,40987,1,0,0:0:0:0:
448,192,41080,1,0,0:0:0:0:
320,192,41080,1,0,0:0:0:0:
192,192,41080,1,0,0:0:0:0:
320,192,41173,1,0,0:0:0:0:
64,192,41173,1,0,0:0:0:0:
64,192,41267,1,0,0:0:0:0:
192,192,41267,1,0,0:0:0:0:
448,192,41267,1,0,0:0:0:0:
320,192,41360,1,0,0:0:0:0:
192,192,41360,1,0,0:0:0:0:
64,192,41453,1,0,0:0:0:0:
448,192,41453,1,0,0:0:0:0:
320,192,41453,1,0,0:0:0:0:
192,192,41547,1,0,0:0:0:0:
64,192,41547,1,0,0:0:0:0:
448,192,41640,1,0,0:0:0:0:
320,192,41640,1,0,0:0:0:0:
192,192,41640,1,0,0:0:0:0:
448,192,41733,1,0,0:0:0:0:
64,192,41733,1,0,0:0:0:0:
320,192,41827,1,0,0:0:0:0:
192,192,41827,1,0,0:0:0:0:
64,192,41827,1,0,0:0:0:0:
448,192,41920,1,0,0:0:0:0:
192,192,41920,1,0,0:0:0:0:
64,192,42014,1,0,0:0:0:0:
448,192,42014,1,0,0:0:0:0:
320,192,42014,1,0,0:0:0:0:
320,192,42107,1,0,0:0:0:0:
192,192,42107,1,0,0:0:0:0:
448,192,42200,1,0,0:0:0:0:
192,192,42200,1,0,0:0:0:0:
64,192,42200,1,0,0:0:0:0:
448,192,42294,1,0,0:0:0:0:
320,192,42294,1,0,0:0:0:0:
192,192,42387,1,0,0:0:0:0:
320,192,42387,1,0,0:0:0:0:
64,192,42387,1,0,0:0:0:0:
448,192,42480,1,0,0:0:0:0:
64,192,42480,1,0,0:0:0:0:
448,192,42574,1,0,0:0:0:0:
320,192,42574,1,0,0:0:0:0:
192,192,42574,1,0,0:0:0:0:
192,192,42667,1,0,0:0:0:0:
64,192,42667,1,0,0:0:0:0:
320,192,42761,1,0,0:0:0:0:
448,192,42761,1,0,0:0:0:0:
64,192,42761,1,0,0:0:0:0:
192,192,42761,1,0,0:0:0:0:
448,192,42854,1,0,0:0:0:0:
320,192,42854,1,0,0:0:0:0:
448,192,42947,1,0,0:0:0:0:
192,192,42947,1,0,0:0:0:0:
64,192,42947,1,0,0:0:0:0:
320,192,43041,1,0,0:0:0:0:
192,192,43041,1,0,0:0:0:0:
448,192,43134,1,0,0:0:0:0:
320,192,43134,1,0,0:0:0:0:
64,192,43134,1,0,0:0:0:0:
192,192,43227,1,0,0:0:0:0:
64,192,43227,1,0,0:0:0:0:
448,192,43321,1,0,0:0:0:0:
320,192,43321,1,0,0:0:0:0:
192,192,43321,1,0,0:0:0:0:
448,192,43414,1,0,0:0:0:0:
64,192,43414,1,0,0:0:0:0:
64,192,43508,1,0,0:0:0:0:
192,192,43508,1,0,0:0:0:0:
320,192,43508,1,0,0:0:0:0:
448,192,43601,1,0,0:0:0:0:
192,192,43601,1,0,0:0:0:0:
448,192,43694,1,0,0:0:0:0:
320,192,43694,1,0,0:0:0:0:
64,192,43694,1,0,0:0:0:0:
320,192,43788,1,0,0:0:0:0:
192,192,43788,1,0,0:0:0:0:
448,192,43881,1,0,0:0:0:0:
192,192,43881,1,0,0:0:0:0:
64,192,43881,1,0,0:0:0:0:
64,192,43974,1,0,0:0:0:0:
320,192,43974,1,0,0:0:0:0:
448,192,44068,1,0,0:0:0:0:
320,192,44068,1,0,0:0:0:0:
192,192,44068,1,0,0:0:0:0:
448,192,44161,1,0,0:0:0:0:
64,192,44161,1,0,0:0:0:0:
64,192,44254,1,0,0:0:0:0:
192,192,44254,1,0,0:0:0:0:
320,192,44254,1,0,0:0:0:0:
448,192,44348,1,0,0:0:0:0:
320,192,44348,1,0,0:0:0:0:
448,192,44441,1,0,0:0:0:0:
192,192,44441,1,0,0:0:0:0:
64,192,44441,1,0,0:0:0:0:
320,192,44535,1,0,0:0:0:0:
192,192,44535,1,0,0:0:0:0:
448,192,44628,1,0,0:0:0:0:
320,192,44628,1,0,0:0:0:0:
64,192,44628,1,0,0:0:0:0:
448,192,44721,1,0,0:0:0:0:
192,192,44721,1,0,0:0:0:0:
64,192,44815,1,0,0:0:0:0:
192,192,44815,1,0,0:0:0:0:
320,192,44815,1,0,0:0:0:0:
448,192,44908,1,0,0:0:0:0:
64,192,44908,1,0,0:0:0:0:
448,192,45001,1,0,0:0:0:0:
320,192,45001,1,0,0:0:0:0:
192,192,45001,1,0,0:0:0:0:
192,192,45095,1,0,0:0:0:0:
64,192,45095,1,0,0:0:0:0:
448,192,45188,1,0,0:0:0:0:
320,192,45188,1,0,0:0:0:0:
64,192,45188,1,0,0:0:0:0:
320,192,45282,1,0,0:0:0:0:
192,192,45282,1,0,0:0:0:0:
64,192,45375,1,0,0:0:0:0:
448,192,45375,1,0,0:0:0:0:
192,192,45375,1,0,0:0:0:0:
448,192,45468,1,0,0:0:0:0:
320,192,45468,1,0,0:0:0:0:
320,192,45562,1,0,0:0:0:0:
192,192,45562,1,0,0:0:0:0:
64,192,45562,1,0,0:0:0:0:
448,192,45655,1,0,0:0:0:0:
192,192,45655,1,0,0:0:0:0:
448,192,45748,1,0,0:0:0:0:
320,192,45748,1,0,0:0:0:0:
64,192,45748,1,0,0:0:0:0:
320,192,45842,1,0,0:0:0:0:
192,192,45842,1,0,0:0:0:0:
448,192,45935,1,0,0:0:0:0:
192,192,45935,1,0,0:0:0:0:
64,192,45935,1,0,0:0:0:0:
64,192,46029,1,0,0:0:0:0:
320,192,46029,1,0,0:0:0:0:
448,192,46122,1,0,0:0:0:0:
320,192,46122,1,0,0:0:0:0:
192,192,46122,1,0,0:0:0:0:
448,192,46215,1,0,0:0:0:0:
64,192,46215,1,0,0:0:0:0:
64,192,46309,1,0,0:0:0:0:
192,192,46309,1,0,0:0:0:0:
320,192,46309,1,0,0:0:0:0:
448,192,46402,1,0,0:0:0:0:
192,192,46402,1,0,0:0:0:0:
448,192,46495,1,0,0:0:0:0:
64,192,46495,1,0,0:0:0:0:
320,192,46495,1,0,0:0:0:0:
320,192,46589,1,0,0:0:0:0:
192,192,46589,1,0,0:0:0:0:
448,192,46682,1,0,0:0:0:0:
64,192,46682,1,0,0:0:0:0:
192,192,46682,1,0,0:0:0:0:
320,192,46776,1,0,0:0:0:0:
64,192,46776,1,0,0:0:0:0:
448,192,46869,1,0,0:0:0:0:
320,192,46869,1,0,0:0:0:0:
192,192,46869,1,0,0:0:0:0:
448,192,46962,1,0,0:0:0:0:
64,192,46962,1,0,0:0:0:0:
64,192,47056,1,0,0:0:0:0:
192,192,47056,1,0,0:0:0:0:
320,192,47056,1,0,0:0:0:0:
448,192,47149,1,0,0:0:0:0:
192,192,47149,1,0,0:0:0:0:
192,192,47242,1,0,0:0:0:0:
64,192,47242,1,0,0:0:0:0:
320,192,47242,1,0,0:0:0:0:
448,192,47242,1,0,0:0:0:0:
320,192,47336,1,0,0:0:0:0:
64,192,47429,1,0,0:0:0:0:
448,192,47429,1,0,0:0:0:0:
192,192,47522,1,0,0:0:0:0:
448,192,47616,1,0,0:0:0:0:
64,192,47616,1,0,0:0:0:0:
320,192,47616,1,0,0:0:0:0:
448,192,47709,1,0,0:0:0:0:
192,192,47709,1,0,0:0:0:0:
64,192,47709,1,0,0:0:0:0:
192,192,47803,1,0,0:0:0:0:
64,192,47803,1,0,0:0:0:0:
320,192,47896,1,0,0:0:0:0:
448,192,47896,1,0,0:0:0:0:
64,192,47989,1,0,0:0:0:0:
192,192,47989,1,0,0:0:0:0:
320,192,48083,1,0,0:0:0:0:
448,192,48176,1,0,0:0:0:0:
192,192,48176,1,0,0:0:0:0:
64,192,48176,1,0,0:0:0:0:
320,192,48269,1,0,0:0:0:0:
192,192,48269,1,0,0:0:0:0:
448,192,48363,1,0,0:0:0:0:
320,192,48363,1,0,0:0:0:0:
64,192,48363,1,0,0:0:0:0:
448,192,48456,1,0,0:0:0:0:
192,192,48456,1,0,0:0:0:0:
320,192,48550,1,0,0:0:0:0:
192,192,48550,1,0,0:0:0:0:
64,192,48550,1,0,0:0:0:0:
448,192,48643,1,0,0:0:0:0:
320,192,48643,1,0,0:0:0:0:
448,192,48736,1,0,0:0:0:0:
64,192,48736,1,0,0:0:0:0:
320,192,48736,1,0,0:0:0:0:
192,192,48736,1,0,0:0:0:0:
64,192,48830,1,0,0:0:0:0:
192,192,48830,1,0,0:0:0:0:
320,192,48923,1,0,0:0:0:0:
448,192,48923,1,0,0:0:0:0:
192,192,48923,1,0,0:0:0:0:
320,192,49016,1,0,0:0:0:0:
64,192,49016,1,0,0:0:0:0:
320,192,49110,1,0,0:0:0:0:
448,192,49110,1,0,0:0:0:0:
64,192,49110,1,0,0:0:0:0:
192,192,49110,1,0,0:0:0:0:
448,192,49203,1,0,0:0:0:0:
192,192,49203,1,0,0:0:0:0:
192,192,49297,1,0,0:0:0:0:
320,192,49297,1,0,0:0:0:0:
64,192,49297,1,0,0:0:0:0:
448,192,49390,1,0,0:0:0:0:
320,192,49390,1,0,0:0:0:0:
448,192,49483,1,0,0:0:0:0:
192,192,49483,1,0,0:0:0:0:
64,192,49483,1,0,0:0:0:0:
320,192,49577,1,0,0:0:0:0:
192,192,49577,1,0,0:0:0:0:
448,192,49670,1,0,0:0:0:0:
320,192,49670,1,0,0:0:0:0:
64,192,49670,1,0,0:0:0:0:
448,192,49763,1,0,0:0:0:0:
192,192,49763,1,0,0:0:0:0:
448,192,49857,1,0,0:0:0:0:
192,192,49857,1,0,0:0:0:0:
64,192,49857,1,0,0:0:0:0:
320,192,49857,1,0,0:0:0:0:
192,192,49950,1,0,0:0:0:0:
64,192,49950,1,0,0:0:0:0:
448,192,50043,1,0,0:0:0:0:
320,192,50043,1,0,0:0:0:0:
64,192,50043,1,0,0:0:0:0:
448,192,50137,1,0,0:0:0:0:
192,192,50137,1,0,0:0:0:0:
64,192,50230,1,0,0:0:0:0:
192,192,50230,1,0,0:0:0:0:
320,192,50230,1,0,0:0:0:0:
448,192,50324,1,0,0:0:0:0:
64,192,50324,1,0,0:0:0:0:
320,192,50417,1,0,0:0:0:0:
448,192,50417,1,0,0:0:0:0:
192,192,50417,1,0,0:0:0:0:
192,192,50510,1,0,0:0:0:0:
64,192,50510,1,0,0:0:0:0:
320,192,50604,1,0,0:0:0:0:
448,192,50604,1,0,0:0:0:0:
64,192,50604,1,0,0:0:0:0:
192,192,50604,1,0,0:0:0:0:
448,192,50697,1,0,0:0:0:0:
320,192,50697,1,0,0:0:0:0:
448,192,50790,1,0,0:0:0:0:
192,192,50790,1,0,0:0:0:0:
64,192,50790,1,0,0:0:0:0:
320,192,50884,1,0,0:0:0:0:
192,192,50884,1,0,0:0:0:0:
448,192,50977,1,0,0:0:0:0:
192,192,50977,1,0,0:0:0:0:
64,192,50977,1,0,0:0:0:0:
320,192,51071,1,0,0:0:0:0:
64,192,51071,1,0,0:0:0:0:
448,192,51164,1,0,0:0:0:0:
320,192,51164,1,0,0:0:0:0:
192,192,51164,1,0,0:0:0:0:
192,192,51257,1,0,0:0:0:0:
64,192,51257,1,0,0:0:0:0:
320,192,51351,1,0,0:0:0:0:
448,192,51351,1,0,0:0:0:0:
64,192,51351,1,0,0:0:0:0:
192,192,51351,1,0,0:0:0:0:
448,192,51444,1,0,0:0:0:0:
320,192,51444,1,0,0:0:0:0:
448,192,51537,1,0,0:0:0:0:
192,192,51537,1,0,0:0:0:0:
64,192,51537,1,0,0:0:0:0:
320,192,51631,1,0,0:0:0:0:
64,192,51631,1,0,0:0:0:0:
448,192,51724,1,0,0:0:0:0:
320,192,51724,1,0,0:0:0:0:
192,192,51724,1,0,0:0:0:0:
448,192,51818,1,0,0:0:0:0:
64,192,51818,1,0,0:0:0:0:
320,192,51911,1,0,0:0:0:0:
192,192,51911,1,0,0:0:0:0:
64,192,51911,1,0,0:0:0:0:
448,192,52004,1,0,0:0:0:0:
192,192,52004,1,0,0:0:0:0:
320,192,52098,1,0,0:0:0:0:
448,192,52098,1,0,0:0:0:0:
64,192,52098,1,0,0:0:0:0:
192,192,52098,1,0,0:0:0:0:
320,192,52191,1,0,0:0:0:0:
448,192,52191,1,0,0:0:0:0:
320,192,52284,1,0,0:0:0:0:
192,192,52284,1,0,0:0:0:0:
64,192,52284,1,0,0:0:0:0:
448,192,52378,1,0,0:0:0:0:
192,192,52378,1,0,0:0:0:0:
448,192,52471,1,0,0:0:0:0:
320,192,52471,1,0,0:0:0:0:
64,192,52471,1,0,0:0:0:0:
320,192,52564,1,0,0:0:0:0:
192,192,52564,1,0,0:0:0:0:
448,192,52658,1,0,0:0:0:0:
192,192,52658,1,0,0:0:0:0:
64,192,52658,1,0,0:0:0:0:
448,192,52751,1,0,0:0:0:0:
320,192,52751,1,0,0:0:0:0:
320,192,52845,1,0,0:0:0:0:
448,192,52845,1,0,0:0:0:0:
64,192,52845,1,0,0:0:0:0:
192,192,52845,1,0,0:0:0:0:
64,192,52938,1,0,0:0:0:0:
192,192,52938,1,0,0:0:0:0:
448,192,53031,1,0,0:0:0:0:
320,192,53031,1,0,0:0:0:0:
64,192,53031,1,0,0:0:0:0:
320,192,53125,1,0,0:0:0:0:
192,192,53125,1,0,0:0:0:0:
192,192,53218,1,0,0:0:0:0:
448,192,53218,1,0,0:0:0:0:
64,192,53218,1,0,0:0:0:0:
448,192,53311,1,0,0:0:0:0:
320,192,53311,1,0,0:0:0:0:
320,192,53405,1,0,0:0:0:0:
192,192,53405,1,0,0:0:0:0:
64,192,53405,1,0,0:0:0:0:
448,192,53498,1,0,0:0:0:0:
192,192,53498,1,0,0:0:0:0:
448,192,53592,1,0,0:0:0:0:
192,192,53592,1,0,0:0:0:0:
64,192,53592,1,0,0:0:0:0:
320,192,53592,1,0,0:0:0:0:
320,192,53685,1,0,0:0:0:0:
64,192,53685,1,0,0:0:0:0:
64,192,53778,1,0,0:0:0:0:
448,192,53778,1,0,0:0:0:0:
192,192,53778,1,0,0:0:0:0:
320,192,53872,1,0,0:0:0:0:
192,192,53872,1,0,0:0:0:0:
64,192,53965,1,0,0:0:0:0:
448,192,53965,1,0,0:0:0:0:
320,192,53965,1,0,0:0:0:0:
192,192,54058,1,0,0:0:0:0:
64,192,54058,1,0,0:0:0:0:
448,192,54152,1,0,0:0:0:0:
320,192,54152,1,0,0:0:0:0:
192,192,54152,1,0,0:0:0:0:
448,192,54245,1,0,0:0:0:0:
64,192,54245,1,0,0:0:0:0:
320,192,54339,1,0,0:0:0:0:
448,192,54339,1,0,0:0:0:0:
64,192,54339,1,0,0:0:0:0:
192,192,54339,1,0,0:0:0:0:
320,192,54432,1,0,0:0:0:0:
192,192,54432,1,0,0:0:0:0:
448,192,54525,1,0,0:0:0:0:
320,192,54525,1,0,0:0:0:0:
64,192,54525,1,0,0:0:0:0:
448,192,54619,1,0,0:0:0:0:
192,192,54619,1,0,0:0:0:0:
192,192,54712,1,0,0:0:0:0:
320,192,54712,1,0,0:0:0:0:
64,192,54712,1,0,0:0:0:0:
448,192,54805,1,0,0:0:0:0:
320,192,54805,1,0,0:0:0:0:
448,192,54899,1,0,0:0:0:0:
192,192,54899,1,0,0:0:0:0:
64,192,54899,1,0,0:0:0:0:
320,192,54992,1,0,0:0:0:0:
192,192,54992,1,0,0:0:0:0:
448,192,55085,1,0,0:0:0:0:
192,192,55085,1,0,0:0:0:0:
64,192,55085,1,0,0:0:0:0:
320,192,55085,1,0,0:0:0:0:
448,192,55179,1,0,0:0:0:0:
64,192,55179,1,0,0:0:0:0:
448,192,55272,1,0,0:0:0:0:
320,192,55272,1,0,0:0:0:0:
192,192,55272,1,0,0:0:0:0:
192,192,55366,1,0,0:0:0:0:
64,192,55366,1,0,0:0:0:0:
448,192,55459,1,0,0:0:0:0:
320,192,55459,1,0,0:0:0:0:
64,192,55459,1,0,0:0:0:0:
320,192,55552,1,0,0:0:0:0:
192,192,55552,1,0,0:0:0:0:
64,192,55646,1,0,0:0:0:0:
448,192,55646,1,0,0:0:0:0:
192,192,55646,1,0,0:0:0:0:
448,192,55739,1,0,0:0:0:0:
320,192,55739,1,0,0:0:0:0:
320,192,55832,1,0,0:0:0:0:
192,192,55832,1,0,0:0:0:0:
64,192,55832,1,0,0:0:0:0:
448,192,55832,1,0,0:0:0:0:
192,192,55926,1,0,0:0:0:0:
64,192,55926,1,0,0:0:0:0:
320,192,56019,1,0,0:0:0:0:
448,192,56019,1,0,0:0:0:0:
64,192,56019,1,0,0:0:0:0:
320,192,56113,1,0,0:0:0:0:
192,192,56113,1,0,0:0:0:0:
448,192,56206,1,0,0:0:0:0:
192,192,56206,1,0,0:0:0:0:
64,192,56206,1,0,0:0:0:0:
448,192,56299,1,0,0:0:0:0:
320,192,56299,1,0,0:0:0:0:
320,192,56393,1,0,0:0:0:0:
192,192,56393,1,0,0:0:0:0:
64,192,56393,1,0,0:0:0:0:
448,192,56486,1,0,0:0:0:0:
192,192,56486,1,0,0:0:0:0:
448,192,56579,1,0,0:0:0:0:
192,192,56579,1,0,0:0:0:0:
64,192,56579,1,0,0:0:0:0:
320,192,56579,1,0,0:0:0:0:
320,192,56673,1,0,0:0:0:0:
64,192,56673,1,0,0:0:0:0:
448,192,56766,1,0,0:0:0:0:
192,192,56766,1,0,0:0:0:0:
64,192,56766,1,0,0:0:0:0:
192,192,56860,1,0,0:0:0:0:
320,192,56860,1,0,0:0:0:0:
64,192,56953,1,0,0:0:0:0:
448,192,56953,1,0,0:0:0:0:
320,192,56953,1,0,0:0:0:0:
192,192,57046,1,0,0:0:0:0:
64,192,57046,1,0,0:0:0:0:
448,192,57140,1,0,0:0:0:0:
320,192,57140,1,0,0:0:0:0:
192,192,57140,1,0,0:0:0:0:
320,192,57233,1,0,0:0:0:0:
64,192,57233,1,0,0:0:0:0:
320,192,57326,1,0,0:0:0:0:
448,192,57326,1,0,0:0:0:0:
64,192,57326,1,0,0:0:0:0:
192,192,57326,1,0,0:0:0:0:
448,192,57420,1,0,0:0:0:0:
192,192,57420,1,0,0:0:0:0:
448,192,57513,1,0,0:0:0:0:
320,192,57513,1,0,0:0:0:0:
64,192,57513,1,0,0:0:0:0:
320,192,57607,1,0,0:0:0:0:
192,192,57607,1,0,0:0:0:0:
192,192,57700,1,0,0:0:0:0:
448,192,57700,1,0,0:0:0:0:
64,192,57700,1,0,0:0:0:0:
320,192,57793,1,0,0:0:0:0:
64,192,57793,1,0,0:0:0:0:
320,192,57887,1,0,0:0:0:0:
448,192,57887,1,0,0:0:0:0:
192,192,57887,1,0,0:0:0:0:
448,192,57980,1,0,0:0:0:0:
64,192,57980,1,0,0:0:0:0:
320,192,58073,1,0,0:0:0:0:
448,192,58073,1,0,0:0:0:0:
64,192,58073,1,0,0:0:0:0:
192,192,58073,1,0,0:0:0:0:
320,192,58167,1,0,0:0:0:0:
192,192,58167,1,0,0:0:0:0:
448,192,58260,1,0,0:0:0:0:
192,192,58260,1,0,0:0:0:0:
64,192,58260,1,0,0:0:0:0:
448,192,58353,1,0,0:0:0:0:
320,192,58353,1,0,0:0:0:0:
192,192,58447,1,0,0:0:0:0:
320,192,58447,1,0,0:0:0:0:
64,192,58447,1,0,0:0:0:0:
448,192,58540,1,0,0:0:0:0:
64,192,58540,1,0,0:0:0:0:
448,192,58634,1,0,0:0:0:0:
320,192,58634,1,0,0:0:0:0:
192,192,58634,1,0,0:0:0:0:
192,192,58727,1,0,0:0:0:0:
64,192,58727,1,0,0:0:0:0:
320,192,58820,1,0,0:0:0:0:
448,192,58820,1,0,0:0:0:0:
64,192,58820,1,0,0:0:0:0:
192,192,58820,1,0,0:0:0:0:
448,192,58914,1,0,0:0:0:0:
320,192,58914,1,0,0:0:0:0:
448,192,59007,1,0,0:0:0:0:
192,192,59007,1,0,0:0:0:0:
64,192,59007,1,0,0:0:0:0:
64,192,59100,1,0,0:0:0:0:
192,192,59100,1,0,0:0:0:0:
448,192,59194,1,0,0:0:0:0:
320,192,59194,1,0,0:0:0:0:
64,192,59194,1,0,0:0:0:0:
192,192,59287,1,0,0:0:0:0:
448,192,59381,1,0,0:0:0:0:
320,192,59381,1,0,0:0:0:0:
64,192,59474,1,0,0:0:0:0:
192,192,59567,1,0,0:0:0:0:
320,192,59661,1,0,0:0:0:0:
448,192,59754,1,0,0:0:0:0:
64,192,59847,1,0,0:0:0:0:
192,192,59941,1,0,0:0:0:0:
320,192,60034,1,0,0:0:0:0:
64,192,60128,1,0,0:0:0:0:
192,192,60128,1,0,0:0:0:0:
448,192,60128,1,0,0:0:0:0:
320,192,60221,1,0,0:0:0:0:
64,192,60314,1,0,0:0:0:0:
192,192,60314,1,0,0:0:0:0:
448,192,60408,1,0,0:0:0:0:
320,192,60501,1,0,0:0:0:0:
192,192,60594,1,0,0:0:0:0:
448,192,60688,1,0,0:0:0:0:
320,192,60688,1,0,0:0:0:0:
64,192,60688,1,0,0:0:0:0:
320,192,60781,1,0,0:0:0:0:
192,192,60781,1,0,0:0:0:0:
64,192,60874,1,0,0:0:0:0:
448,192,60874,1,0,0:0:0:0:
192,192,60874,1,0,0:0:0:0:
448,192,60968,1,0,0:0:0:0:
320,192,60968,1,0,0:0:0:0:
320,192,61061,1,0,0:0:0:0:
448,192,61061,1,0,0:0:0:0:
64,192,61061,1,0,0:0:0:0:
192,192,61061,1,0,0:0:0:0:
64,192,61155,1,0,0:0:0:0:
192,192,61155,1,0,0:0:0:0:
448,192,61248,1,0,0:0:0:0:
320,192,61248,1,0,0:0:0:0:
64,192,61248,1,0,0:0:0:0:
320,192,61341,1,0,0:0:0:0:
192,192,61341,1,0,0:0:0:0:
64,192,61435,1,0,0:0:0:0:
192,192,61435,1,0,0:0:0:0:
448,192,61435,1,0,0:0:0:0:
448,192,61528,1,0,0:0:0:0:
320,192,61528,1,0,0:0:0:0:
320,192,61621,1,0,0:0:0:0:
192,192,61621,1,0,0:0:0:0:
64,192,61621,1,0,0:0:0:0:
448,192,61715,1,0,0:0:0:0:
192,192,61715,1,0,0:0:0:0:
448,192,61808,1,0,0:0:0:0:
192,192,61808,1,0,0:0:0:0:
64,192,61808,1,0,0:0:0:0:
320,192,61808,1,0,0:0:0:0:
320,192,61902,1,0,0:0:0:0:
64,192,61902,1,0,0:0:0:0:
320,192,61995,1,0,0:0:0:0:
448,192,61995,1,0,0:0:0:0:
192,192,61995,1,0,0:0:0:0:
448,192,62088,1,0,0:0:0:0:
64,192,62088,1,0,0:0:0:0:
64,192,62182,1,0,0:0:0:0:
320,192,62182,1,0,0:0:0:0:
192,192,62182,1,0,0:0:0:0:
448,192,62275,1,0,0:0:0:0:
192,192,62275,1,0,0:0:0:0:
448,192,62368,1,0,0:0:0:0:
320,192,62368,1,0,0:0:0:0:
64,192,62368,1,0,0:0:0:0:
192,192,62462,1,0,0:0:0:0:
64,192,62462,1,0,0:0:0:0:
320,192,62555,1,0,0:0:0:0:
448,192,62555,1,0,0:0:0:0:
64,192,62555,1,0,0:0:0:0:
192,192,62555,1,0,0:0:0:0:
448,192,62649,1,0,0:0:0:0:
320,192,62649,1,0,0:0:0:0:
448,192,62742,1,0,0:0:0:0:
192,192,62742,1,0,0:0:0:0:
64,192,62742,1,0,0:0:0:0:
320,192,62835,1,0,0:0:0:0:
192,192,62835,1,0,0:0:0:0:
448,192,62929,1,0,0:0:0:0:
320,192,62929,1,0,0:0:0:0:
64,192,62929,1,0,0:0:0:0:
448,192,63022,1,0,0:0:0:0:
192,192,63022,1,0,0:0:0:0:
64,192,63115,1,0,0:0:0:0:
192,192,63115,1,0,0:0:0:0:
320,192,63115,1,0,0:0:0:0:
448,192,63209,1,0,0:0:0:0:
64,192,63209,1,0,0:0:0:0:
320,192,63302,1,0,0:0:0:0:
448,192,63302,1,0,0:0:0:0:
64,192,63302,1,0,0:0:0:0:
192,192,63302,1,0,0:0:0:0:
320,192,63395,1,0,0:0:0:0:
192,192,63395,1,0,0:0:0:0:
64,192,63489,1,0,0:0:0:0:
448,192,63489,1,0,0:0:0:0:
192,192,63489,1,0,0:0:0:0:
448,192,63582,1,0,0:0:0:0:
320,192,63582,1,0,0:0:0:0:
320,192,63676,1,0,0:0:0:0:
64,192,63676,1,0,0:0:0:0:
192,192,63676,1,0,0:0:0:0:
448,192,63769,1,0,0:0:0:0:
192,192,63769,1,0,0:0:0:0:
64,192,63862,1,0,0:0:0:0:
448,192,63862,1,0,0:0:0:0:
320,192,63862,1,0,0:0:0:0:
320,192,63956,1,0,0:0:0:0:
192,192,63956,1,0,0:0:0:0:
320,192,64049,1,0,0:0:0:0:
448,192,64049,1,0,0:0:0:0:
64,192,64049,1,0,0:0:0:0:
192,192,64049,1,0,0:0:0:0:
448,192,64142,1,0,0:0:0:0:
64,192,64142,1,0,0:0:0:0:
64,192,64236,1,0,0:0:0:0:
320,192,64236,1,0,0:0:0:0:
192,192,64236,1,0,0:0:0:0:
448,192,64329,1,0,0:0:0:0:
192,192,64329,1,0,0:0:0:0:
448,192,64423,1,0,0:0:0:0:
64,192,64423,1,0,0:0:0:0:
320,192,64423,1,0,0:0:0:0:
64,192,64516,1,0,0:0:0:0:
192,192,64516,1,0,0:0:0:0:
192,192,64609,1,0,0:0:0:0:
448,192,64609,1,0,0:0:0:0:
320,192,64609,1,0,0:0:0:0:
448,192,64703,1,0,0:0:0:0:
64,192,64703,1,0,0:0:0:0:
320,192,64796,1,0,0:0:0:0:
448,192,64796,1,0,0:0:0:0:
64,192,64796,1,0,0:0:0:0:
192,192,64796,1,0,0:0:0:0:
320,192,64889,1,0,0:0:0:0:
192,192,64889,1,0,0:0:0:0:
448,192,64983,1,0,0:0:0:0:
192,192,64983,1,0,0:0:0:0:
64,192,64983,1,0,0:0:0:0:
448,192,65076,1,0,0:0:0:0:
320,192,65076,1,0,0:0:0:0:
320,192,65170,1,0,0:0:0:0:
192,192,65170,1,0,0:0:0:0:
64,192,65170,1,0,0:0:0:0:
448,192,65263,1,0,0:0:0:0:
192,192,65263,1,0,0:0:0:0:
448,192,65356,1,0,0:0:0:0:
320,192,65356,1,0,0:0:0:0:
64,192,65356,1,0,0:0:0:0:
320,192,65450,1,0,0:0:0:0:
192,192,65450,1,0,0:0:0:0:
448,192,65543,1,0,0:0:0:0:
320,192,65543,1,0,0:0:0:0:
64,192,65543,1,0,0:0:0:0:
192,192,65543,1,0,0:0:0:0:
448,192,65636,1,0,0:0:0:0:
64,192,65636,1,0,0:0:0:0:
192,192,65730,1,0,0:0:0:0:
320,192,65730,1,0,0:0:0:0:
64,192,65730,1,0,0:0:0:0:
448,192,65823,1,0,0:0:0:0:
192,192,65823,1,0,0:0:0:0:
64,192,65916,1,0,0:0:0:0:
448,192,65916,1,0,0:0:0:0:
320,192,65916,1,0,0:0:0:0:
320,192,66010,1,0,0:0:0:0:
192,192,66010,1,0,0:0:0:0:
448,192,66103,1,0,0:0:0:0:
192,192,66103,1,0,0:0:0:0:
64,192,66103,1,0,0:0:0:0:
448,192,66197,1,0,0:0:0:0:
320,192,66197,1,0,0:0:0:0:
320,192,66290,1,0,0:0:0:0:
448,192,66290,1,0,0:0:0:0:
64,192,66290,1,0,0:0:0:0:
192,192,66290,1,0,0:0:0:0:
192,192,66383,1,0,0:0:0:0:
64,192,66383,1,0,0:0:0:0:
448,192,66477,1,0,0:0:0:0:
320,192,66477,1,0,0:0:0:0:
64,192,66477,1,0,0:0:0:0:
320,192,66570,1,0,0:0:0:0:
192,192,66570,1,0,0:0:0:0:
64,192,66663,1,0,0:0:0:0:
448,192,66663,1,0,0:0:0:0:
192,192,66663,1,0,0:0:0:0:
448,192,66757,1,0,0:0:0:0:
320,192,66757,1,0,0:0:0:0:
320,192,66850,1,0,0:0:0:0:
192,192,66850,1,0,0:0:0:0:
64,192,66850,1,0,0:0:0:0:
448,192,66944,1,0,0:0:0:0:
192,192,66944,1,0,0:0:0:0:
448,192,67037,1,0,0:0:0:0:
192,192,67037,1,0,0:0:0:0:
64,192,67037,1,0,0:0:0:0:
320,192,67037,1,0,0:0:0:0:
320,192,67130,1,0,0:0:0:0:
64,192,67130,1,0,0:0:0:0:
448,192,67224,1,0,0:0:0:0:
320,192,67224,1,0,0:0:0:0:
192,192,67224,1,0,0:0:0:0:
192,192,67317,1,0,0:0:0:0:
64,192,67317,1,0,0:0:0:0:
448,192,67410,1,0,0:0:0:0:
320,192,67410,1,0,0:0:0:0:
64,192,67410,1,0,0:0:0:0:
320,192,67504,1,0,0:0:0:0:
192,192,67504,1,0,0:0:0:0:
64,192,67597,1,0,0:0:0:0:
448,192,67597,1,0,0:0:0:0:
192,192,67597,1,0,0:0:0:0:
448,192,67691,1,0,0:0:0:0:
320,192,67691,1,0,0:0:0:0:
320,192,67784,1,0,0:0:0:0:
448,192,67784,1,0,0:0:0:0:
64,192,67784,1,0,0:0:0:0:
192,192,67784,1,0,0:0:0:0:
192,192,67877,1,0,0:0:0:0:
64,192,67877,1,0,0:0:0:0:
64,192,67971,1,0,0:0:0:0:
448,192,67971,1,0,0:0:0:0:
320,192,67971,1,0,0:0:0:0:
320,192,68064,1,0,0:0:0:0:
192,192,68064,1,0,0:0:0:0:
320,192,68157,1,0,0:0:0:0:
448,192,68157,1,0,0:0:0:0:
64,192,68157,1,0,0:0:0:0:
448,192,68251,1,0,0:0:0:0:
192,192,68251,1,0,0:0:0:0:
192,192,68344,1,0,0:0:0:0:
320,192,68344,1,0,0:0:0:0:
64,192,68344,1,0,0:0:0:0:
448,192,68438,1,0,0:0:0:0:
64,192,68438,1,0,0:0:0:0:
320,192,68531,1,0,0:0:0:0:
448,192,68531,1,0,0:0:0:0:
64,192,68531,1,0,0:0:0:0:
192,192,68531,1,0,0:0:0:0:
320,192,68624,1,0,0:0:0:0:
192,192,68624,1,0,0:0:0:0:
320,192,68718,1,0,0:0:0:0:
448,192,68718,1,0,0:0:0:0:
64,192,68718,1,0,0:0:0:0:
192,192,68811,1,0,0:0:0:0:
64,192,68811,1,0,0:0:0:0:
320,192,68904,1,0,0:0:0:0:
448,192,68904,1,0,0:0:0:0:
192,192,68904,1,0,0:0:0:0:
448,192,68998,1,0,0:0:0:0:
64,192,68998,1,0,0:0:0:0:
64,192,69091,1,0,0:0:0:0:
320,192,69091,1,0,0:0:0:0:
192,192,69091,1,0,0:0:0:0:
448,192,69184,1,0,0:0:0:0:
192,192,69184,1,0,0:0:0:0:
192,192,69278,1,0,0:0:0:0:
448,192,69278,1,0,0:0:0:0:
64,192,69278,1,0,0:0:0:0:
320,192,69278,1,0,0:0:0:0:
320,192,69371,1,0,0:0:0:0:
448,192,69371,1,0,0:0:0:0:
192,192,69465,1,0,0:0:0:0:
320,192,69465,1,0,0:0:0:0:
64,192,69465,1,0,0:0:0:0:
448,192,69558,1,0,0:0:0:0:
64,192,69558,1,0,0:0:0:0:
320,192,69651,1,0,0:0:0:0:
448,192,69651,1,0,0:0:0:0:
192,192,69651,1,0,0:0:0:0:
320,192,69745,1,0,0:0:0:0:
64,192,69745,1,0,0:0:0:0:
64,192,69838,1,0,0:0:0:0:
192,192,69838,1,0,0:0:0:0:
448,192,69838,1,0,0:0:0:0:
448,192,69931,1,0,0:0:0:0:
320,192,69931,1,0,0:0:0:0:
320,192,70025,1,0,0:0:0:0:
448,192,70025,1,0,0:0:0:0:
64,192,70025,1,0,0:0:0:0:
192,192,70025,1,0,0:0:0:0:
64,192,70118,1,0,0:0:0:0:
192,192,70118,1,0,0:0:0:0:
320,192,70212,1,0,0:0:0:0:
448,192,70212,1,0,0:0:0:0:
64,192,70212,1,0,0:0:0:0:
448,192,70305,1,0,0:0:0:0:
192,192,70305,1,0,0:0:0:0:
192,192,70398,1,0,0:0:0:0:
320,192,70398,1,0,0:0:0:0:
64,192,70398,1,0,0:0:0:0:
448,192,70492,1,0,0:0:0:0:
320,192,70492,1,0,0:0:0:0:
448,192,70585,1,0,0:0:0:0:
192,192,70585,1,0,0:0:0:0:
64,192,70585,1,0,0:0:0:0:
64,192,70678,1,0,0:0:0:0:
320,192,70678,1,0,0:0:0:0:
320,192,70772,1,0,0:0:0:0:
448,192,70772,1,0,0:0:0:0:
64,192,70772,1,0,0:0:0:0:
192,192,70772,1,0,0:0:0:0:
448,192,70865,1,0,0:0:0:0:
320,192,70865,1,0,0:0:0:0:
448,192,70959,1,0,0:0:0:0:
192,192,70959,1,0,0:0:0:0:
64,192,70959,1,0,0:0:0:0:
320,192,71052,1,0,0:0:0:0:
64,192,71052,1,0,0:0:0:0:
448,192,71145,1,0,0:0:0:0:
320,192,71145,1,0,0:0:0:0:
192,192,71145,1,0,0:0:0:0:
448,192,71239,1,0,0:0:0:0:
64,192,71239,1,0,0:0:0:0:
192,192,71332,1,0,0:0:0:0:
64,192,71332,1,0,0:0:0:0:
320,192,71332,1,0,0:0:0:0:
448,192,71425,1,0,0:0:0:0:
192,192,71425,1,0,0:0:0:0:
448,192,71519,1,0,0:0:0:0:
192,192,71519,1,0,0:0:0:0:
64,192,71519,1,0,0:0:0:0:
320,192,71519,1,0,0:0:0:0:
448,192,71612,1,0,0:0:0:0:
320,192,71612,1,0,0:0:0:0:
192,192,71705,1,0,0:0:0:0:
320,192,71705,1,0,0:0:0:0:
64,192,71705,1,0,0:0:0:0:
448,192,71799,1,0,0:0:0:0:
64,192,71799,1,0,0:0:0:0:
192,192,71892,1,0,0:0:0:0:
448,192,71892,1,0,0:0:0:0:
320,192,71892,1,0,0:0:0:0:
192,192,71986,1,0,0:0:0:0:
64,192,71986,1,0,0:0:0:0:
320,192,72079,1,0,0:0:0:0:
448,192,72079,1,0,0:0:0:0:
64,192,72079,1,0,0:0:0:0:
192,192,72079,1,0,0:0:0:0:
448,192,72172,1,0,0:0:0:0:
320,192,72172,1,0,0:0:0:0:
192,192,72266,1,0,0:0:0:0:
448,192,72266,1,0,0:0:0:0:
64,192,72266,1,0,0:0:0:0:
320,192,72359,1,0,0:0:0:0:
448,192,72359,1,0,0:0:0:0:
64,192,72359,1,0,0:0:0:0:
192,192,72359,1,0,0:0:0:0:
192,192,72452,1,0,0:0:0:0:
64,192,72452,1,0,0:0:0:0:
320,192,72546,1,0,0:0:0:0:
64,192,72546,1,0,0:0:0:0:
448,192,72546,1,0,0:0:0:0:
320,192,72639,1,0,0:0:0:0:
448,192,72639,1,0,0:0:0:0:
64,192,72639,1,0,0:0:0:0:
192,192,72639,1,0,0:0:0:0:
320,192,72733,1,0,0:0:0:0:
192,192,72733,1,0,0:0:0:0:
448,192,72826,1,0,0:0:0:0:
192,192,72826,1,0,0:0:0:0:
64,192,72826,1,0,0:0:0:0:
448,192,72919,1,0,0:0:0:0:
320,192,72919,1,0,0:0:0:0:
320,192,73013,1,0,0:0:0:0:
448,192,73013,1,0,0:0:0:0:
64,192,73013,1,0,0:0:0:0:
192,192,73013,1,0,0:0:0:0:
192,192,73106,1,0,0:0:0:0:
64,192,73106,1,0,0:0:0:0:
448,192,73199,1,0,0:0:0:0:
320,192,73199,1,0,0:0:0:0:
64,192,73199,1,0,0:0:0:0:
320,192,73293,1,0,0:0:0:0:
192,192,73293,1,0,0:0:0:0:
448,192,73386,1,0,0:0:0:0:
192,192,73386,1,0,0:0:0:0:
64,192,73386,1,0,0:0:0:0:
448,192,73480,1,0,0:0:0:0:
320,192,73480,1,0,0:0:0:0:
320,192,73573,1,0,0:0:0:0:
192,192,73573,1,0,0:0:0:0:
64,192,73573,1,0,0:0:0:0:
448,192,73666,1,0,0:0:0:0:
192,192,73666,1,0,0:0:0:0:
448,192,73760,1,0,0:0:0:0:
192,192,73760,1,0,0:0:0:0:
64,192,73760,1,0,0:0:0:0:
320,192,73760,1,0,0:0:0:0:
448,192,73853,1,0,0:0:0:0:
320,192,73853,1,0,0:0:0:0:
320,192,73946,1,0,0:0:0:0:
192,192,73946,1,0,0:0:0:0:
64,192,73946,1,0,0:0:0:0:
448,192,74040,1,0,0:0:0:0:
64,192,74040,1,0,0:0:0:0:
192,192,74133,1,0,0:0:0:0:
448,192,74133,1,0,0:0:0:0:
320,192,74133,1,0,0:0:0:0:
320,192,74226,1,0,0:0:0:0:
64,192,74226,1,0,0:0:0:0:
448,192,74320,1,0,0:0:0:0:
64,192,74320,1,0,0:0:0:0:
192,192,74320,1,0,0:0:0:0:
448,192,74413,1,0,0:0:0:0:
320,192,74413,1,0,0:0:0:0:
320,192,74507,1,0,0:0:0:0:
448,192,74507,1,0,0:0:0:0:
64,192,74507,1,0,0:0:0:0:
192,192,74507,1,0,0:0:0:0:
64,192,74600,1,0,0:0:0:0:
192,192,74600,1,0,0:0:0:0:
448,192,74693,1,0,0:0:0:0:
320,192,74693,1,0,0:0:0:0:
64,192,74693,1,0,0:0:0:0:
320,192,74787,1,0,0:0:0:0:
192,192,74787,1,0,0:0:0:0:
64,192,74880,1,0,0:0:0:0:
192,192,74880,1,0,0:0:0:0:
448,192,74880,1,0,0:0:0:0:
448,192,74973,1,0,0:0:0:0:
320,192,74973,1,0,0:0:0:0:
320,192,75067,1,0,0:0:0:0:
192,192,75067,1,0,0:0:0:0:
64,192,75067,1,0,0:0:0:0:
448,192,75160,1,0,0:0:0:0:
192,192,75160,1,0,0:0:0:0:
448,192,75254,1,0,0:0:0:0:
192,192,75254,1,0,0:0:0:0:
64,192,75254,1,0,0:0:0:0:
320,192,75254,1,0,0:0:0:0:
320,192,75347,1,0,0:0:0:0:
64,192,75347,1,0,0:0:0:0:
64,192,75440,1,0,0:0:0:0:
448,192,75440,1,0,0:0:0:0:
192,192,75440,1,0,0:0:0:0:
320,192,75534,1,0,0:0:0:0:
192,192,75534,1,0,0:0:0:0:
448,192,75627,1,0,0:0:0:0:
320,192,75627,1,0,0:0:0:0:
64,192,75627,1,0,0:0:0:0:
448,192,75720,1,0,0:0:0:0:
192,192,75720,1,0,0:0:0:0:
64,192,75814,1,0,0:0:0:0:
192,192,75814,1,0,0:0:0:0:
320,192,75814,1,0,0:0:0:0:
448,192,75907,1,0,0:0:0:0:
320,192,75907,1,0,0:0:0:0:
320,192,76001,1,0,0:0:0:0:
448,192,76001,1,0,0:0:0:0:
64,192,76001,1,0,0:0:0:0:
192,192,76001,1,0,0:0:0:0:
64,192,76094,1,0,0:0:0:0:
192,192,76094,1,0,0:0:0:0:
64,192,76187,1,0,0:0:0:0:
448,192,76187,1,0,0:0:0:0:
320,192,76187,1,0,0:0:0:0:
320,192,76281,1,0,0:0:0:0:
192,192,76281,1,0,0:0:0:0:
448,192,76374,1,0,0:0:0:0:
192,192,76374,1,0,0:0:0:0:
64,192,76374,1,0,0:0:0:0:
448,192,76467,1,0,0:0:0:0:
320,192,76467,1,0,0:0:0:0:
320,192,76561,1,0,0:0:0:0:
192,192,76561,1,0,0:0:0:0:
64,192,76561,1,0,0:0:0:0:
448,192,76654,1,0,0:0:0:0:
192,192,76654,1,0,0:0:0:0:
448,192,76747,1,0,0:0:0:0:
192,192,76747,1,0,0:0:0:0:
64,192,76747,1,0,0:0:0:0:
320,192,76747,1,0,0:0:0:0:
320,192,76841,1,0,0:0:0:0:
64,192,76841,1,0,0:0:0:0:
320,192,76934,1,0,0:0:0:0:
448,192,76934,1,0,0:0:0:0:
192,192,76934,1,0,0:0:0:0:
192,192,77028,1,0,0:0:0:0:
64,192,77028,1,0,0:0:0:0:
448,192,77121,1,0,0:0:0:0:
320,192,77121,1,0,0:0:0:0:
64,192,77121,1,0,0:0:0:0:
320,192,77214,1,0,0:0:0:0:
192,192,77214,1,0,0:0:0:0:
448,192,77308,1,0,0:0:0:0:
192,192,77308,1,0,0:0:0:0:
64,192,77308,1,0,0:0:0:0:
320,192,77401,1,0,0:0:0:0:
64,192,77401,1,0,0:0:0:0:
320,192,77494,1,0,0:0:0:0:
448,192,77494,1,0,0:0:0:0:
64,192,77494,1,0,0:0:0:0:
192,192,77494,1,0,0:0:0:0:
448,192,77588,1,0,0:0:0:0:
320,192,77588,1,0,0:0:0:0:
448,192,77681,1,0,0:0:0:0:
192,192,77681,1,0,0:0:0:0:
64,192,77681,1,0,0:0:0:0:
320,192,77775,1,0,0:0:0:0:
64,192,77775,1,0,0:0:0:0:
448,192,77868,1,0,0:0:0:0:
320,192,77868,1,0,0:0:0:0:
192,192,77868,1,0,0:0:0:0:
448,192,77961,1,0,0:0:0:0:
64,192,77961,1,0,0:0:0:0:
64,192,78055,1,0,0:0:0:0:
320,192,78055,1,0,0:0:0:0:
192,192,78055,1,0,0:0:0:0:
448,192,78148,1,0,0:0:0:0:
192,192,78148,1,0,0:0:0:0:
448,192,78241,1,0,0:0:0:0:
192,192,78241,1,0,0:0:0:0:
64,192,78241,1,0,0:0:0:0:
320,192,78241,1,0,0:0:0:0:
64,192,78335,1,0,0:0:0:0:
320,192,78335,1,0,0:0:0:0:
64,192,78428,1,0,0:0:0:0:
448,192,78428,1,0,0:0:0:0:
192,192,78428,1,0,0:0:0:0:
320,192,78522,1,0,0:0:0:0:
192,192,78522,1,0,0:0:0:0:
448,192,78615,1,0,0:0:0:0:
320,192,78615,1,0,0:0:0:0:
64,192,78615,1,0,0:0:0:0:
448,192,78708,1,0,0:0:0:0:
192,192,78708,1,0,0:0:0:0:
320,192,78802,1,0,0:0:0:0:
192,192,78802,1,0,0:0:0:0:
64,192,78802,1,0,0:0:0:0:
448,192,78895,1,0,0:0:0:0:
64,192,78895,1,0,0:0:0:0:
320,192,78988,1,0,0:0:0:0:
448,192,78988,1,0,0:0:0:0:
64,192,78988,1,0,0:0:0:0:
192,192,78988,1,0,0:0:0:0:
448,192,79082,1,0,0:0:0:0:
320,192,79082,1,0,0:0:0:0:
320,192,79175,1,0,0:0:0:0:
192,192,79175,1,0,0:0:0:0:
64,192,79175,1,0,0:0:0:0:
448,192,79269,1,0,0:0:0:0:
64,192,79269,1,0,0:0:0:0:
448,192,79362,1,0,0:0:0:0:
320,192,79362,1,0,0:0:0:0:
192,192,79362,1,0,0:0:0:0:
192,192,79455,1,0,0:0:0:0:
64,192,79455,1,0,0:0:0:0:
448,192,79549,1,0,0:0:0:0:
320,192,79549,1,0,0:0:0:0:
64,192,79549,1,0,0:0:0:0:
320,192,79642,1,0,0:0:0:0:
192,192,79642,1,0,0:0:0:0:
448,192,79735,1,0,0:0:0:0:
192,192,79735,1,0,0:0:0:0:
64,192,79735,1,0,0:0:0:0:
320,192,79735,1,0,0:0:0:0:
64,192,79829,1,0,0:0:0:0:
192,192,79829,1,0,0:0:0:0:
320,192,79922,1,0,0:0:0:0:
448,192,79922,1,0,0:0:0:0:
64,192,79922,1,0,0:0:0:0:
320,192,80015,1,0,0:0:0:0:
192,192,80015,1,0,0:0:0:0:
448,192,80109,1,0,0:0:0:0:
192,192,80109,1,0,0:0:0:0:
64,192,80109,1,0,0:0:0:0:
448,192,80202,1,0,0:0:0:0:
320,192,80202,1,0,0:0:0:0:
192,192,80296,1,0,0:0:0:0:
320,192,80296,1,0,0:0:0:0:
64,192,80296,1,0,0:0:0:0:
448,192,80389,1,0,0:0:0:0:
64,192,80389,1,0,0:0:0:0:
320,192,80482,1,0,0:0:0:0:
448,192,80482,1,0,0:0:0:0:
64,192,80482,1,0,0:0:0:0:
192,192,80482,1,0,0:0:0:0:
320,192,80576,1,0,0:0:0:0:
192,192,80576,1,0,0:0:0:0:
448,192,80669,1,0,0:0:0:0:
320,192,80669,1,0,0:0:0:0:
64,192,80669,1,0,0:0:0:0:
192,192,80762,1,0,0:0:0:0:
64,192,80762,1,0,0:0:0:0:
448,192,80856,1,0,0:0:0:0:
320,192,80856,1,0,0:0:0:0:
192,192,80856,1,0,0:0:0:0:
320,192,80949,1,0,0:0:0:0:
64,192,80949,1,0,0:0:0:0:
448,192,81043,1,0,0:0:0:0:
64,192,81043,1,0,0:0:0:0:
192,192,81043,1,0,0:0:0:0:
448,192,81136,1,0,0:0:0:0:
320,192,81136,1,0,0:0:0:0:
320,192,81229,1,0,0:0:0:0:
448,192,81229,1,0,0:0:0:0:
64,192,81229,1,0,0:0:0:0:
192,192,81229,1,0,0:0:0:0:
64,192,81323,1,0,0:0:0:0:
192,192,81323,1,0,0:0:0:0:
320,192,81416,1,0,0:0:0:0:
448,192,81416,1,0,0:0:0:0:
64,192,81416,1,0,0:0:0:0:
320,192,81509,1,0,0:0:0:0:
192,192,81509,1,0,0:0:0:0:
448,192,81603,1,0,0:0:0:0:
192,192,81603,1,0,0:0:0:0:
64,192,81603,1,0,0:0:0:0:
448,192,81696,1,0,0:0:0:0:
320,192,81696,1,0,0:0:0:0:
320,192,81790,1,0,0:0:0:0:
192,192,81790,1,0,0:0:0:0:
64,192,81790,1,0,0:0:0:0:
448,192,81883,1,0,0:0:0:0:
64,192,81883,1,0,0:0:0:0:
320,192,81976,1,0,0:0:0:0:
448,192,81976,1,0,0:0:0:0:
64,192,81976,1,0,0:0:0:0:
192,192,81976,1,0,0:0:0:0:
448,192,82070,1,0,0:0:0:0:
320,192,82070,1,0,0:0:0:0:
320,192,82163,1,0,0:0:0:0:
192,192,82163,1,0,0:0:0:0:
64,192,82163,1,0,0:0:0:0:
448,192,82256,1,0,0:0:0:0:
64,192,82256,1,0,0:0:0:0:
448,192,82350,1,0,0:0:0:0:
320,192,82350,1,0,0:0:0:0:
192,192,82350,1,0,0:0:0:0:
192,192,82443,1,0,0:0:0:0:
64,192,82443,1,0,0:0:0:0:
448,192,82536,1,0,0:0:0:0:
320,192,82536,1,0,0:0:0:0:
64,192,82536,1,0,0:0:0:0:
320,192,82630,1,0,0:0:0:0:
192,192,82630,1,0,0:0:0:0:
448,192,82723,1,0,0:0:0:0:
192,192,82723,1,0,0:0:0:0:
64,192,82723,1,0,0:0:0:0:
320,192,82723,1,0,0:0:0:0:
192,192,82817,1,0,0:0:0:0:
64,192,82817,1,0,0:0:0:0:
320,192,82910,1,0,0:0:0:0:
448,192,82910,1,0,0:0:0:0:
64,192,82910,1,0,0:0:0:0:
320,192,83003,1,0,0:0:0:0:
192,192,83003,1,0,0:0:0:0:
320,192,83097,1,0,0:0:0:0:
448,192,83097,1,0,0:0:0:0:
64,192,83097,1,0,0:0:0:0:
192,192,83097,1,0,0:0:0:0:
448,192,83190,1,0,0:0:0:0:
64,192,83190,1,0,0:0:0:0:
320,192,83283,1,0,0:0:0:0:
192,192,83283,1,0,0:0:0:0:
448,192,83377,1,0,0:0:0:0:
64,192,83377,1,0,0:0:0:0:
192,192,83470,1,0,0:0:0:0:
64,192,83470,1,0,0:0:0:0:
448,192,83564,1,0,0:0:0:0:
320,192,83564,1,0,0:0:0:0:
192,192,83657,1,0,0:0:0:0:
64,192,83657,1,0,0:0:0:0:
448,192,83750,1,0,0:0:0:0:
320,192,83750,1,0,0:0:0:0:
64,192,83844,1,0,0:0:0:0:
192,192,83875,1,0,0:0:0:0:
320,192,83906,1,0,0:0:0:0:
448,192,83937,1,0,0:0:0:0:
64,192,83968,1,0,0:0:0:0:
192,192,83999,1,0,0:0:0:0:
320,192,84030,1,0,0:0:0:0:
448,192,84062,1,0,0:0:0:0:
64,192,84093,1,0,0:0:0:0:
192,192,84124,1,0,0:0:0:0:
320,192,84155,1,0,0:0:0:0:
448,192,84186,1,0,0:0:0:0:
64,192,84217,1,0,0:0:0:0:
192,192,84248,1,0,0:0:0:0:
320,192,84279,1,0,0:0:0:0:
448,192,84311,1,0,0:0:0:0:
64,192,84342,1,0,0:0:0:0:
192,192,84373,1,0,0:0:0:0:
320,192,84404,1,0,0:0:0:0:
448,192,84435,1,0,0:0:0:0:
64,192,84466,1,0,0:0:0:0:
192,192,84497,1,0,0:0:0:0:
320,192,84528,1,0,0:0:0:0:
448,192,84560,1,0,0:0:0:0:
192,192,84591,1,0,0:0:0:0:
64,192,84591,1,0,0:0:0:0:
320,192,84777,1,0,0:0:0:0:
448,192,84964,1,0,0:0:0:0:
64,192,84964,1,0,0:0:0:0:
192,192,84964,1,0,0:0:0:0:
448,192,85151,1,0,0:0:0:0:
320,192,85151,1,0,0:0:0:0:
192,192,85338,1,0,0:0:0:0:
320,192,85524,1,0,0:0:0:0:
448,192,85524,1,0,0:0:0:0:
64,192,85524,1,0,0:0:0:0:
192,192,85711,1,0,0:0:0:0:
320,192,85898,1,0,0:0:0:0:
448,192,85898,1,0,0:0:0:0:
448,192,86085,1,0,0:0:0:0:
192,192,86085,1,0,0:0:0:0:
64,192,86085,1,0,0:0:0:0:
320,192,86271,1,0,0:0:0:0:
192,192,86271,1,0,0:0:0:0:
64,192,86458,1,0,0:0:0:0:
448,192,86458,1,0,0:0:0:0:
320,192,86458,1,0,0:0:0:0:
64,192,86645,1,0,0:0:0:0:
192,192,86645,1,0,0:0:0:0:
320,192,86832,1,0,0:0:0:0:
64,192,87018,1,0,0:0:0:0:
192,192,87018,1,0,0:0:0:0:
448,192,87018,1,0,0:0:0:0:
448,192,87205,1,0,0:0:0:0:
64,192,87205,1,0,0:0:0:0:
192,192,87205,1,0,0:0:0:0:
192,192,87392,1,0,0:0:0:0:
320,192,87392,1,0,0:0:0:0:
448,192,87578,1,0,0:0:0:0:
320,192,87578,1,0,0:0:0:0:
64,192,87578,1,0,0:0:0:0:
192,192,87765,1,0,0:0:0:0:
448,192,87952,1,0,0:0:0:0:
320,192,87952,1,0,0:0:0:0:
64,192,88139,1,0,0:0:0:0:
192,192,88139,1,0,0:0:0:0:
448,192,88325,1,0,0:0:0:0:
320,192,88325,1,0,0:0:0:0:
64,192,88325,1,0,0:0:0:0:
192,192,88512,1,0,0:0:0:0:
448,192,88699,1,0,0:0:0:0:
64,192,88699,1,0,0:0:0:0:
192,192,88886,1,0,0:0:0:0:
320,192,88886,1,0,0:0:0:0:
448,192,89072,1,0,0:0:0:0:
192,192,89072,1,0,0:0:0:0:
64,192,89072,1,0,0:0:0:0:
320,192,89259,1,0,0:0:0:0:
448,192,89446,1,0,0:0:0:0:
192,192,89446,1,0,0:0:0:0:
64,192,89446,1,0,0:0:0:0:
64,192,89633,1,0,0:0:0:0:
448,192,89633,1,0,0:0:0:0:
320,192,89633,1,0,0:0:0:0:
192,192,89819,1,0,0:0:0:0:
448,192,90006,1,0,0:0:0:0:
320,192,90006,1,0,0:0:0:0:
320,192,90193,1,0,0:0:0:0:
192,192,90193,1,0,0:0:0:0:
448,192,90380,1,0,0:0:0:0:
192,192,90380,1,0,0:0:0:0:
64,192,90380,1,0,0:0:0:0:
64,192,90566,1,0,0:0:0:0:
448,192,90566,1,0,0:0:0:0:
320,192,90566,1,0,0:0:0:0:
192,192,90753,1,0,0:0:0:0:
448,192,90940,1,0,0:0:0:0:
320,192,90940,1,0,0:0:0:0:
448,192,91127,1,0,0:0:0:0:
192,192,91127,1,0,0:0:0:0:
64,192,91127,1,0,0:0:0:0:
320,192,91313,1,0,0:0:0:0:
192,192,91500,1,0,0:0:0:0:
448,192,91687,1,0,0:0:0:0:
320,192,91687,1,0,0:0:0:0:
64,192,91687,1,0,0:0:0:0:
448,192,91874,1,0,0:0:0:0:
320,192,91874,1,0,0:0:0:0:
192,192,91874,1,0,0:0:0:0:
448,192,92060,1,0,0:0:0:0:
192,192,92060,1,0,0:0:0:0:
64,192,92060,1,0,0:0:0:0:
320,192,92247,1,0,0:0:0:0:
64,192,92434,1,0,0:0:0:0:
192,192,92434,1,0,0:0:0:0:
448,192,92621,1,0,0:0:0:0:
320,192,92621,1,0,0:0:0:0:
64,192,92621,1,0,0:0:0:0:
192,192,92807,1,0,0:0:0:0:
320,192,92994,1,0,0:0:0:0:
64,192,93181,1,0,0:0:0:0:
192,192,93181,1,0,0:0:0:0:
448,192,93181,1,0,0:0:0:0:
192,192,93367,1,0,0:0:0:0:
448,192,93367,1,0,0:0:0:0:
320,192,93367,1,0,0:0:0:0:
448,192,93554,1,0,0:0:0:0:
64,192,93554,1,0,0:0:0:0:
320,192,93554,1,0,0:0:0:0:
192,192,93741,1,0,0:0:0:0:
448,192,93928,1,0,0:0:0:0:
320,192,93928,1,0,0:0:0:0:
448,192,94114,1,0,0:0:0:0:
192,192,94114,1,0,0:0:0:0:
64,192,94114,1,0,0:0:0:0:
320,192,94301,1,0,0:0:0:0:
192,192,94488,1,0,0:0:0:0:
448,192,94675,1,0,0:0:0:0:
320,192,94675,1,0,0:0:0:0:
192,192,94768,1,0,0:0:0:0:
64,192,94768,1,0,0:0:0:0:
320,192,94861,1,0,0:0:0:0:
448,192,94861,1,0,0:0:0:0:
64,192,94955,1,0,0:0:0:0:
192,192,94955,1,0,0:0:0:0:
448,192,95048,1,0,0:0:0:0:
320,192,95048,1,0,0:0:0:0:
192,192,95235,1,0,0:0:0:0:
320,192,95422,1,0,0:0:0:0:
448,192,95422,1,0,0:0:0:0:
64,192,95422,1,0,0:0:0:0:
192,192,95608,1,0,0:0:0:0:
448,192,95795,1,0,0:0:0:0:
320,192,95795,1,0,0:0:0:0:
64,192,95982,1,0,0:0:0:0:
320,192,96169,1,0,0:0:0:0:
192,192,96169,1,0,0:0:0:0:
448,192,96355,1,0,0:0:0:0:
192,192,96542,1,0,0:0:0:0:
64,192,96542,1,0,0:0:0:0:
320,192,96635,1,0,0:0:0:0:
64,192,96729,1,0,0:0:0:0:
448,192,96729,1,0,0:0:0:0:
192,192,96822,1,0,0:0:0:0:
448,192,96916,1,0,0:0:0:0:
320,192,96916,1,0,0:0:0:0:
64,192,97009,1,0,0:0:0:0:
448,192,97102,1,0,0:0:0:0:
320,192,97102,1,0,0:0:0:0:
192,192,97102,1,0,0:0:0:0:
64,192,97196,1,0,0:0:0:0:
448,192,97289,1,0,0:0:0:0:
192,192,97289,1,0,0:0:0:0:
320,192,97382,1,0,0:0:0:0:
192,192,97476,1,0,0:0:0:0:
448,192,97476,1,0,0:0:0:0:
64,192,97476,1,0,0:0:0:0:
320,192,97569,1,0,0:0:0:0:
192,192,97663,1,0,0:0:0:0:
64,192,97663,1,0,0:0:0:0:
448,192,97756,1,0,0:0:0:0:
320,192,97849,1,0,0:0:0:0:
192,192,97849,1,0,0:0:0:0:
64,192,97849,1,0,0:0:0:0:
64,192,97943,1,0,0:0:0:0:
448,192,98036,1,0,0:0:0:0:
320,192,98036,1,0,0:0:0:0:
192,192,98036,1,0,0:0:0:0:
448,192,98129,1,0,0:0:0:0:
320,192,98223,1,0,0:0:0:0:
192,192,98223,1,0,0:0:0:0:
64,192,98223,1,0,0:0:0:0:
192,192,98316,1,0,0:0:0:0:
448,192,98409,1,0,0:0:0:0:
320,192,98409,1,0,0:0:0:0:
64,192,98409,1,0,0:0:0:0:
320,192,98503,1,0,0:0:0:0:
448,192,98596,1,0,0:0:0:0:
192,192,98596,1,0,0:0:0:0:
64,192,98596,1,0,0:0:0:0:
320,192,98690,1,0,0:0:0:0:
64,192,98783,1,0,0:0:0:0:
192,192,98783,1,0,0:0:0:0:
448,192,98876,1,0,0:0:0:0:
320,192,98970,1,0,0:0:0:0:
192,192,98970,1,0,0:0:0:0:
64,192,98970,1,0,0:0:0:0:
64,192,99063,1,0,0:0:0:0:
448,192,99156,1,0,0:0:0:0:
320,192,99156,1,0,0:0:0:0:
192,192,99156,1,0,0:0:0:0:
192,192,99250,1,0,0:0:0:0:
64,192,99343,1,0,0:0:0:0:
448,192,99343,1,0,0:0:0:0:
320,192,99343,1,0,0:0:0:0:
320,192,99437,1,0,0:0:0:0:
448,192,99530,1,0,0:0:0:0:
64,192,99530,1,0,0:0:0:0:
192,192,99530,1,0,0:0:0:0:
448,192,99623,1,0,0:0:0:0:
320,192,99717,1,0,0:0:0:0:
192,192,99717,1,0,0:0:0:0:
64,192,99810,1,0,0:0:0:0:
448,192,99903,1,0,0:0:0:0:
320,192,99903,1,0,0:0:0:0:
192,192,99997,1,0,0:0:0:0:
448,192,100090,1,0,0:0:0:0:
320,192,100090,1,0,0:0:0:0:
64,192,100090,1,0,0:0:0:0:
192,192,100184,1,0,0:0:0:0:
448,192,100277,1,0,0:0:0:0:
320,192,100277,1,0,0:0:0:0:
64,192,100277,1,0,0:0:0:0:
192,192,100370,1,0,0:0:0:0:
320,192,100464,1,0,0:0:0:0:
448,192,100464,1,0,0:0:0:0:
64,192,100557,1,0,0:0:0:0:
448,192,100650,1,0,0:0:0:0:
192,192,100650,1,0,0:0:0:0:
320,192,100744,1,0,0:0:0:0:
448,192,100837,1,0,0:0:0:0:
192,192,100837,1,0,0:0:0:0:
64,192,100837,1,0,0:0:0:0:
320,192,100931,1,0,0:0:0:0:
448,192,101024,1,0,0:0:0:0:
192,192,101024,1,0,0:0:0:0:
64,192,101024,1,0,0:0:0:0:
320,192,101117,1,0,0:0:0:0:
192,192,101211,1,0,0:0:0:0:
64,192,101211,1,0,0:0:0:0:
448,192,101304,1,0,0:0:0:0:
320,192,101397,1,0,0:0:0:0:
192,192,101397,1,0,0:0:0:0:
64,192,101397,1,0,0:0:0:0:
448,192,101491,1,0,0:0:0:0:
192,192,101584,1,0,0:0:0:0:
320,192,101584,1,0,0:0:0:0:
64,192,101584,1,0,0:0:0:0:
448,192,101677,1,0,0:0:0:0:
320,192,101771,1,0,0:0:0:0:
192,192,101771,1,0,0:0:0:0:
64,192,101864,1,0,0:0:0:0:
448,192,101958,1,0,0:0:0:0:
320,192,101958,1,0,0:0:0:0:
192,192,101958,1,0,0:0:0:0:
448,192,102051,1,0,0:0:0:0:
320,192,102144,1,0,0:0:0:0:
192,192,102144,1,0,0:0:0:0:
64,192,102144,1,0,0:0:0:0:
64,192,102238,1,0,0:0:0:0:
448,192,102331,1,0,0:0:0:0:
320,192,102331,1,0,0:0:0:0:
192,192,102331,1,0,0:0:0:0:
320,192,102424,1,0,0:0:0:0:
448,192,102518,1,0,0:0:0:0:
192,192,102518,1,0,0:0:0:0:
64,192,102518,1,0,0:0:0:0:
192,192,102611,1,0,0:0:0:0:
448,192,102705,1,0,0:0:0:0:
320,192,102705,1,0,0:0:0:0:
64,192,102798,1,0,0:0:0:0:
448,192,102891,1,0,0:0:0:0:
192,192,102891,1,0,0:0:0:0:
320,192,102985,1,0,0:0:0:0:
448,192,103078,1,0,0:0:0:0:
192,192,103078,1,0,0:0:0:0:
64,192,103078,1,0,0:0:0:0:
320,192,103171,1,0,0:0:0:0:
192,192,103265,1,0,0:0:0:0:
64,192,103265,1,0,0:0:0:0:
448,192,103358,1,0,0:0:0:0:
320,192,103452,1,0,0:0:0:0:
64,192,103452,1,0,0:0:0:0:
192,192,103545,1,0,0:0:0:0:
448,192,103638,1,0,0:0:0:0:
320,192,103638,1,0,0:0:0:0:
64,192,103638,1,0,0:0:0:0:
192,192,103732,1,0,0:0:0:0:
448,192,103825,1,0,0:0:0:0:
320,192,103825,1,0,0:0:0:0:
64,192,103918,1,0,0:0:0:0:
448,192,104012,1,0,0:0:0:0:
192,192,104012,1,0,0:0:0:0:
320,192,104012,1,0,0:0:0:0:
64,192,104105,1,0,0:0:0:0:
448,192,104198,1,0,0:0:0:0:
320,192,104198,1,0,0:0:0:0:
192,192,104292,1,0,0:0:0:0:
448,192,104385,1,0,0:0:0:0:
64,192,104385,1,0,0:0:0:0:
320,192,104479,1,0,0:0:0:0:
448,192,104572,1,0,0:0:0:0:
192,192,104572,1,0,0:0:0:0:
64,192,104572,1,0,0:0:0:0:
320,192,104665,1,0,0:0:0:0:
64,192,104759,1,0,0:0:0:0:
192,192,104759,1,0,0:0:0:0:
448,192,104852,1,0,0:0:0:0:
64,192,104945,1,0,0:0:0:0:
320,192,104945,1,0,0:0:0:0:
192,192,105039,1,0,0:0:0:0:
448,192,105132,1,0,0:0:0:0:
320,192,105132,1,0,0:0:0:0:
64,192,105132,1,0,0:0:0:0:
192,192,105226,1,0,0:0:0:0:
448,192,105319,1,0,0:0:0:0:
320,192,105319,1,0,0:0:0:0:
64,192,105412,1,0,0:0:0:0:
192,192,105506,1,0,0:0:0:0:
320,192,105506,1,0,0:0:0:0:
448,192,105506,1,0,0:0:0:0:
64,192,105599,1,0,0:0:0:0:
448,192,105692,1,0,0:0:0:0:
192,192,105692,1,0,0:0:0:0:
320,192,105786,1,0,0:0:0:0:
64,192,105879,1,0,0:0:0:0:
192,192,105879,1,0,0:0:0:0:
448,192,105973,1,0,0:0:0:0:
320,192,106066,1,0,0:0:0:0:
192,192,106066,1,0,0:0:0:0:
64,192,106066,1,0,0:0:0:0:
448,192,106159,1,0,0:0:0:0:
192,192,106253,1,0,0:0:0:0:
64,192,106253,1,0,0:0:0:0:
320,192,106346,1,0,0:0:0:0:
448,192,106439,1,0,0:0:0:0:
64,192,106439,1,0,0:0:0:0:
320,192,106533,1,0,0:0:0:0:
192,192,106626,1,0,0:0:0:0:
64,192,106626,1,0,0:0:0:0:
448,192,106719,1,0,0:0:0:0:
320,192,106719,1,0,0:0:0:0:
64,192,106813,1,0,0:0:0:0:
192,192,106813,1,0,0:0:0:0:
448,192,106906,1,0,0:0:0:0:
320,192,106906,1,0,0:0:0:0:
448,192,107000,1,0,0:0:0:0:
192,192,107000,1,0,0:0:0:0:
64,192,107000,1,0,0:0:0:0:
320,192,107186,1,0,0:0:0:0:
192,192,107373,5,0,0:0:0:0:
64,192,107560,1,0,0:0:0:0:
192,192,107747,1,0,0:0:0:0:
320,192,107933,1,0,0:0:0:0:
448,192,108120,1,0,0:0:0:0:
320,192,108307,1,0,0:0:0:0:
64,192,108494,5,0,0:0:0:0:
448,192,108494,1,0,0:0:0:0:
192,192,108494,1,0,0:0:0:0:
320,192,108587,1,0,0:0:0:0:
192,192,108587,1,0,0:0:0:0:
448,192,108680,1,0,0:0:0:0:
320,192,108680,1,0,0:0:0:0:
64,192,108680,1,0,0:0:0:0:
192,192,108774,1,0,0:0:0:0:
64,192,108774,1,0,0:0:0:0:
448,192,108867,1,0,0:0:0:0:
64,192,108867,1,0,0:0:0:0:
192,192,108867,1,0,0:0:0:0:
320,192,108867,1,0,0:0:0:0:
448,192,108960,1,0,0:0:0:0:
320,192,108960,1,0,0:0:0:0:
448,192,109054,1,0,0:0:0:0:
192,192,109054,1,0,0:0:0:0:
64,192,109054,1,0,0:0:0:0:
320,192,109147,1,0,0:0:0:0:
192,192,109147,1,0,0:0:0:0:
448,192,109240,1,0,0:0:0:0:
192,192,109240,1,0,0:0:0:0:
64,192,109240,1,0,0:0:0:0:
320,192,109240,1,0,0:0:0:0:
448,192,109334,1,0,0:0:0:0:
64,192,109334,1,0,0:0:0:0:
192,192,109427,1,0,0:0:0:0:
448,192,109427,1,0,0:0:0:0:
320,192,109427,1,0,0:0:0:0:
320,192,109521,1,0,0:0:0:0:
64,192,109521,1,0,0:0:0:0:
448,192,109614,1,0,0:0:0:0:
192,192,109614,1,0,0:0:0:0:
64,192,109614,1,0,0:0:0:0:
320,192,109707,1,0,0:0:0:0:
192,192,109707,1,0,0:0:0:0:
448,192,109801,1,0,0:0:0:0:
320,192,109801,1,0,0:0:0:0:
64,192,109801,1,0,0:0:0:0:
448,192,109894,1,0,0:0:0:0:
192,192,109894,1,0,0:0:0:0:
448,192,109987,1,0,0:0:0:0:
192,192,109987,1,0,0:0:0:0:
64,192,109987,1,0,0:0:0:0:
320,192,109987,1,0,0:0:0:0:
64,192,110081,1,0,0:0:0:0:
192,192,110081,1,0,0:0:0:0:
448,192,110174,1,0,0:0:0:0:
320,192,110174,1,0,0:0:0:0:
64,192,110174,1,0,0:0:0:0:
448,192,110268,1,0,0:0:0:0:
192,192,110268,1,0,0:0:0:0:
448,192,110361,1,0,0:0:0:0:
192,192,110361,1,0,0:0:0:0:
64,192,110361,1,0,0:0:0:0:
320,192,110361,1,0,0:0:0:0:
192,192,110454,1,0,0:0:0:0:
64,192,110454,1,0,0:0:0:0:
448,192,110548,1,0,0:0:0:0:
320,192,110548,1,0,0:0:0:0:
64,192,110548,1,0,0:0:0:0:
448,192,110641,1,0,0:0:0:0:
192,192,110641,1,0,0:0:0:0:
448,192,110734,1,0,0:0:0:0:
192,192,110734,1,0,0:0:0:0:
64,192,110734,1,0,0:0:0:0:
320,192,110734,1,0,0:0:0:0:
320,192,110828,1,0,0:0:0:0:
64,192,110828,1,0,0:0:0:0:
64,192,110921,1,0,0:0:0:0:
448,192,110921,1,0,0:0:0:0:
192,192,110921,1,0,0:0:0:0:
448,192,111015,1,0,0:0:0:0:
320,192,111015,1,0,0:0:0:0:
320,192,111108,1,0,0:0:0:0:
448,192,111108,1,0,0:0:0:0:
64,192,111108,1,0,0:0:0:0:
192,192,111108,1,0,0:0:0:0:
64,192,111201,1,0,0:0:0:0:
192,192,111201,1,0,0:0:0:0:
320,192,111295,1,0,0:0:0:0:
448,192,111295,1,0,0:0:0:0:
192,192,111295,1,0,0:0:0:0:
448,192,111388,1,0,0:0:0:0:
64,192,111388,1,0,0:0:0:0:
448,192,111481,1,0,0:0:0:0:
192,192,111481,1,0,0:0:0:0:
64,192,111481,1,0,0:0:0:0:
320,192,111481,1,0,0:0:0:0:
320,192,111575,1,0,0:0:0:0:
64,192,111575,1,0,0:0:0:0:
320,192,111668,1,0,0:0:0:0:
448,192,111668,1,0,0:0:0:0:
192,192,111668,1,0,0:0:0:0:
448,192,111761,1,0,0:0:0:0:
64,192,111761,1,0,0:0:0:0:
64,192,111855,1,0,0:0:0:0:
320,192,111855,1,0,0:0:0:0:
192,192,111855,1,0,0:0:0:0:
448,192,111948,1,0,0:0:0:0:
320,192,111948,1,0,0:0:0:0:
448,192,112042,1,0,0:0:0:0:
320,192,112042,1,0,0:0:0:0:
64,192,112042,1,0,0:0:0:0:
192,192,112042,1,0,0:0:0:0:
64,192,112135,1,0,0:0:0:0:
192,192,112135,1,0,0:0:0:0:
448,192,112228,1,0,0:0:0:0:
320,192,112228,1,0,0:0:0:0:
64,192,112228,1,0,0:0:0:0:
448,192,112322,1,0,0:0:0:0:
192,192,112322,1,0,0:0:0:0:
448,192,112415,1,0,0:0:0:0:
320,192,112415,1,0,0:0:0:0:
64,192,112415,1,0,0:0:0:0:
192,192,112508,1,0,0:0:0:0:
320,192,112508,1,0,0:0:0:0:
448,192,112602,1,0,0:0:0:0:
320,192,112602,1,0,0:0:0:0:
64,192,112602,1,0,0:0:0:0:
192,192,112602,1,0,0:0:0:0:
448,192,112695,1,0,0:0:0:0:
64,192,112695,1,0,0:0:0:0:
448,192,112789,1,0,0:0:0:0:
320,192,112789,1,0,0:0:0:0:
192,192,112789,1,0,0:0:0:0:
192,192,112882,1,0,0:0:0:0:
64,192,112882,1,0,0:0:0:0:
448,192,112975,1,0,0:0:0:0:
320,192,112975,1,0,0:0:0:0:
64,192,112975,1,0,0:0:0:0:
320,192,113069,1,0,0:0:0:0:
192,192,113069,1,0,0:0:0:0:
448,192,113162,1,0,0:0:0:0:
192,192,113162,1,0,0:0:0:0:
64,192,113162,1,0,0:0:0:0:
320,192,113255,1,0,0:0:0:0:
64,192,113255,1,0,0:0:0:0:
320,192,113349,1,0,0:0:0:0:
448,192,113349,1,0,0:0:0:0:
64,192,113349,1,0,0:0:0:0:
192,192,113349,1,0,0:0:0:0:
448,192,113442,1,0,0:0:0:0:
192,192,113442,1,0,0:0:0:0:
448,192,113536,1,0,0:0:0:0:
320,192,113536,1,0,0:0:0:0:
64,192,113536,1,0,0:0:0:0:
320,192,113629,1,0,0:0:0:0:
192,192,113629,1,0,0:0:0:0:
448,192,113722,1,0,0:0:0:0:
320,192,113722,1,0,0:0:0:0:
64,192,113722,1,0,0:0:0:0:
192,192,113722,1,0,0:0:0:0:
192,192,113816,1,0,0:0:0:0:
64,192,113816,1,0,0:0:0:0:
448,192,113909,1,0,0:0:0:0:
320,192,113909,1,0,0:0:0:0:
64,192,113909,1,0,0:0:0:0:
320,192,114002,1,0,0:0:0:0:
192,192,114002,1,0,0:0:0:0:
448,192,114096,1,0,0:0:0:0:
192,192,114096,1,0,0:0:0:0:
64,192,114096,1,0,0:0:0:0:
320,192,114189,1,0,0:0:0:0:
448,192,114189,1,0,0:0:0:0:
192,192,114283,1,0,0:0:0:0:
448,192,114283,1,0,0:0:0:0:
64,192,114283,1,0,0:0:0:0:
320,192,114283,1,0,0:0:0:0:
64,192,114376,1,0,0:0:0:0:
192,192,114376,1,0,0:0:0:0:
192,192,114469,1,0,0:0:0:0:
448,192,114469,1,0,0:0:0:0:
64,192,114469,1,0,0:0:0:0:
320,192,114469,1,0,0:0:0:0:
448,192,114563,1,0,0:0:0:0:
320,192,114563,1,0,0:0:0:0:
448,192,114656,1,0,0:0:0:0:
192,192,114656,1,0,0:0:0:0:
64,192,114656,1,0,0:0:0:0:
320,192,114749,1,0,0:0:0:0:
192,192,114749,1,0,0:0:0:0:
448,192,114843,1,0,0:0:0:0:
320,192,114843,1,0,0:0:0:0:
64,192,114843,1,0,0:0:0:0:
448,192,114936,1,0,0:0:0:0:
192,192,114936,1,0,0:0:0:0:
320,192,115029,1,0,0:0:0:0:
192,192,115029,1,0,0:0:0:0:
64,192,115029,1,0,0:0:0:0:
448,192,115123,1,0,0:0:0:0:
64,192,115123,1,0,0:0:0:0:
320,192,115216,1,0,0:0:0:0:
448,192,115216,1,0,0:0:0:0:
64,192,115216,1,0,0:0:0:0:
192,192,115216,1,0,0:0:0:0:
448,192,115310,1,0,0:0:0:0:
320,192,115310,1,0,0:0:0:0:
192,192,115403,1,0,0:0:0:0:
320,192,115403,1,0,0:0:0:0:
64,192,115403,1,0,0:0:0:0:
448,192,115496,1,0,0:0:0:0:
64,192,115496,1,0,0:0:0:0:
192,192,115590,1,0,0:0:0:0:
448,192,115590,1,0,0:0:0:0:
320,192,115590,1,0,0:0:0:0:
192,192,115683,1,0,0:0:0:0:
64,192,115683,1,0,0:0:0:0:
448,192,115776,1,0,0:0:0:0:
320,192,115776,1,0,0:0:0:0:
64,192,115776,1,0,0:0:0:0:
320,192,115870,1,0,0:0:0:0:
192,192,115870,1,0,0:0:0:0:
448,192,115963,1,0,0:0:0:0:
192,192,115963,1,0,0:0:0:0:
64,192,115963,1,0,0:0:0:0:
320,192,115963,1,0,0:0:0:0:
448,192,116057,1,0,0:0:0:0:
64,192,116057,1,0,0:0:0:0:
448,192,116150,1,0,0:0:0:0:
320,192,116150,1,0,0:0:0:0:
192,192,116150,1,0,0:0:0:0:
320,192,116243,1,0,0:0:0:0:
64,192,116243,1,0,0:0:0:0:
448,192,116337,1,0,0:0:0:0:
64,192,116337,1,0,0:0:0:0:
192,192,116337,1,0,0:0:0:0:
448,192,116430,1,0,0:0:0:0:
320,192,116430,1,0,0:0:0:0:
320,192,116523,1,0,0:0:0:0:
192,192,116523,1,0,0:0:0:0:
64,192,116523,1,0,0:0:0:0:
448,192,116617,1,0,0:0:0:0:
192,192,116617,1,0,0:0:0:0:
448,192,116710,1,0,0:0:0:0:
192,192,116710,1,0,0:0:0:0:
64,192,116710,1,0,0:0:0:0:
320,192,116710,1,0,0:0:0:0:
448,192,116804,1,0,0:0:0:0:
320,192,116804,1,0,0:0:0:0:
320,192,116897,1,0,0:0:0:0:
192,192,116897,1,0,0:0:0:0:
64,192,116897,1,0,0:0:0:0:
448,192,116990,1,0,0:0:0:0:
64,192,116990,1,0,0:0:0:0:
320,192,117084,1,0,0:0:0:0:
448,192,117084,1,0,0:0:0:0:
192,192,117084,1,0,0:0:0:0:
192,192,117177,1,0,0:0:0:0:
64,192,117177,1,0,0:0:0:0:
448,192,117270,1,0,0:0:0:0:
320,192,117270,1,0,0:0:0:0:
64,192,117270,1,0,0:0:0:0:
320,192,117364,1,0,0:0:0:0:
192,192,117364,1,0,0:0:0:0:
448,192,117457,1,0,0:0:0:0:
192,192,117457,1,0,0:0:0:0:
64,192,117457,1,0,0:0:0:0:
320,192,117457,1,0,0:0:0:0:
192,192,117550,1,0,0:0:0:0:
64,192,117550,1,0,0:0:0:0:
448,192,117644,1,0,0:0:0:0:
320,192,117644,1,0,0:0:0:0:
64,192,117644,1,0,0:0:0:0:
192,192,117737,1,0,0:0:0:0:
320,192,117737,1,0,0:0:0:0:
448,192,117831,1,0,0:0:0:0:
320,192,117831,1,0,0:0:0:0:
64,192,117831,1,0,0:0:0:0:
192,192,117831,1,0,0:0:0:0:
448,192,117924,1,0,0:0:0:0:
64,192,117924,1,0,0:0:0:0:
192,192,118017,1,0,0:0:0:0:
448,192,118017,1,0,0:0:0:0:
320,192,118017,1,0,0:0:0:0:
320,192,118111,1,0,0:0:0:0:
64,192,118111,1,0,0:0:0:0:
64,192,118204,1,0,0:0:0:0:
448,192,118204,1,0,0:0:0:0:
192,192,118204,1,0,0:0:0:0:
320,192,118297,1,0,0:0:0:0:
448,192,118297,1,0,0:0:0:0:
320,192,118391,1,0,0:0:0:0:
192,192,118391,1,0,0:0:0:0:
64,192,118391,1,0,0:0:0:0:
448,192,118484,1,0,0:0:0:0:
192,192,118484,1,0,0:0:0:0:
448,192,118578,1,0,0:0:0:0:
192,192,118578,1,0,0:0:0:0:
64,192,118578,1,0,0:0:0:0:
320,192,118578,1,0,0:0:0:0:
448,192,118671,1,0,0:0:0:0:
320,192,118671,1,0,0:0:0:0:
320,192,118764,1,0,0:0:0:0:
64,192,118764,1,0,0:0:0:0:
192,192,118764,1,0,0:0:0:0:
448,192,118858,1,0,0:0:0:0:
192,192,118858,1,0,0:0:0:0:
320,192,118951,1,0,0:0:0:0:
448,192,118951,1,0,0:0:0:0:
64,192,118951,1,0,0:0:0:0:
192,192,118951,1,0,0:0:0:0:
320,192,119044,1,0,0:0:0:0:
64,192,119044,1,0,0:0:0:0:
192,192,119138,1,0,0:0:0:0:
320,192,119138,1,0,0:0:0:0:
448,192,119138,1,0,0:0:0:0:
192,192,119231,1,0,0:0:0:0:
64,192,119231,1,0,0:0:0:0:
320,192,119325,1,0,0:0:0:0:
448,192,119325,1,0,0:0:0:0:
64,192,119325,1,0,0:0:0:0:
192,192,119325,1,0,0:0:0:0:
448,192,119418,1,0,0:0:0:0:
320,192,119418,1,0,0:0:0:0:
448,192,119511,1,0,0:0:0:0:
192,192,119511,1,0,0:0:0:0:
64,192,119511,1,0,0:0:0:0:
320,192,119605,1,0,0:0:0:0:
64,192,119605,1,0,0:0:0:0:
448,192,119698,1,0,0:0:0:0:
320,192,119698,1,0,0:0:0:0:
192,192,119698,1,0,0:0:0:0:
192,192,119791,1,0,0:0:0:0:
64,192,119791,1,0,0:0:0:0:
320,192,119885,1,0,0:0:0:0:
448,192,119885,1,0,0:0:0:0:
64,192,119885,1,0,0:0:0:0:
192,192,119885,1,0,0:0:0:0:
448,192,119978,1,0,0:0:0:0:
64,192,119978,1,0,0:0:0:0:
320,192,120071,1,0,0:0:0:0:
448,192,120071,1,0,0:0:0:0:
64,192,120071,1,0,0:0:0:0:
192,192,120071,1,0,0:0:0:0:
192,192,120165,1,0,0:0:0:0:
64,192,120165,1,0,0:0:0:0:
320,192,120258,1,0,0:0:0:0:
448,192,120258,1,0,0:0:0:0:
64,192,120258,1,0,0:0:0:0:
192,192,120258,1,0,0:0:0:0:
448,192,120352,1,0,0:0:0:0:
320,192,120352,1,0,0:0:0:0:
320,192,120445,1,0,0:0:0:0:
448,192,120445,1,0,0:0:0:0:
64,192,120445,1,0,0:0:0:0:
192,192,120445,1,0,0:0:0:0:
64,192,120538,1,0,0:0:0:0:
192,192,120538,1,0,0:0:0:0:
448,192,120632,1,0,0:0:0:0:
320,192,120632,1,0,0:0:0:0:
64,192,120632,1,0,0:0:0:0:
320,192,120725,1,0,0:0:0:0:
192,192,120725,1,0,0:0:0:0:
448,192,120818,1,0,0:0:0:0:
192,192,120818,1,0,0:0:0:0:
64,192,120818,1,0,0:0:0:0:
448,192,120912,1,0,0:0:0:0:
320,192,120912,1,0,0:0:0:0:
320,192,121005,1,0,0:0:0:0:
192,192,121005,1,0,0:0:0:0:
64,192,121005,1,0,0:0:0:0:
448,192,121099,1,0,0:0:0:0:
192,192,121099,1,0,0:0:0:0:
448,192,121192,1,0,0:0:0:0:
192,192,121192,1,0,0:0:0:0:
64,192,121192,1,0,0:0:0:0:
320,192,121192,1,0,0:0:0:0:
320,192,121285,1,0,0:0:0:0:
64,192,121285,1,0,0:0:0:0:
448,192,121379,1,0,0:0:0:0:
320,192,121379,1,0,0:0:0:0:
192,192,121379,1,0,0:0:0:0:
192,192,121472,1,0,0:0:0:0:
64,192,121472,1,0,0:0:0:0:
448,192,121565,1,0,0:0:0:0:
320,192,121565,1,0,0:0:0:0:
64,192,121565,1,0,0:0:0:0:
320,192,121659,1,0,0:0:0:0:
192,192,121659,1,0,0:0:0:0:
192,192,121752,1,0,0:0:0:0:
64,192,121752,1,0,0:0:0:0:
448,192,121752,1,0,0:0:0:0:
448,192,121846,1,0,0:0:0:0:
320,192,121846,1,0,0:0:0:0:
320,192,121939,1,0,0:0:0:0:
448,192,121939,1,0,0:0:0:0:
64,192,121939,1,0,0:0:0:0:
192,192,121939,1,0,0:0:0:0:
64,192,122032,1,0,0:0:0:0:
192,192,122032,1,0,0:0:0:0:
448,192,122126,1,0,0:0:0:0:
320,192,122126,1,0,0:0:0:0:
64,192,122126,1,0,0:0:0:0:
320,192,122219,1,0,0:0:0:0:
192,192,122219,1,0,0:0:0:0:
320,192,122312,1,0,0:0:0:0:
448,192,122312,1,0,0:0:0:0:
64,192,122312,1,0,0:0:0:0:
192,192,122312,1,0,0:0:0:0:
192,192,122406,1,0,0:0:0:0:
64,192,122406,1,0,0:0:0:0:
448,192,122499,1,0,0:0:0:0:
320,192,122499,1,0,0:0:0:0:
64,192,122499,1,0,0:0:0:0:
320,192,122592,1,0,0:0:0:0:
192,192,122592,1,0,0:0:0:0:
448,192,122686,1,0,0:0:0:0:
192,192,122686,1,0,0:0:0:0:
64,192,122686,1,0,0:0:0:0:
320,192,122686,1,0,0:0:0:0:
448,192,122779,1,0,0:0:0:0:
192,192,122779,1,0,0:0:0:0:
448,192,122873,1,0,0:0:0:0:
320,192,122873,1,0,0:0:0:0:
64,192,122873,1,0,0:0:0:0:
64,192,122966,1,0,0:0:0:0:
192,192,122966,1,0,0:0:0:0:
64,192,123059,1,0,0:0:0:0:
192,192,123059,1,0,0:0:0:0:
320,192,123059,1,0,0:0:0:0:
448,192,123059,1,0,0:0:0:0:
448,192,123153,1,0,0:0:0:0:
320,192,123153,1,0,0:0:0:0:
448,192,123246,1,0,0:0:0:0:
192,192,123246,1,0,0:0:0:0:
64,192,123246,1,0,0:0:0:0:
320,192,123339,1,0,0:0:0:0:
192,192,123339,1,0,0:0:0:0:
448,192,123433,1,0,0:0:0:0:
192,192,123433,1,0,0:0:0:0:
64,192,123433,1,0,0:0:0:0:
320,192,123433,1,0,0:0:0:0:
448,192,123526,1,0,0:0:0:0:
64,192,123526,1,0,0:0:0:0:
448,192,123620,1,0,0:0:0:0:
320,192,123620,1,0,0:0:0:0:
192,192,123620,1,0,0:0:0:0:
320,192,123713,1,0,0:0:0:0:
64,192,123713,1,0,0:0:0:0:
320,192,123806,1,0,0:0:0:0:
448,192,123806,1,0,0:0:0:0:
192,192,123806,1,0,0:0:0:0:
192,192,123900,1,0,0:0:0:0:
64,192,123900,1,0,0:0:0:0:
320,192,123993,1,0,0:0:0:0:
448,192,123993,1,0,0:0:0:0:
64,192,123993,1,0,0:0:0:0:
192,192,123993,1,0,0:0:0:0:
448,192,124086,1,0,0:0:0:0:
320,192,124086,1,0,0:0:0:0:
192,192,124180,1,0,0:0:0:0:
448,192,124180,1,0,0:0:0:0:
64,192,124180,1,0,0:0:0:0:
320,192,124273,1,0,0:0:0:0:
192,192,124273,1,0,0:0:0:0:
448,192,124367,1,0,0:0:0:0:
320,192,124367,1,0,0:0:0:0:
64,192,124367,1,0,0:0:0:0:
64,192,124460,1,0,0:0:0:0:
192,192,124460,1,0,0:0:0:0:
320,192,124553,1,0,0:0:0:0:
448,192,124553,1,0,0:0:0:0:
64,192,124553,1,0,0:0:0:0:
192,192,124553,1,0,0:0:0:0:
448,192,124647,1,0,0:0:0:0:
320,192,124647,1,0,0:0:0:0:
448,192,124740,1,0,0:0:0:0:
192,192,124740,1,0,0:0:0:0:
64,192,124740,1,0,0:0:0:0:
192,192,124833,1,0,0:0:0:0:
320,192,124833,1,0,0:0:0:0:
448,192,124927,1,0,0:0:0:0:
320,192,124927,1,0,0:0:0:0:
64,192,124927,1,0,0:0:0:0:
448,192,125020,1,0,0:0:0:0:
192,192,125020,1,0,0:0:0:0:
320,192,125114,1,0,0:0:0:0:
192,192,125114,1,0,0:0:0:0:
64,192,125114,1,0,0:0:0:0:
320,192,125207,1,0,0:0:0:0:
448,192,125207,1,0,0:0:0:0:
320,192,125300,1,0,0:0:0:0:
448,192,125300,1,0,0:0:0:0:
64,192,125300,1,0,0:0:0:0:
192,192,125300,1,0,0:0:0:0:
192,192,125394,1,0,0:0:0:0:
64,192,125394,1,0,0:0:0:0:
448,192,125487,1,0,0:0:0:0:
320,192,125487,1,0,0:0:0:0:
64,192,125487,1,0,0:0:0:0:
320,192,125580,1,0,0:0:0:0:
192,192,125580,1,0,0:0:0:0:
448,192,125674,1,0,0:0:0:0:
320,192,125674,1,0,0:0:0:0:
64,192,125674,1,0,0:0:0:0:
192,192,125674,1,0,0:0:0:0:
64,192,125767,1,0,0:0:0:0:
192,192,125767,1,0,0:0:0:0:
448,192,125860,1,0,0:0:0:0:
320,192,125860,1,0,0:0:0:0:
64,192,125860,1,0,0:0:0:0:
320,192,125954,1,0,0:0:0:0:
192,192,125954,1,0,0:0:0:0:
320,192,126047,1,0,0:0:0:0:
448,192,126047,1,0,0:0:0:0:
64,192,126047,1,0,0:0:0:0:
192,192,126047,1,0,0:0:0:0:
448,192,126141,1,0,0:0:0:0:
192,192,126141,1,0,0:0:0:0:
448,192,126234,1,0,0:0:0:0:
320,192,126234,1,0,0:0:0:0:
64,192,126234,1,0,0:0:0:0:
64,192,126327,1,0,0:0:0:0:
192,192,126327,1,0,0:0:0:0:
320,192,126421,1,0,0:0:0:0:
448,192,126421,1,0,0:0:0:0:
64,192,126421,1,0,0:0:0:0:
192,192,126421,1,0,0:0:0:0:
448,192,126514,1,0,0:0:0:0:
64,192,126607,1,0,0:0:0:0:
192,192,126607,1,0,0:0:0:0:
320,192,126701,1,0,0:0:0:0:
448,192,126794,1,0,0:0:0:0:
64,192,126794,1,0,0:0:0:0:
192,192,126888,1,0,0:0:0:0:
320,192,126981,1,0,0:0:0:0:
448,192,126981,1,0,0:0:0:0:
64,192,127074,1,0,0:0:0:0:
320,192,127168,1,0,0:0:0:0:
448,192,127168,1,0,0:0:0:0:
192,192,127168,1,0,0:0:0:0:
64,192,127261,1,0,0:0:0:0:
448,192,127354,1,0,0:0:0:0:
192,192,127354,1,0,0:0:0:0:
320,192,127448,1,0,0:0:0:0:
64,192,127541,1,0,0:0:0:0:
192,192,127541,1,0,0:0:0:0:
448,192,127635,1,0,0:0:0:0:
64,192,127728,1,0,0:0:0:0:
320,192,127728,1,0,0:0:0:0:
192,192,127821,1,0,0:0:0:0:
64,192,127915,1,0,0:0:0:0:
448,192,127915,1,0,0:0:0:0:
320,192,127915,1,0,0:0:0:0:
192,192,128008,1,0,0:0:0:0:
448,192,128101,1,0,0:0:0:0:
320,192,128101,1,0,0:0:0:0:
64,192,128195,1,0,0:0:0:0:
448,192,128288,1,0,0:0:0:0:
192,192,128288,1,0,0:0:0:0:
320,192,128381,1,0,0:0:0:0:
64,192,128475,1,0,0:0:0:0:
192,192,128475,1,0,0:0:0:0:
448,192,128568,1,0,0:0:0:0:
64,192,128662,1,0,0:0:0:0:
192,192,128662,1,0,0:0:0:0:
320,192,128662,1,0,0:0:0:0:
448,192,128755,1,0,0:0:0:0:
64,192,128848,1,0,0:0:0:0:
320,192,128848,1,0,0:0:0:0:
192,192,128942,1,0,0:0:0:0:
448,192,129035,1,0,0:0:0:0:
320,192,129035,1,0,0:0:0:0:
192,192,129128,1,0,0:0:0:0:
64,192,129128,1,0,0:0:0:0:
320,192,129222,1,0,0:0:0:0:
448,192,129222,1,0,0:0:0:0:
64,192,129315,1,0,0:0:0:0:
192,192,129315,1,0,0:0:0:0:
448,192,129409,1,0,0:0:0:0:
320,192,129409,1,0,0:0:0:0:
64,192,129409,1,0,0:0:0:0:
320,192,129502,1,0,0:0:0:0:
192,192,129502,1,0,0:0:0:0:
448,192,129595,1,0,0:0:0:0:
192,192,129595,1,0,0:0:0:0:
64,192,129595,1,0,0:0:0:0:
448,192,129689,1,0,0:0:0:0:
320,192,129689,1,0,0:0:0:0:
320,192,129782,1,0,0:0:0:0:
192,192,129782,1,0,0:0:0:0:
64,192,129782,1,0,0:0:0:0:
448,192,129875,1,0,0:0:0:0:
64,192,129875,1,0,0:0:0:0:
64,192,129969,1,0,0:0:0:0:
448,192,129969,1,0,0:0:0:0:
320,192,129969,1,0,0:0:0:0:
192,192,129969,1,0,0:0:0:0:
448,192,130062,1,0,0:0:0:0:
320,192,130062,1,0,0:0:0:0:
320,192,130156,1,0,0:0:0:0:
192,192,130156,1,0,0:0:0:0:
64,192,130156,1,0,0:0:0:0:
448,192,130249,1,0,0:0:0:0:
64,192,130249,1,0,0:0:0:0:
192,192,130342,1,0,0:0:0:0:
448,192,130342,1,0,0:0:0:0:
320,192,130342,1,0,0:0:0:0:
192,192,130436,1,0,0:0:0:0:
64,192,130436,1,0,0:0:0:0:
320,192,130529,1,0,0:0:0:0:
448,192,130529,1,0,0:0:0:0:
64,192,130529,1,0,0:0:0:0:
192,192,130529,1,0,0:0:0:0:
448,192,130622,1,0,0:0:0:0:
320,192,130622,1,0,0:0:0:0:
448,192,130716,1,0,0:0:0:0:
192,192,130716,1,0,0:0:0:0:
64,192,130716,1,0,0:0:0:0:
192,192,130809,1,0,0:0:0:0:
320,192,130809,1,0,0:0:0:0:
320,192,130902,1,0,0:0:0:0:
448,192,130902,1,0,0:0:0:0:
64,192,130902,1,0,0:0:0:0:
192,192,130902,1,0,0:0:0:0:
64,192,131276,1,0,0:0:0:0:
192,192,131649,1,0,0:0:0:0:
320,192,132023,1,0,0:0:0:0:
64,192,132396,1,0,0:0:0:0:
192,192,132396,1,0,0:0:0:0:
448,192,132396,1,0,0:0:0:0:
320,192,132583,1,0,0:0:0:0:
192,192,132770,1,0,0:0:0:0:
448,192,133143,1,0,0:0:0:0:
320,192,133143,1,0,0:0:0:0:
64,192,133143,1,0,0:0:0:0:
320,192,133890,1,0,0:0:0:0:
192,192,133890,1,0,0:0:0:0:
64,192,133890,1,0,0:0:0:0:
448,192,134264,1,0,0:0:0:0:
320,192,134264,1,0,0:0:0:0:
64,192,134264,1,0,0:0:0:0:
320,192,134637,1,0,0:0:0:0:
192,192,134637,1,0,0:0:0:0:
448,192,134637,1,0,0:0:0:0:
64,192,135011,1,0,0:0:0:0:
192,192,135011,1,0,0:0:0:0:
448,192,135011,1,0,0:0:0:0:
448,192,135384,1,0,0:0:0:0:
320,192,135384,1,0,0:0:0:0:
64,192,135384,1,0,0:0:0:0:
192,192,135571,1,0,0:0:0:0:
320,192,135758,1,0,0:0:0:0:
448,192,135945,1,0,0:0:0:0:
64,192,135945,1,0,0:0:0:0:
192,192,135945,1,0,0:0:0:0:
192,192,136878,1,0,0:0:0:0:
448,192,136878,1,0,0:0:0:0:
192,192,137065,1,0,0:0:0:0:
64,192,137065,1,0,0:0:0:0:
448,192,137252,1,0,0:0:0:0:
320,192,137252,1,0,0:0:0:0:
64,192,137252,1,0,0:0:0:0:
320,192,137438,1,0,0:0:0:0:
192,192,137438,1,0,0:0:0:0:
64,192,137625,1,0,0:0:0:0:
448,192,137625,1,0,0:0:0:0:
192,192,137625,1,0,0:0:0:0:
448,192,137812,1,0,0:0:0:0:
320,192,137812,1,0,0:0:0:0:
64,192,137999,1,0,0:0:0:0:
192,192,137999,1,0,0:0:0:0:
448,192,138185,1,0,0:0:0:0:
320,192,138185,1,0,0:0:0:0:
448,192,138372,1,0,0:0:0:0:
192,192,138372,1,0,0:0:0:0:
64,192,138372,1,0,0:0:0:0:
320,192,138559,1,0,0:0:0:0:
192,192,138746,1,0,0:0:0:0:
64,192,139119,1,0,0:0:0:0:
448,192,139119,1,0,0:0:0:0:
320,192,139119,1,0,0:0:0:0:
448,192,139866,1,0,0:0:0:0:
320,192,139866,1,0,0:0:0:0:
64,192,139866,1,0,0:0:0:0:
192,192,140053,1,0,0:0:0:0:
320,192,140240,1,0,0:0:0:0:
448,192,140613,1,0,0:0:0:0:
192,192,140613,1,0,0:0:0:0:
64,192,140613,1,0,0:0:0:0:
448,192,141360,1,0,0:0:0:0:
192,192,141360,1,0,0:0:0:0:
