osu file format v14

[General]
AudioFilename: audio.mp3
AudioLeadIn: 0
PreviewTime: 13557
Countdown: 0
SampleSet: None
StackLeniency: 0.2
Mode: 0
LetterboxInBreaks: 0
WidescreenStoryboard: 1

[Editor]
Bookmarks: 842,13557,38987,51702
DistanceSpacing: 1
BeatDivisor: 4
GridSize: 32
TimelineZoom: 1.4

[Metadata]
Title:Sudden Death
TitleUnicode:Sudden Death
Artist:3R2
ArtistUnicode:3R2
Creator:Settia
Version:Casual_old
Source:Rabi-Ribi
Tags:Rabi Ribi ăƒ©ăƒ“ăƒȘビ Leaf Tsumia
BeatmapID:2320451
BeatmapSetID:605109

[Difficulty]
HPDrainRate:0
CircleSize:3.5
OverallDifficulty:9
ApproachRate:10
SliderMultiplier:3.59999990463257
SliderTickRate:1

[Events]
//Background and Video events
0,0,"bg.jpg",0,0
//Break Periods
//Storyboard Layer 0 (Background)
//Storyboard Layer 1 (Fail)
//Storyboard Layer 2 (Pass)
//Storyboard Layer 3 (Foreground)
//Storyboard Layer 4 (Overlay)
//Storyboard Sound Samples

[TimingPoints]
842,397.350993377483,4,2,1,70,1,0

[HitObjects]
92,205,13557,5,6,0:0:0:0:
113,118,13656,1,0,0:0:0:0:
71,292,13755,1,0,0:0:0:0:
175,175,13855,2,0,P|155:138|107:117,2,89.9999976158143,2|8|0,0:0|0:0|0:0,0:0:0:0:
243,307,14153,1,2,0:0:0:0:
71,292,14252,2,0,B|184:253|154:341|265:301,1,179.999995231629,8|8,3:0|3:0,0:0:0:0:
340,271,14550,1,2,0:0:0:0:
344,292,14649,1,2,0:0:0:0:
254,146,14749,2,0,L|343:156,1,89.9999976158142,8|0,0:0|1:0,0:0:0:0:
432,191,14947,2,0,L|343:181,1,89.9999976158142,0|2,0:0|0:0,0:0:0:0:
224,326,15146,6,0,P|211:284|224:242,1,89.9999976158142,2|0,0:0|0:0,0:0:0:0:
458,105,15345,1,0,0:0:0:0:
432,191,15444,2,0,L|336:180,1,89.9999976158143,2|8,0:0|0:0,0:0:0:0:
108,250,15643,1,0,0:0:0:0:
134,336,15742,2,0,L|230:325,1,89.9999976158143,2|8,0:0|0:3,0:0:0:0:
469,332,15941,1,0,0:0:0:0:
325,314,16040,1,8,0:3:0:0:
453,244,16140,1,2,0:0:0:0:
392,378,16239,1,0,0:0:0:0:
364,232,16338,2,0,P|352:185|367:141,1,89.9999976158143,8|2,0:0|0:0,0:0:0:0:
394,23,16537,2,0,P|452:69|455:128,1,134.999996423721,0|0,0:0|0:0,0:0:0:0:
453,153,16736,6,0,L|360:146,1,89.9999976158142,2|0,0:0|0:0,0:0:0:0:
207,129,16934,1,0,0:0:0:0:
209,220,17034,2,0,P|257:209|292:174,2,89.9999976158142,2|8|0,0:0|0:0|0:0,0:0:0:0:
101,347,17332,1,2,0:0:0:0:
60,269,17431,2,0,B|176:251|139:320|247:301,1,179.999995231628,8|8,0:3|0:3,0:0:0:0:
345,267,17729,1,2,0:0:0:0:
324,353,17828,1,0,0:0:0:0:
297,205,17928,2,0,P|343:189|392:203,1,89.9999976158142,8|2,0:0|0:0,0:0:0:0:
479,278,18126,2,0,L|345:267,1,134.999996423721,0|0,0:0|0:0,0:0:0:0:
196,255,18325,5,2,0:0:0:0:
211,166,18424,1,0,0:0:0:0:
230,77,18524,1,0,0:0:0:0:
300,175,18623,2,0,L|195:164,1,89.9999976158143,2|8,0:0|0:0,0:0:0:0:
52,143,18822,1,0,0:0:0:0:
85,68,18921,2,0,P|125:105|131:158,1,89.9999976158143,0|8,0:0|0:3,0:0:0:0:
140,360,19120,1,0,0:0:0:0:
51,330,19219,1,8,0:3:0:0:
51,238,19318,1,2,0:0:0:0:
140,210,19418,1,0,0:0:0:0:
193,284,19517,2,0,P|239:303|286:283,2,89.9999976158143,8|2|0,0:0|0:0|0:0,0:0:0:0:
140,210,19815,1,0,0:0:0:0:
264,380,19914,6,0,L|276:286,1,89.9999976158142,6|0,0:0|0:0,0:0:0:0:
302,77,20113,1,0,0:0:0:0:
402,242,20212,1,2,0:0:0:0:
461,168,20312,2,0,P|408:145|362:154,2,89.9999976158143,8|0|2,0:0|0:0|0:0,0:0:0:0:
377,356,20610,2,0,B|268:352|268:352|278:276,1,179.999995231628,8|8,3:0|3:0,0:0:0:0:
302,77,20908,1,2,0:0:0:0:
287,179,21007,1,2,0:0:0:0:
218,81,21106,2,0,P|235:27|262:3,1,89.9999976158142,8|0,0:0|1:0,0:0:0:0:
287,179,21305,2,0,B|223:204|223:204|146:171,1,134.999996423721,0|0,0:0|0:0,0:0:0:0:
89,101,21504,6,0,L|0:113,2,89.9999976158143,2|0|0,0:0|0:0|0:0,0:0:0:0:
218,81,21802,1,2,0:0:0:0:
162,177,21901,2,0,P|139:227|163:290,1,89.9999976158142,8|0,0:0|0:0,0:0:0:0:
65,291,22100,1,2,0:0:0:0:
30,204,22199,1,8,0:3:0:0:
103,372,22298,1,0,0:0:0:0:
185,334,22398,1,8,0:3:0:0:
266,297,22497,1,2,0:0:0:0:
347,260,22596,1,0,0:0:0:0:
284,380,22696,2,0,P|261:330|285:267,1,89.9999976158142,8|2,0:0|0:0,0:0:0:0:
409,140,22894,2,0,P|432:190|408:253,1,89.9999976158142,0|0,0:0|0:0,0:0:0:0:
511,335,23093,6,0,L|418:330,1,89.9999976158143,2|0,0:0|0:0,0:0:0:0:
265,296,23292,1,0,0:0:0:0:
344,320,23391,1,2,0:0:0:0:
283,379,23491,2,0,P|260:329|284:266,1,89.9999976158142,8|0,0:0|0:0,0:0:0:0:
324,118,23689,1,2,0:0:0:0:
205,203,23789,2,0,L|392:217,1,179.999995231629,8|8,3:0|3:0,0:0:0:0:
479,333,24087,2,0,P|486:288|466:232,1,89.9999976158143,2|2,0:0|0:0,0:0:0:0:
512,179,24285,2,0,P|499:138|450:104,1,89.9999976158143,8|0,0:0|1:0,0:0:0:0:
464,30,24484,2,0,P|424:8|365:8,1,89.9999976158143,0|2,0:0|0:0,0:0:0:0:
324,118,24683,5,2,0:0:0:0:
387,181,24782,1,0,0:0:0:0:
300,204,24882,5,0,0:0:0:0:
300,293,24981,1,2,0:0:0:0:
222,247,25081,5,8,0:0:0:0:
159,309,25180,1,0,0:0:0:0:
136,222,25279,5,2,0:0:0:0:
47,221,25379,1,8,0:3:0:0:
102,370,25477,6,0,P|141:349|158:309,1,89.9999976158143,0|8,0:0|0:3,0:0:0:0:
92,144,25676,1,2,0:0:0:0:
217,167,25775,1,0,0:0:0:0:
80,135,25875,1,8,0:0:0:0:
228,175,25974,1,2,0:0:0:0:
67,67,26073,2,0,P|27:87|10:127,1,89.9999976158143,0|0,0:0|0:0,0:0:0:0:
172,334,26272,6,0,L|280:317,1,89.9999976158143,6|0,0:0|0:0,0:0:0:0:
391,303,26471,1,0,0:0:0:0:
396,222,26570,2,0,P|343:236|319:264,2,89.9999976158143,2|8|0,0:0|0:0|0:0,0:0:0:0:
405,143,26868,1,2,0:0:0:0:
512,357,26967,2,0,B|450:351|450:351|408:385|408:385|317:377,1,179.999995231629,8|8,3:0|3:0,0:0:0:0:
246,273,27265,1,2,0:0:0:0:
253,302,27365,1,2,0:0:0:0:
177,384,27464,2,0,L|162:295,1,89.9999976158143,8|0,0:0|1:0,0:0:0:0:
94,136,27663,2,0,B|57:168|57:168|75:282,1,134.999996423721,0|0,0:0|0:0,0:0:0:0:
162,295,27861,6,0,L|147:206,1,89.9999976158143,2|0,0:0|0:0,0:0:0:0:
247,98,28060,1,0,0:0:0:0:
207,25,28159,2,0,P|166:76|165:111,1,89.9999976158143,2|8,0:0|0:0,0:0:0:0:
312,188,28358,1,0,0:0:0:0:
335,82,28457,2,0,L|235:99,1,89.9999976158143,2|8,0:0|0:3,0:0:0:0:
162,295,28656,1,0,0:0:0:0:
224,358,28755,1,8,0:3:0:0:
269,280,28855,1,2,0:0:0:0:
322,351,28954,1,0,0:0:0:0:
364,271,29053,2,0,P|395:234|402:181,1,89.9999976158143,8|2,0:0|0:0,0:0:0:0:
246,97,29252,2,0,P|215:134|208:187,1,89.9999976158143,0|0,0:0|0:0,0:0:0:0:
322,351,29451,6,0,L|419:342,2,89.9999976158143,2|0|0,0:0|0:0|0:0,0:0:0:0:
162,295,29749,1,2,0:0:0:0:
224,358,29848,2,0,P|253:310|253:260,1,89.9999976158143,8|0,0:0|0:0,0:0:0:0:
246,97,30047,1,2,0:0:0:0:
94,147,30146,2,0,B|207:128|173:205|279:180,1,179.999995231629,8|8,0:3|0:3,0:0:0:0:
409,135,30444,1,2,0:0:0:0:
328,114,30543,1,0,0:0:0:0:
408,219,30643,2,0,P|422:178|397:122,1,89.9999976158143,8|2,0:0|0:0,0:0:0:0:
327,3,30841,2,0,P|275:28|246:104,1,134.999996423721,0|0,0:0|0:0,0:0:0:0:
229,230,31040,5,2,0:0:0:0:
319,224,31140,1,0,0:0:0:0:
408,219,31239,1,0,0:0:0:0:
318,308,31338,2,0,P|304:265|318:223,1,89.9999976158143,2|8,0:0|0:0,0:0:0:0:
408,134,31537,1,0,0:0:0:0:
408,134,31636,2,0,P|422:176|408:219,1,89.9999976158143,0|8,0:0|0:3,0:0:0:0:
117,326,31835,1,0,0:0:0:0:
84,239,31934,1,8,0:3:0:0:
152,181,32034,1,2,0:0:0:0:
229,230,32133,1,0,0:0:0:0:
207,316,32232,2,0,L|109:328,2,89.9999976158143,8|2|0,0:0|0:0|0:0,0:0:0:0:
257,142,32530,1,0,0:0:0:0:
257,377,32630,6,0,P|281:345|281:277,1,89.9999976158143,2|0,0:0|0:0,0:0:0:0:
152,181,32828,1,0,0:0:0:0:
207,316,32928,1,2,0:0:0:0:
84,239,33027,1,8,0:0:0:0:
229,230,33126,1,0,0:0:0:0:
117,326,33226,1,2,0:0:0:0:
57,193,33325,2,0,B|168:179|136:250|249:225,1,179.999995231629,8|8,3:0|3:0,0:0:0:0:
344,140,33623,1,2,0:0:0:0:
364,316,33722,1,2,0:0:0:0:
429,149,33822,2,0,P|385:131|332:149,1,89.9999976158143,8|0,0:0|1:0,0:0:0:0:
229,326,34020,2,0,L|386:314,1,134.999996423721,0|0,0:0|0:0,0:0:0:0:
467,335,34219,6,0,L|358:333,1,89.9999976158143,2|0,0:0|0:0,0:0:0:0:
229,230,34418,1,0,0:0:0:0:
229,326,34517,2,0,P|278:317|311:279,1,89.9999976158143,2|8,0:0|0:0,0:0:0:0:
305,186,34716,1,0,0:0:0:0:
230,147,34815,2,0,B|211:193|211:193|237:248,1,89.9999976158143,2|8,0:0|0:3,0:0:0:0:
448,195,35014,1,0,0:0:0:0:
426,105,35113,1,8,0:3:0:0:
336,102,35212,1,2,0:0:0:0:
305,186,35312,1,0,0:0:0:0:
377,242,35411,2,0,P|424:226|454:183,2,89.9999976158143,8|2|0,0:0|0:0|0:0,0:0:0:0:
229,326,35709,1,0,0:0:0:0:
305,377,35808,6,0,P|322:318|298:265,1,89.9999976158143,2|0,0:0|0:0,0:0:0:0:
172,123,36007,1,0,0:0:0:0:
139,241,36106,2,0,L|245:227,2,89.9999976158143,2|8|0,0:0|0:0|0:0,0:0:0:0:
305,186,36404,1,2,0:0:0:0:
104,317,36504,2,0,P|59:262|104:165,1,179.999995231629,8|8,3:0|3:0,0:0:0:0:
172,123,36802,5,2,0:0:0:0:
139,241,36901,1,0,0:0:0:0:
377,182,37000,5,8,0:0:0:0:
172,123,37099,1,2,0:0:0:0:
343,301,37199,5,0,0:0:0:0:
291,93,37298,1,0,0:0:0:0:
139,241,37398,5,6,0:0:0:0:
377,182,37497,1,8,0:3:0:0:
377,182,37596,1,8,0:3:0:0:
377,182,37696,1,10,0:3:0:0:
377,182,37795,1,8,0:3:0:0:
377,182,37894,1,8,0:3:0:0:
377,182,37994,1,10,0:3:0:0:
377,182,38093,1,8,0:3:0:0:
377,182,38192,1,8,0:3:0:0:
343,301,38292,6,0,L|330:358,2,44.9999988079071,10|8|8,0:3|0:3|0:3,0:0:0:0:
403,91,38491,1,10,0:3:0:0:
483,210,38590,5,10,0:3:0:0:
377,182,38689,1,10,0:3:0:0:
271,155,38789,1,10,0:3:0:0:
166,129,38888,1,10,0:3:0:0:
222,224,38987,6,0,P|259:194|270:141,1,89.9999976158143,6|0,0:0|0:0,0:0:0:0:
116,43,39186,2,0,P|79:73|68:126,1,89.9999976158143,0|2,0:0|0:0,0:0:0:0:
114,350,39385,1,8,0:0:0:0:
73,271,39484,2,0,B|190:251|150:325|270:304,1,179.999995231629,0|8,0:0|3:0,0:0:0:0:
471,257,39782,1,0,0:0:0:0:
343,301,39881,1,8,3:0:0:0:
488,251,39981,1,2,0:0:0:0:
342,384,40080,2,0,P|328:341|358:285,1,89.9999976158143,2|8,0:0|0:0,0:0:0:0:
437,96,40279,1,0,1:0:0:0:
503,146,40378,2,0,P|468:174|403:170,1,89.9999976158143,0|2,0:0|0:0,0:0:0:0:
330,164,40577,5,2,0:0:0:0:
334,191,40676,1,0,0:0:0:0:
437,96,40775,2,0,L|347:82,1,89.9999976158143,0|2,0:0|0:0,0:0:0:0:
147,43,40974,1,8,0:0:0:0:
175,139,41073,2,0,P|219:119|245:78,1,89.9999976158143,0|2,0:0|0:0,0:0:0:0:
147,43,41272,1,8,0:3:0:0:
175,139,41371,1,0,0:0:0:0:
202,244,41471,1,8,0:3:0:0:
229,348,41570,1,2,0:0:0:0:
285,256,41669,2,0,P|244:236|186:254,1,89.9999976158143,0|8,0:0|0:0,0:0:0:0:
56,363,41868,1,2,0:0:0:0:
139,357,41967,2,0,L|237:347,1,89.9999976158143,0|0,0:0|0:0,0:0:0:0:
401,269,42166,5,2,0:0:0:0:
326,334,42265,1,0,0:0:0:0:
401,269,42365,2,0,P|425:311|418:373,1,89.9999976158143,0|2,0:0|0:0,0:0:0:0:
228,347,42563,1,8,0:0:0:0:
261,169,42663,2,0,B|300:131|300:131|283:270,1,179.999995231629,0|8,0:0|0:3,0:0:0:0:
228,347,42961,2,0,L|139:357,1,89.9999976158143,0|8,0:0|0:3,0:0:0:0:
120,197,43159,1,2,0:0:0:0:
198,204,43259,2,0,P|171:260|64:257,1,179.999995231629,0|2,0:0|0:0,0:0:0:0:
147,28,43557,2,0,L|133:118,1,89.9999976158143,0|0,0:0|0:0,0:0:0:0:
120,197,43755,5,2,0:0:0:0:
120,197,43855,1,0,0:0:0:0:
86,119,43954,2,0,B|195:97|168:180|269:156,1,179.999995231629,0|8,0:0|0:0,0:0:0:0:
140,278,44252,2,0,P|116:241|120:197,1,89.9999976158143,0|0,0:0|0:0,0:0:0:0:
252,57,44451,1,8,0:3:0:0:
305,105,44550,2,0,P|329:142|325:186,1,89.9999976158143,0|8,0:0|0:3,0:0:0:0:
193,326,44749,1,2,0:0:0:0:
140,278,44848,2,0,P|202:254|258:355,1,179.999995231629,0|2,0:0|0:0,0:0:0:0:
37,357,45146,1,0,0:0:0:0:
58,251,45245,1,0,0:0:0:0:
81,145,45345,5,2,0:0:0:0:
98,38,45444,1,0,0:0:0:0:
89,158,45543,2,0,B|147:156|147:156|184:173|184:173|211:154|211:154|282:151,1,179.999995231629,0|8,0:0|0:0,0:0:0:0:
336,28,45841,2,0,P|315:71|336:121,1,89.9999976158143,0|2,0:0|0:0,0:0:0:0:
390,265,46040,1,8,3:0:0:0:
443,188,46140,1,0,0:0:0:0:
374,172,46239,1,8,3:0:0:0:
314,209,46338,1,2,0:0:0:0:
379,346,46438,2,0,P|400:303|379:253,1,89.9999976158143,2|8,0:0|0:0,0:0:0:0:
251,138,46636,1,0,1:0:0:0:
235,230,46736,2,0,P|282:233|321:195,1,89.9999976158143,0|0,0:0|0:0,0:0:0:0:
475,78,46934,6,0,L|386:74,1,89.9999976158143,2|0,0:0|0:0,0:0:0:0:
296,43,47133,2,0,B|428:51|428:51|363:85,1,179.999995231629,0|8,0:0|0:0,0:0:0:0:
251,138,47431,2,0,L|161:133,1,89.9999976158143,0|2,0:0|0:0,0:0:0:0:
235,230,47630,1,8,0:3:0:0:
182,52,47729,1,0,0:0:0:0:
101,80,47828,1,8,0:3:0:0:
87,165,47927,1,2,0:0:0:0:
145,234,48027,2,0,L|234:229,1,89.9999976158143,0|8,0:0|0:0,0:0:0:0:
416,294,48226,1,2,0:0:0:0:
402,206,48325,2,0,P|358:221|330:266,1,89.9999976158143,0|0,0:0|0:0,0:0:0:0:
424,378,48524,6,0,P|433:332|408:285,1,89.9999976158143,2|0,0:0|0:0,0:0:0:0:
265,304,48722,2,0,P|298:334|342:340,1,89.9999976158143,0|2,0:0|0:0,0:0:0:0:
483,238,48921,1,8,0:0:0:0:
402,206,49020,2,0,B|312:170|324:261|216:220,1,179.999995231629,0|8,0:0|3:0,0:0:0:0:
236,66,49318,2,0,P|263:102|265:147,2,89.9999976158143,0|8|2,0:0|3:0|0:0,0:0:0:0:
57,174,49616,2,0,P|137:200|186:132,1,179.999995231629,2|0,0:0|1:0,0:0:0:0:
41,9,49914,2,0,L|51:107,1,89.9999976158143,0|2,0:0|0:0,0:0:0:0:
84,356,50113,5,2,0:0:0:0:
84,356,50212,1,0,0:0:0:0:
48,283,50312,2,0,B|138:247|126:338|234:297,1,179.999995231629,0|8,0:0|0:0,0:0:0:0:
403,270,50610,1,0,0:0:0:0:
320,234,50709,2,0,B|299:275|299:275|317:314,1,89.9999976158143,2|8,0:0|0:3,0:0:0:0:
401,351,50908,2,0,B|422:310|422:310|403:270,1,89.9999976158143,0|8,0:0|0:3,0:0:0:0:
393,181,51106,1,2,0:0:0:0:
320,234,51206,1,0,0:0:0:0:
466,128,51305,1,8,0:0:0:0:
310,144,51404,1,2,0:0:0:0:
475,217,51503,1,0,0:0:0:0:
383,91,51603,1,0,0:0:0:0:
403,270,51702,6,0,L|393:177,1,89.9999976158143,2|0,0:0|0:0,0:0:0:0:
303,61,51901,2,0,P|243:96|264:215,1,179.999995231629,0|8,0:0|0:0,0:0:0:0:
403,270,52199,2,0,B|308:250|335:337|222:316,1,179.999995231629,0|8,0:0|3:0,0:0:0:0:
107,169,52497,2,0,B|86:208|86:208|113:264,1,89.9999976158143,0|8,0:0|3:0,0:0:0:0:
237,318,52696,1,2,0:0:0:0:
321,157,52795,2,0,P|235:146|173:207,1,179.999995231629,2|0,0:0|1:0,0:0:0:0:
56,343,53093,2,0,L|155:329,1,89.9999976158143,0|2,0:0|0:0,0:0:0:0:
366,299,53292,5,2,0:0:0:0:
262,236,53391,1,0,0:0:0:0:
321,370,53491,2,0,P|353:344|363:284,1,89.9999976158143,0|2,0:0|0:0,0:0:0:0:
365,86,53689,2,0,P|333:112|323:172,1,89.9999976158143,8|0,0:0|0:0,0:0:0:0:
445,249,53888,1,2,0:0:0:0:
512,198,53987,2,0,P|443:165|366:246,1,179.999995231629,8|8,0:3|0:3,0:0:0:0:
237,318,54285,1,2,0:0:0:0:
213,240,54385,2,0,P|262:240|307:279,1,89.9999976158143,0|8,0:0|0:0,0:0:0:0:
184,384,54583,1,2,0:0:0:0:
94,372,54683,2,0,L|5:362,1,89.9999976158143,0|0,0:0|0:0,0:0:0:0:
68,282,54881,6,0,B|181:255|144:343|260:313,1,179.999995231629,2|0,0:0|0:0,0:0:0:0:
384,256,55179,1,2,0:0:0:0:
331,185,55279,2,0,P|301:217|295:261,1,89.9999976158143,8|0,0:0|0:0,0:0:0:0:
432,318,55477,1,0,0:0:0:0:
469,241,55577,2,0,P|407:169|321:194,1,179.999995231629,8|8,0:3|0:3,0:0:0:0:
213,240,55875,1,2,0:0:0:0:
252,383,55974,2,0,B|273:336|273:336|249:272,1,89.9999976158143,0|8,0:0|0:0,0:0:0:0:
135,241,56173,1,2,0:0:0:0:
174,306,56272,2,0,P|217:315|259:299,1,89.9999976158143,0|0,0:0|0:0,0:0:0:0:
166,77,56471,6,0,B|113:44|113:44|129:185,1,179.999995231629,2|0,0:0|0:0,0:0:0:0:
135,241,56769,1,0,0:0:0:0:
303,165,56868,2,0,L|206:161,2,89.9999976158143,8|0|0,0:0|0:0|0:0,0:0:0:0:
450,337,57166,2,0,P|369:332|332:234,1,179.999995231629,8|8,0:3|0:3,0:0:0:0:
437,124,57464,1,2,0:0:0:0:
413,261,57563,1,0,0:0:0:0:
303,165,57663,1,8,0:0:0:0:
486,203,57762,1,2,0:0:0:0:
303,165,57861,1,0,0:0:0:0:
486,203,57960,1,0,0:0:0:0:
450,337,58060,6,0,P|369:332|332:234,1,179.999995231629,2|0,0:0|0:0,0:0:0:0:
233,118,58358,1,0,0:0:0:0:
312,75,58457,2,0,L|301:174,1,89.9999976158143,8|0,0:0|0:0,0:0:0:0:
162,292,58656,1,2,0:0:0:0:
124,218,58755,2,0,B|116:182|116:182|229:201|229:201|205:241,1,179.999995231629,8|8,3:0|3:0,0:0:0:0:
193,368,59053,2,0,P|152:375|102:345,1,89.9999976158143,2|2,0:0|0:0,0:0:0:0:
56,92,59252,1,8,0:0:0:0:
144,104,59351,2,0,L|247:120,1,89.9999976158143,0|0,1:0|0:0,0:0:0:0:
358,211,59550,1,0,0:0:0:0:
387,94,59649,6,0,B|338:65|338:65|360:218,1,179.999995231629,2|0,0:0|0:0,0:0:0:0:
382,355,59947,1,0,0:0:0:0:
447,225,60047,2,0,L|344:209,1,89.9999976158143,8|0,0:0|0:0,0:0:0:0:
143,179,60245,1,2,0:0:0:0:
171,265,60345,1,8,0:3:0:0:
231,192,60444,2,0,L|128:176,2,89.9999976158143,0|8|2,0:0|0:3|0:0,0:0:0:0:
318,316,60742,2,0,B|223:296|250:383|137:362,1,179.999995231629,0|2,0:0|0:0,0:0:0:0:
82,251,61040,2,0,L|171:265,1,89.9999976158143,0|0,0:0|0:0,0:0:0:0:
71,334,61239,6,0,P|63:291|98:237,1,89.9999976158143,2|0,0:0|0:0,0:0:0:0:
241,108,61438,2,0,P|249:151|214:205,1,89.9999976158143,0|2,0:0|0:0,0:0:0:0:
171,264,61636,1,8,0:0:0:0:
83,125,61736,2,0,L|173:136,1,89.9999976158143,0|0,0:0|0:0,0:0:0:0:
412,165,61934,1,8,3:0:0:0:
360,243,62034,2,0,B|324:273|324:273|335:135,1,179.999995231629,0|2,0:0|0:0,0:0:0:0:
420,75,62332,2,0,L|410:179,1,89.9999976158143,2|8,0:0|0:0,0:0:0:0:
395,353,62530,1,0,1:0:0:0:
449,252,62630,2,0,L|359:242,1,89.9999976158143,0|0,0:0|0:0,0:0:0:0:
211,301,62828,5,10,0:3:0:0:
154,357,62927,1,8,0:3:0:0:
281,262,63027,5,8,0:3:0:0:
281,342,63126,1,10,0:3:0:0:
303,185,63226,5,8,0:3:0:0:
358,241,63325,1,8,0:3:0:0:
263,115,63424,5,10,0:3:0:0:
343,115,63523,1,8,0:3:0:0:
185,92,63623,5,8,0:3:0:0:
241,37,63722,2,8,L|271:3,2,44.9999988079071,10|8|8,0:3|0:3|0:3,0:0:0:0:
114,52,63921,5,10,0:3:0:0:
185,92,64020,1,10,0:3:0:0:
208,172,64120,1,10,0:3:0:0:
168,245,64219,1,10,0:3:0:0:
88,268,64318,1,10,0:3:0:0:
15,227,64418,6,0,P|3:182|23:135,2,89.9999976158143,6|0|0,0:0|0:0|0:0,0:0:0:0:
8,317,64716,1,2,0:0:0:0:
75,184,64815,1,8,0:0:0:0:
75,184,64914,2,0,B|170:164|143:251|256:230,1,179.999995231629,0|8,0:0|3:0,0:0:0:0:
256,81,65212,2,0,P|223:119|231:178,1,89.9999976158143,0|8,0:0|3:0,0:0:0:0:
310,300,65411,1,2,0:0:0:0:
375,128,65510,2,0,P|324:122|281:163,1,89.9999976158143,2|8,0:0|0:0,0:0:0:0:
226,297,65709,1,0,1:0:0:0:
403,249,65808,2,0,P|378:204|320:192,1,89.9999976158143,0|2,0:0|0:0,0:0:0:0:
179,223,66007,5,2,0:0:0:0:
179,223,66106,1,0,0:0:0:0:
105,344,66206,2,0,B|86:298|86:298|112:238,1,89.9999976158143,0|2,0:0|0:0,0:0:0:0:
143,59,66404,1,8,0:0:0:0:
182,140,66504,2,0,B|197:176|197:176|178:222,2,89.9999976158143,0|2|8,0:0|0:0|0:3,0:0:0:0:
23,195,66802,2,0,L|131:181,1,89.9999976158143,0|8,0:0|0:3,0:0:0:0:
381,201,67000,1,2,0:0:0:0:
321,113,67100,2,0,P|219:88|179:152,1,179.999995231629,0|2,0:0|0:0,0:0:0:0:
237,300,67398,1,0,0:0:0:0:
325,288,67497,1,0,0:0:0:0:
414,279,67596,6,0,L|517:268,2,89.9999976158143,2|0|0,0:0|0:0|0:0,0:0:0:0:
271,218,67894,1,2,0:0:0:0:
377,360,67994,1,8,0:0:0:0:
470,191,68093,2,0,L|380:200,1,89.9999976158143,0|0,0:0|0:0,0:0:0:0:
237,300,68292,1,8,0:3:0:0:
264,135,68391,2,0,P|283:176|257:231,1,89.9999976158143,0|8,0:0|0:3,0:0:0:0:
237,300,68590,1,2,0:0:0:0:
49,240,68689,2,0,P|75:203|135:198,1,89.9999976158143,0|8,0:0|0:0,0:0:0:0:
205,180,68888,1,2,0:0:0:0:
249,374,68987,2,0,P|203:369|169:319,1,89.9999976158143
264,135,69186,5,2,0:0:0:0:
264,135,69285,1,0,0:0:0:0:
264,135,69385,2,0,P|283:176|257:231,1,89.9999976158143,0|0,0:0|0:0,0:0:0:0:
119,268,69583,1,8,0:0:0:0:
34,143,69683,2,0,B|151:123|111:197|231:176,1,179.999995231629,0|8,0:0|0:3,0:0:0:0:
195,24,69981,2,0,B|172:65|172:65|198:122,1,89.9999976158143,0|8,0:0|0:3,0:0:0:0:
270,217,70179,1,2,0:0:0:0:
345,78,70279,2,0,L|226:66,1,89.9999976158143,0|8,0:0|0:0,0:0:0:0:
91,238,70477,1,2,0:0:0:0:
180,226,70577,2,0,L|299:214,1,89.9999976158143,0|0,0:0|0:0,0:0:0:0:
464,202,70775,5,2,0:0:0:0:
464,202,70875,1,0,0:0:0:0:
359,209,70974,2,0,L|270:217,1,89.9999976158143,0|0,0:0|0:0,0:0:0:0:
454,291,71173,1,8,0:0:0:0:
395,137,71272,2,0,B|341:97|341:97|363:235,1,179.999995231629,0|8,0:0|3:0,0:0:0:0:
445,381,71570,2,0,L|456:281,1,89.9999976158143,0|8,0:0|3:0,0:0:0:0:
479,67,71769,1,2,0:0:0:0:
464,202,71868,2,0,L|453:302,1,89.9999976158143,2|8,0:0|0:0,0:0:0:0:
410,2,72067,1,0,1:0:0:0:
395,137,72166,2,0,L|384:237,1,89.9999976158143,0|0,0:0|0:0,0:0:0:0:
104,355,72365,5,2,0:0:0:0:
104,355,72464,1,0,0:0:0:0:
104,355,72563,2,0,P|151:337|197:359,1,89.9999976158143,0|0,0:0|0:0,0:0:0:0:
358,208,72762,1,8,0:0:0:0:
349,297,72861,2,0,L|259:289,1,89.9999976158143,0|2,0:0|0:0,0:0:0:0:
134,177,73060,1,8,0:3:0:0:
216,130,73159,2,0,P|232:172|218:214,1,89.9999976158143,0|8,0:0|0:3,0:0:0:0:
132,271,73358,1,2,0:0:0:0:
53,128,73457,2,0,P|81:93|124:85,1,89.9999976158143,0|8,0:0|0:0,0:0:0:0:
216,130,73656,1,2,0:0:0:0:
131,271,73755,2,0,P|88:263|59:230,1,89.9999976158143
134,177,73954,5,2,0:0:0:0:
134,177,74053,1,0,0:0:0:0:
276,308,74153,2,0,B|178:280|209:378|81:344,1,179.999995231629,0|8,0:0|0:0,0:0:0:0:
385,176,74451,2,0,L|397:290,1,89.9999976158143,0|0,0:0|0:0,0:0:0:0:
300,212,74649,1,8,3:0:0:0:
319,123,74749,2,0,P|360:138|387:201,1,89.9999976158143,0|8,0:0|3:0,0:0:0:0:
210,219,74947,1,2,0:0:0:0:
165,140,75047,2,0,P|157:96|177:56,1,89.9999976158143,2|8,0:0|0:0,0:0:0:0:
300,212,75246,1,0,1:0:0:0:
300,212,75345,2,0,L|206:220,1,89.9999976158143,0|2,0:0|0:0,0:0:0:0:
52,302,75543,5,10,0:3:0:0:
148,262,75643,1,8,0:3:0:0:
61,316,75742,5,8,0:3:0:0:
153,268,75842,1,10,0:3:0:0:
71,330,75941,5,8,0:3:0:0:
158,275,76041,1,8,0:3:0:0:
82,345,76140,5,10,0:3:0:0:
165,282,76240,1,8,0:3:0:0:
95,357,76338,5,8,0:3:0:0:
171,287,76438,2,8,L|165:227,2,44.9999988079071,10|8|8,0:3|0:3|0:3,0:0:0:0:
247,333,76636,1,10,0:3:0:0:
331,358,76735,1,10,0:3:0:0:
410,322,76834,1,10,0:3:0:0:
445,241,76934,1,10,0:3:0:0:
417,157,77033,1,10,0:3:0:0:
340,115,77132,5,6,0:0:0:0:
342,203,77232,1,0,0:0:0:0:
415,69,77332,2,0,P|385:37|324:29,1,89.9999976158143,0|2,0:0|0:0,0:0:0:0:
70,31,77530,1,8,0:0:0:0:
89,119,77630,2,0,L|189:132,1,89.9999976158143,0|0,0:0|0:0,0:0:0:0:
342,203,77828,1,8,3:0:0:0:
415,69,77928,1,0,0:0:0:0:
340,115,78027,1,8,3:0:0:0:
417,157,78126,1,2,0:0:0:0:
422,55,78226,1,2,0:0:0:0:
324,115,78325,1,8,0:0:0:0:
424,169,78424,1,0,1:0:0:0:
431,38,78524,2,0,P|413:83|438:134,1,89.9999976158143,0|2,0:0|0:0,0:0:0:0:
421,369,78722,5,2,0:0:0:0:
367,283,78822,1,0,0:0:0:0:
252,343,78921,2,0,P|207:356|161:338,1,89.9999976158143,0|2,0:0|0:0,0:0:0:0:
124,227,79120,1,8,0:0:0:0:
205,191,79219,2,0,B|224:239|224:239|200:294,2,89.9999976158143,0|2|8,0:0|0:0|0:3,0:0:0:0:
147,47,79517,1,0,0:0:0:0:
135,137,79616,1,8,0:3:0:0:
124,227,79716,1,2,0:0:0:0:
62,81,79815,1,0,0:0:0:0:
135,137,79915,1,8,0:0:0:0:
205,191,80014,1,2,0:0:0:0:
147,47,80113,2,0,L|134:143,1,89.9999976158143
37,377,80312,5,2,0:0:0:0:
84,300,80411,1,0,0:0:0:0:
192,359,80510,2,0,P|242:377|284:359,1,89.9999976158143,0|2,0:0|0:0,0:0:0:0:
295,149,80709,1,8,0:0:0:0:
236,217,80808,2,0,P|220:258|238:299,1,89.9999976158143,0|0,0:0|0:0,0:0:0:0:
369,369,81007,1,8,0:3:0:0:
481,303,81106,5,0,0:0:0:0:
392,280,81206,1,8,0:3:0:0:
305,257,81305,1,2,0:0:0:0:
415,193,81404,5,0,0:0:0:0:
392,280,81504,1,8,0:0:0:0:
369,369,81603,1,2,0:0:0:0:
415,193,81702,2,0,L|438:86,1,89.9999976158143
186,37,81901,5,2,0:0:0:0:
213,205,82000,1,0,0:0:0:0:
333,120,82100,2,0,L|214:113,1,89.9999976158143,0|0,0:0|0:0,0:0:0:0:
53,96,82298,1,8,0:0:0:0:
75,187,82398,2,0,P|177:156|214:212,1,179.999995231629,0|8,0:0|0:3,0:0:0:0:
221,318,82696,1,0,0:0:0:0:
98,339,82795,1,8,0:3:0:0:
140,222,82894,1,2,0:0:0:0:
165,364,82994,1,0,0:0:0:0:
86,269,83093,1,8,0:0:0:0:
208,246,83192,1,2,0:0:0:0:
98,339,83292,2,0,L|2:329,1,89.9999976158143,0|0,0:0|0:0,0:0:0:0:
189,65,83491,5,2,0:0:0:0:
199,154,83590,1,0,0:0:0:0:
208,246,83689,2,0,L|304:236,1,89.9999976158143,0|0,0:0|0:0,0:0:0:0:
465,298,83888,1,8,0:0:0:0:
354,148,83987,2,0,B|286:128|286:128|300:260,1,179.999995231629,0|8,0:0|3:0,0:0:0:0:
438,377,84285,2,0,P|464:343|458:282,1,89.9999976158143,0|8,0:0|3:0,0:0:0:0:
425,94,84484,1,2,0:0:0:0:
354,148,84583,2,0,P|328:182|334:243,1,89.9999976158143,2|8,0:0|0:0,0:0:0:0:
438,377,84782,1,0,1:0:0:0:
492,215,84881,2,0,L|403:206,1,89.9999976158143,0|0,0:0|0:0,0:0:0:0:
148,298,85080,5,2,0:0:0:0:
67,258,85179,1,0,0:0:0:0:
148,298,85279,2,0,L|237:289,1,89.9999976158143,0|0,0:0|0:0,0:0:0:0:
137,112,85477,1,8,0:0:0:0:
75,175,85577,2,0,P|55:220|84:274,1,89.9999976158143,0|2,0:0|0:0,0:0:0:0:
232,172,85775,1,8,0:3:0:0:
208,86,85875,2,0,P|179:46|117:44,1,89.9999976158143,0|8,0:0|0:3,0:0:0:0:
66,257,86073,1,2,0:0:0:0:
148,298,86173,2,0,L|237:289,1,89.9999976158143,0|8,0:0|0:0,0:0:0:0:
390,167,86371,1,2,0:0:0:0:
341,326,86471,2,0,P|326:283|337:240,1,89.9999976158143,0|0,0:0|0:0,0:0:0:0:
454,94,86669,5,2,0:0:0:0:
365,74,86769,1,0,0:0:0:0:
454,94,86868,2,0,L|476:187,1,89.9999976158143,0|2,0:0|0:0,0:0:0:0:
430,346,87067,1,8,0:0:0:0:
341,326,87166,2,0,L|319:233,2,89.9999976158143,0|0|8,0:0|0:0|3:0,0:0:0:0:
460,270,87464,2,0,B|362:242|393:340|265:306,1,179.999995231629,0|2,0:0|0:0,0:0:0:0:
221,165,87762,2,0,P|299:155|299:260,1,179.999995231629,2|0,0:0|1:0,0:0:0:0:
176,362,88060,2,0,L|74:350,1,89.9999976158143,0|2,0:0|0:0,0:0:0:0:
48,246,88259,5,10,0:3:0:0:
34,144,88358,1,8,0:3:0:0:
44,227,88457,1,8,0:3:0:0:
39,124,88556,1,8,0:3:0:0:
226,239,88656,5,8,0:3:0:0:
131,201,88755,1,8,0:3:0:0:
207,233,88854,1,8,0:3:0:0:
116,186,88953,1,8,0:3:0:0:
300,75,89053,5,8,0:3:0:0:
220,139,89152,1,8,0:3:0:0:
285,89,89251,1,8,0:3:0:0:
199,144,89350,1,8,0:3:0:0:
92,10,89451,5,8,0:3:0:0:
104,98,89550,1,8,0:3:0:0:
116,186,89649,1,8,0:3:0:0:
128,275,89749,1,8,0:3:0:0:
141,363,89848,5,12,0:3:0:0:
