osu file format v14

[General]
AudioFilename: audio.mp3
AudioLeadIn: 0
PreviewTime: 13214
Countdown: 0
SampleSet: Soft
StackLeniency: 0.7
Mode: 0
LetterboxInBreaks: 0
WidescreenStoryboard: 1

[Editor]
DistanceSpacing: 1.3
BeatDivisor: 4
GridSize: 32
TimelineZoom: 1

[Metadata]
Title:Starting Forest
TitleUnicode:Starting Forest
Artist:3R2
ArtistUnicode:3R2
Creator:CoLouRed GlaZeE
Version:Hard
Source:Rabi-Ribi
Tags:Rabi Ribi Original Soundtrack ăƒ©ăƒ“-ăƒȘビ project ost _lai Firika Necho
BeatmapID:1897994
BeatmapSetID:909559

[Difficulty]
HPDrainRate:5
CircleSize:4
OverallDifficulty:6
ApproachRate:7
SliderMultiplier:1.4
SliderTickRate:2

[Events]
//Background and Video events
0,0,"20190105134509_1.jpg",0,0
//Break Periods
//Storyboard Layer 0 (Background)
//Storyboard Layer 1 (Fail)
//Storyboard Layer 2 (Pass)
//Storyboard Layer 3 (Foreground)
//Storyboard Sound Samples

[TimingPoints]
836,419.58041958042,4,2,1,30,1,0
54751,-100,4,2,1,35,0,0
55171,-100,4,2,1,40,0,0
55590,-100,4,2,1,45,0,0
56010,-100,4,2,1,50,0,0
56429,-100,4,2,1,45,0,0
57478,-100,4,2,1,30,0,0
58317,-100,4,2,1,25,0,0
59995,-100,4,2,1,20,0,0
61673,-100,4,2,1,15,0,0
63351,-100,4,2,1,10,0,0

[Colours]
Combo1 : 0,128,96
Combo2 : 0,168,0
Combo3 : 0,128,0
Combo4 : 0,128,64

[HitObjects]
417,108,836,5,6,0:0:0:0:
417,108,1255,2,0,B|385:123|349:127,1,70,4|2,0:0|0:0,0:0:0:0:
267,108,1675,2,0,B|230:113|194:109,1,70,4|0,0:0|0:0,0:0:0:0:
115,129,2094,1,4,0:0:0:0:
34,106,2304,2,0,B|-8:167|29:240,1,140,2|2,0:0|0:0,0:0:0:0:
103,276,2933,6,0,L|115:207,2,70,4|2|4,0:0|0:0|0:0,0:0:0:0:
59,347,3563,1,2,0:0:0:0:
143,349,3773,2,0,B|185:345|225:348,1,70,4|2,0:0|0:0,0:0:0:0:
297,346,4192,2,0,B|302:309|294:265,1,70,6|0,0:0|0:0,0:0:0:0:
265,167,4612,5,4,0:0:0:0:
186,196,4822,2,0,B|152:128|197:55,1,140,2|0,0:0|0:0,0:0:0:0:
101,104,5451,2,0,B|65:114|21:106,1,70,4|2,0:0|0:0,0:0:0:0:
0,186,5870,2,0,B|45:194|88:184,1,70,4|2,0:0|0:0,0:0:0:0:
134,241,6290,6,0,B|141:275|137:310,1,70,4|2,0:0|0:0,0:0:0:0:
61,349,6710,2,0,B|54:315|58:280,1,70,4|10,0:0|0:0,0:0:0:0:
216,301,7129,2,0,L|293:306,1,70,12|2,0:0|0:0,0:0:0:0:
369,316,7549,2,0,B|408:320|440:305,1,70,6|0,0:0|0:0,0:0:0:0:
492,219,7968,5,4,0:0:0:0:
408,224,8178,2,0,B|338:256|268:220,1,140,2|0,0:0|0:0,0:0:0:0:
208,276,8808,2,0,B|170:276|130:284,1,70,4|2,0:0|0:0,0:0:0:0:
64,323,9227,2,0,B|66:286|59:250,1,70,4|2,0:0|0:0,0:0:0:0:
81,172,9647,6,0,L|-3:169,1,70,4|2,0:0|0:0,0:0:0:0:
35,88,10066,2,0,L|119:91,1,70,4|2,0:0|0:0,0:0:0:0:
181,125,10486,2,0,L|183:55,1,70,4|2,0:0|0:0,0:0:0:0:
266,43,10905,2,0,L|264:113,1,70,6|0,0:0|0:0,0:0:0:0:
204,211,11325,5,4,0:0:0:0:
159,282,11535,2,0,B|175:332|227:355|279:334,1,140,2|0,0:0|0:0,0:0:0:0:
342,284,12164,1,4,0:0:0:0:
421,310,12374,2,0,B|475:285|474:207|411:187,1,140,4|0,0:1|1:0,0:0:0:0:
345,199,13003,2,0,B|337:161|343:128,1,70,0|0,1:0|1:0,0:0:0:0:
416,51,13423,2,0,B|424:89|418:122,1,70,0|0,1:0|1:0,0:0:0:0:
337,51,13842,1,0,1:0:0:0:
337,51,13947,1,0,1:0:0:0:
337,51,14052,1,0,1:0:0:0:
255,118,14262,6,0,B|219:108|175:117,1,70,6|0,0:0|0:0,0:0:0:0:
111,168,14682,2,0,B|103:132|109:83,1,70,0|2,1:0|0:0,0:0:0:0:
195,201,15101,2,0,B|193:255|141:292|72:264,1,140,4|0,0:0|1:0,0:0:0:0:
7,251,15731,2,0,B|9:197|61:160|130:188,1,140,2|2,0:0|0:0,0:0:0:0:
205,278,16360,2,0,B|211:314|206:359,1,70,0|2,1:0|0:0,0:0:0:0:
115,349,16780,2,0,B|109:313|114:268,1,70,4|2,0:0|0:0,0:0:0:0:
152,196,17199,1,2,1:2:0:0:
241,208,17409,1,0,0:0:0:0:
355,188,17619,6,0,B|389:180|423:154,1,70,6|0,0:0|0:0,0:0:0:0:
509,152,18038,2,0,B|499:117|503:75,1,70,0|2,1:0|0:0,0:0:0:0:
413,61,18458,2,0,B|349:13|267:52,1,140,4|0,0:0|1:0,0:0:0:0:
246,131,19087,2,0,B|202:155|137:133|134:76,2,140,2|2|2,0:0|0:0|0:0,0:0:0:0:
315,189,20136,1,6,0:0:0:0:
400,159,20346,1,8,0:0:0:0:
481,199,20556,2,0,B|489:228|484:269,1,70,8|0,1:2|0:0,0:0:0:0:
393,338,20975,5,6,0:0:0:0:
326,275,21185,1,0,0:0:0:0:
393,338,21395,1,0,1:0:0:0:
302,349,21605,1,2,0:0:0:0:
393,338,21815,2,0,B|429:271|388:206,1,140,4|0,0:0|1:0,0:0:0:0:
426,122,22444,2,0,B|355:89|293:129,1,140,2|2,0:0|0:0,0:0:0:0:
202,112,23073,2,0,B|195:144|203:182,1,70,0|2,1:0|0:0,0:0:0:0:
280,228,23493,2,0,B|314:220|350:227,1,70,4|2,0:0|0:0,0:0:0:0:
464,258,23912,5,2,1:2:0:0:
438,345,24122,1,2,0:0:0:0:
356,305,24332,2,0,B|319:302|285:311,1,70,6|0,0:0|0:0,0:0:0:0:
202,347,24752,2,0,B|209:311|204:273,1,70,0|2,1:0|0:0,0:0:0:0:
120,314,25171,2,0,B|97:356|28:360|5:308,1,140,4|0,0:0|1:0,0:0:0:0:
45,228,25801,2,0,B|88:195|76:125|20:114,1,140,6|6,0:0|0:0,0:0:0:0:
148,178,26430,2,0,B|181:193|241:184,1,70,0|2,1:0|0:0,0:0:0:0:
141,35,26849,2,0,B|126:67|138:118,1,70,6|8,0:0|1:2,0:0:0:0:
222,76,27269,1,8,1:2:0:0:
321,45,27479,5,0,1:0:0:0:
321,45,27584,1,0,1:0:0:0:
321,45,27689,2,0,B|356:40|408:53,1,70,6|0,0:0|0:0,0:0:0:0:
481,38,28108,2,0,B|471:73|478:113,1,70,0|2,1:0|0:0,0:0:0:0:
465,197,28528,2,0,B|407:219|358:171|381:113,1,140,4|0,0:0|1:0,0:0:0:0:
298,174,29157,2,0,B|240:152|191:200|214:258,1,140,2|2,0:0|0:0,0:0:0:0:
130,288,29787,2,0,B|97:297|54:293,1,70,0|2,1:0|0:0,0:0:0:0:
10,216,30206,2,0,B|46:219|79:210,1,70,4|2,0:0|0:0,0:0:0:0:
164,177,30626,2,0,B|165:140|155:105,1,70,2|0,1:2|0:0,0:0:0:0:
60,125,31045,6,0,B|34:101|-5:90,1,70,6|0,0:0|0:0,0:0:0:0:
92,34,31465,2,0,B|118:58|157:69,1,70,0|2,1:0|0:0,0:0:0:0:
233,111,31884,2,0,B|271:41|360:44,1,140,4|0,0:0|1:0,0:0:0:0:
397,120,32514,2,0,B|455:130|505:90|498:25,2,140,2|2|2,0:0|0:0|0:0,0:0:0:0:
349,197,33563,1,6,0:0:0:0:
258,184,33773,1,8,0:0:0:0:
245,275,33982,1,8,1:2:0:0:
336,288,34192,1,2,0:0:0:0:
450,263,34402,6,0,B|444:228|451:179,1,70,6|0,0:0|0:0,0:0:0:0:
404,113,34822,2,0,B|368:119|330:115,1,70,0|2,1:0|0:0,0:0:0:0:
273,183,35241,2,0,B|218:162|200:101|248:43,1,140,4|0,0:0|1:0,0:0:0:0:
133,109,35870,2,0,L|148:254,1,140,2|2,0:0|0:0,0:0:0:0:
59,224,36500,2,0,L|66:296,1,70,0|2,1:0|0:0,0:0:0:0:
139,349,36919,1,4,0:0:0:0:
238,300,37129,5,2,0:0:0:0:
274,198,37339,1,2,1:2:0:0:
187,224,37549,1,2,0:0:0:0:
325,274,37759,2,0,B|370:269|403:293,1,70,6|0,0:0|0:0,0:0:0:0:
464,342,38178,2,0,B|488:311|481:254,1,70,0|2,1:0|0:0,0:0:0:0:
504,187,38598,2,0,B|428:207|379:142,1,140,4|0,0:0|1:0,0:0:0:0:
311,204,39227,2,0,B|257:259|288:337,1,140,6|0,0:0|1:2,0:0:0:0:
191,296,39856,6,0,L|183:218,1,70,0|0,1:0|1:0,0:0:0:0:
97,255,40276,2,0,B|99:210|106:158,1,70,0|0,1:0|1:0,0:0:0:0:
19,222,40696,1,0,1:0:0:0:
19,222,40801,1,0,1:0:0:0:
19,222,40905,1,0,1:0:0:0:
30,326,41115,6,0,B|65:295|134:305|154:354,1,140,4|8,0:0|0:0,0:0:0:0:
230,303,41745,1,2,0:0:0:0:
162,241,41954,2,0,B|152:159|140:74,1,140,4|8,0:0|0:0,0:0:0:0:
223,58,42584,2,0,B|233:140|245:225,1,140,6|6,0:0|0:0,0:0:0:0:
322,238,43213,2,0,B|324:200|326:168,1,70,8|6,0:0|0:0,0:0:0:0:
314,77,43633,2,0,B|364:86|410:88,1,70,0|14,0:0|0:0,0:0:0:0:
480,164,44052,5,8,0:0:0:0:
480,164,44157,1,2,0:0:0:0:
480,164,44262,1,0,0:0:0:0:
480,164,44367,1,2,0:0:0:0:
480,164,44472,2,0,B|460:207|400:217|360:181,2,140,6|8|0,0:0|0:0|0:0,0:0:0:0:
456,273,45521,2,0,B|450:305|457:349,1,70,14|8,0:0|0:0,0:0:0:0:
371,308,45940,1,2,0:0:0:0:
286,273,46150,6,0,B|248:275|209:279,1,70,6|2,0:0|0:0,0:0:0:0:
149,340,46570,2,0,B|111:342|72:346,1,70,8|6,0:0|0:0,0:0:0:0:
130,250,46989,2,0,B|128:212|124:173,1,70,0|14,0:0|0:0,0:0:0:0:
35,162,47409,2,0,B|37:200|41:239,1,70,8|2,0:0|0:0,0:0:0:0:
103,95,47829,6,0,B|176:88|257:112,1,140,6|8,0:0|0:0,0:0:0:0:
263,193,48458,2,0,B|190:200|109:176,1,140,6|12,0:0|0:0,0:0:0:0:
35,203,49087,1,10,0:0:0:0:
61,289,49297,2,0,B|124:333|194:309,1,140,6|6,0:0|0:0,0:0:0:0:
279,276,49926,2,0,B|282:312|278:347,1,70,8|2,0:0|0:0,0:0:0:0:
202,218,50346,5,0,1:0:0:0:
289,167,50556,1,0,1:0:0:0:
202,116,50766,1,8,1:2:0:0:
122,174,50975,5,0,1:0:0:0:
122,174,51080,1,0,1:0:0:0:
122,174,51185,2,0,B|125:208|124:249,1,70,6|0,0:0|0:0,0:0:0:0:
31,134,51605,2,0,B|34:168|33:209,1,70,0|2,1:0|0:0,0:0:0:0:
35,295,52024,1,4,0:0:0:0:
126,335,52234,1,10,0:0:0:0:
124,244,52444,1,8,1:2:0:0:
33,204,52654,1,2,0:0:0:0:
32,102,52863,6,0,B|81:101|121:102,1,70,4|2,0:0|0:0,0:0:0:0:
171,43,53283,2,0,B|220:42|260:43,1,70,0|0,1:0|0:0,0:0:0:0:
324,81,53703,1,6,0:0:0:0:
250,134,53912,1,8,0:0:0:0:
332,172,54122,1,8,1:2:0:0:
258,225,54332,1,2,0:0:0:0:
406,286,54542,6,0,B|439:287|479:284,1,70,6|4,0:0|0:0,0:0:0:0:
332,346,54961,2,0,B|295:348|262:347,1,70,0|6,1:0|0:0,0:0:0:0:
110,341,55381,1,0,1:0:0:0:
82,238,55591,1,14,0:0:0:0:
175,188,55801,1,8,1:2:0:0:
202,291,56010,2,0,B|259:239|346:274,1,140,2|2,1:2|1:2,0:0:0:0:
310,93,56849,6,0,B|253:145|166:110,1,140,2|2,1:2|1:2,0:0:0:0:
102,64,57479,1,8,1:2:0:0:
102,64,57584,1,0,1:0:0:0:
102,64,57689,1,6,0:0:0:0:
93,154,57898,1,4,0:1:0:0:
256,192,58318,12,2,64612,0:0:0:0:
