osu file format v14

[General]
AudioFilename: audio.mp3
AudioLeadIn: 0
PreviewTime: -1
Countdown: 1
SampleSet: None
StackLeniency: 0.7
Mode: 0
LetterboxInBreaks: 0
WidescreenStoryboard: 1

[Editor]
Bookmarks: 28294,38922
DistanceSpacing: 0.7
BeatDivisor: 4
GridSize: 4
TimelineZoom: 1.9

[Metadata]
Title:Opening
TitleUnicode:Opening
Artist:3R2
ArtistUnicode:3R2
Creator:TT Mouse
Version:Piguuuu
Source:Rabi-Ribi
Tags:opening
BeatmapID:977788
BeatmapSetID:417722

[Difficulty]
HPDrainRate:5
CircleSize:4
OverallDifficulty:6
ApproachRate:8.8
SliderMultiplier:1.6
SliderTickRate:1

[Events]
//Background and Video events
//Break Periods
//Storyboard Layer 0 (Background)
//Storyboard Layer 1 (Fail)
//Storyboard Layer 2 (Pass)
//Storyboard Layer 3 (Foreground)
//Storyboard Sound Samples

[TimingPoints]
-506,342.857142857143,4,2,0,60,1,0
865,-133.333333333333,4,2,0,60,0,0
6351,-100,4,2,0,70,0,0
11836,-100,4,2,0,60,0,0
28465,-100,4,2,0,65,0,0
38922,-100,4,2,0,70,0,0
52979,-100,4,2,0,80,0,0
90008,-100,4,2,0,5,0,0

[HitObjects]
104,68,865,6,0,L|96:136,1,60.0000022888184
32,208,1208,1,0,0:0:0:0:
172,264,1379,2,0,P|180:328|180:384,1,120.000004577637
180,383,1894,1,0,0:0:0:0:
361,201,2236,6,0,P|354:141|383:63,1,120.000004577637
512,237,2751,2,0,P|501:284|440:334,1,120.000004577637
347,308,3265,1,0,0:0:0:0:
347,308,3436,1,0,0:0:0:0:
270,384,3608,6,0,P|205:385|188:377,1,60.0000022888184
298,203,3951,1,0,0:0:0:0:
229,288,4122,2,0,B|202:298|202:298|92:292,1,120.000004577637
35,168,4636,1,0,0:0:0:0:
35,168,4808,2,0,B|62:178|62:178|172:172,1,120.000004577637
324,88,5322,1,0,0:0:0:0:
204,24,5494,2,0,L|212:76,3,30.0000011444092
188,137,5836,5,0,0:0:0:0:
311,221,6008,1,0,0:0:0:0:
412,126,6179,1,0,0:0:0:0:
430,339,6351,6,0,L|265:318,1,160
91,179,6865,1,0,0:0:0:0:
35,285,7036,2,0,L|203:270,1,160
437,193,7551,1,0,0:0:0:0:
337,248,7722,6,0,P|330:156|355:114,1,120
409,96,8065,2,0,L|400:-12,1,80
171,114,8408,5,0,0:0:0:0:
278,32,8579,1,0,0:0:0:0:
81,12,8751,1,0,0:0:0:0:
60,178,8922,6,0,L|66:268,1,80
45,351,9265,1,0,0:0:0:0:
191,280,9436,1,0,0:0:0:0:
346,370,9608,2,0,L|341:290,1,80
395,152,9951,1,0,0:0:0:0:
435,321,10122,1,0,0:0:0:0:
257,264,10294,5,0,0:0:0:0:
222,283,10379,1,0,0:0:0:0:
182,287,10465,1,0,0:0:0:0:
142,278,10551,1,0,0:0:0:0:
108,256,10636,1,0,0:0:0:0:
82,224,10722,1,0,0:0:0:0:
76,184,10808,6,0,L|103:128,1,40
182,59,10979,2,0,L|186:139,1,80
254,199,11236,5,0,0:0:0:0:
293,190,11322,1,0,0:0:0:0:
333,187,11408,1,0,0:0:0:0:
373,189,11494,1,0,0:0:0:0:
412,195,11579,1,0,0:0:0:0:
451,204,11665,1,0,0:0:0:0:
483,341,11836,6,0,P|444:350|405:345,1,80
234,295,12179,2,0,L|316:292,1,80
433,95,12522,2,0,P|449:154|435:227,1,120
391,267,12865,1,0,0:0:0:0:
301,170,13036,2,0,L|206:174,1,80
72,279,13379,6,0,L|166:276,2,80
0,358,13894,1,0,0:0:0:0:
22,202,14065,1,0,0:0:0:0:
213,347,14236,2,0,P|170:358|122:351,1,80
345,374,14579,6,0,L|465:378,1,120
511,315,14922,1,0,0:0:0:0:
448,186,15094,1,0,0:0:0:0:
448,186,15265,2,0,L|469:83,1,80
424,33,15608,1,0,0:0:0:0:
391,253,15779,2,0,P|340:266|287:258,1,80
43,295,16122,2,0,L|151:301,1,80
323,356,16465,1,0,0:0:0:0:
166,193,16636,6,0,P|173:135|215:164,1,120
245,221,16979,2,0,L|237:285,1,40
439,356,17322,5,0,0:0:0:0:
439,356,17494,1,0,0:0:0:0:
499,267,17665,1,0,0:0:0:0:
367,141,17836,2,0,L|379:234,1,80
225,384,18179,1,0,0:0:0:0:
345,351,18351,1,0,0:0:0:0:
254,268,18522,2,0,P|251:218|272:171,1,80
474,135,18865,6,0,L|392:125,1,80
277,47,19208,1,0,0:0:0:0:
164,182,19379,1,0,0:0:0:0:
177,55,19551,5,0,0:0:0:0:
299,180,19722,1,0,0:0:0:0:
184,302,19894,2,0,P|121:295|80:274,1,80
271,211,20236,5,0,0:0:0:0:
287,384,20408,1,0,0:0:0:0:
438,286,20579,2,0,L|435:374,1,80
346,261,20922,5,0,0:0:0:0:
475,190,21094,1,0,0:0:0:0:
394,36,21265,2,0,L|402:131,1,80
346,261,21608,1,0,0:0:0:0:
359,257,21951,5,0,0:0:0:0:
211,217,22122,1,0,0:0:0:0:
370,252,22294,1,0,0:0:0:0:
198,119,22465,1,0,0:0:0:0:
380,249,22636,1,0,0:0:0:0:
283,0,22808,6,0,L|286:94,1,80
112,229,23151,2,0,L|113:137,1,80
331,309,23494,6,0,P|246:321|164:311,1,160
172,313,24008,1,0,0:0:0:0:
356,144,24179,2,0,L|362:252,1,80
440,287,24522,1,0,0:0:0:0:
273,180,24694,1,0,0:0:0:0:
450,86,24865,2,0,L|440:157,2,40
482,198,25208,5,0,0:0:0:0:
493,218,25379,1,0,0:0:0:0:
499,234,25551,2,0,L|490:325,1,80
296,353,25894,1,0,0:0:0:0:
384,297,26065,2,0,P|400:358|400:392,1,80
296,353,26408,1,0,0:0:0:0:
352,210,26579,5,0,0:0:0:0:
356,170,26665,1,0,0:0:0:0:
338,133,26751,1,0,0:0:0:0:
300,119,26836,1,0,0:0:0:0:
259,119,26922,1,0,0:0:0:0:
25,300,27265,5,0,0:0:0:0:
25,300,27436,2,0,L|143:312,1,80
276,269,27779,2,0,L|181:277,1,80
137,166,28122,1,0,0:0:0:0:
137,166,28294,1,0,0:0:0:0:
137,166,28465,6,0,L|139:67,1,80
252,13,28808,2,0,L|250:108,1,80
379,203,29151,1,0,0:0:0:0:
367,54,29322,1,0,0:0:0:0:
379,203,29494,2,0,P|437:202|470:190,1,80
212,223,29836,1,0,0:0:0:0:
212,223,30179,6,0,L|215:313,1,80
94,342,30522,1,0,0:0:0:0:
131,258,30694,1,0,0:0:0:0:
287,363,30865,2,0,P|338:359|382:346,1,80
488,221,31208,1,0,0:0:0:0:
383,104,31379,1,0,0:0:0:0:
408,265,31551,1,0,0:0:0:0:
408,265,31894,6,0,L|312:261,1,80
181,177,32236,2,0,L|264:177,1,80
261,177,32579,1,0,0:0:0:0:
56,331,32922,5,0,0:0:0:0:
82,221,33094,1,0,0:0:0:0:
147,384,33265,1,0,0:0:0:0:
184,278,33436,1,0,0:0:0:0:
266,354,33608,1,0,0:0:0:0:
375,329,33779,6,0,P|435:314|448:304,1,80
436,213,34122,2,0,P|448:169|437:120,1,80
373,71,34465,1,0,0:0:0:0:
332,223,34636,1,0,0:0:0:0:
512,258,34808,1,0,0:0:0:0:
334,233,34979,1,0,0:0:0:0:
271,384,35151,6,0,P|209:387|175:369,1,80
39,319,35494,2,0,L|121:325,1,80
242,104,35836,2,0,P|258:190|237:279,1,160
244,260,36351,1,0,0:0:0:0:
396,112,36522,6,0,L|400:12,1,80
232,8,36865,1,0,0:0:0:0:
157,197,37036,1,0,0:0:0:0:
383,229,37208,2,0,L|390:323,1,80
160,376,37551,2,0,P|106:376|68:354,1,80
224,111,37894,6,0,P|268:181|259:244,1,120
66,222,38236,2,0,L|212:211,1,120
464,153,38579,2,0,L|320:137,1,120
89,48,38922,5,0,0:0:0:0:
89,48,39008,1,0,0:0:0:0:
89,48,39094,1,0,0:0:0:0:
89,48,39179,1,0,0:0:0:0:
89,48,39265,5,0,0:0:0:0:
186,112,39436,1,0,0:0:0:0:
111,198,39608,1,0,0:0:0:0:
111,198,39779,2,0,L|112:288,1,80
276,296,40122,2,0,L|264:348,1,40
340,376,40294,1,0,0:0:0:0:
304,204,40465,1,0,0:0:0:0:
463,244,40636,2,0,L|456:162,1,80
400,97,40865,1,0,0:0:0:0:
400,97,40922,1,0,0:0:0:0:
400,97,40979,2,0,P|355:98|316:84,1,80
115,139,41322,6,0,L|214:131,2,80
167,47,41836,1,0,0:0:0:0:
42,253,42008,2,0,L|27:167,1,80
267,0,42351,2,0,P|276:77|266:115,1,80
177,308,42694,2,0,L|173:210,1,80
282,153,43036,1,0,0:0:0:0:
314,330,43208,1,0,0:0:0:0:
134,266,43379,5,0,0:0:0:0:
438,207,43722,5,0,0:0:0:0:
84,280,44065,5,0,0:0:0:0:
159,181,44236,1,0,0:0:0:0:
251,254,44408,1,0,0:0:0:0:
254,372,44579,1,0,0:0:0:0:
254,372,44665,1,0,0:0:0:0:
254,372,44751,6,0,L|359:367,1,80
441,378,45094,1,0,0:0:0:0:
414,250,45265,2,0,L|422:308,1,40
494,218,45436,2,0,L|500:108,1,80
498,138,45779,1,0,0:0:0:0:
286,207,45951,1,0,0:0:0:0:
352,36,46122,5,0,0:0:0:0:
383,152,46294,1,0,0:0:0:0:
383,152,46465,1,0,0:0:0:0:
207,97,46636,1,0,0:0:0:0:
125,269,46808,5,0,0:0:0:0:
120,294,47151,5,0,0:0:0:0:
9,360,47322,1,0,0:0:0:0:
64,145,47494,2,0,L|75:260,1,80
251,383,47836,2,0,L|245:302,1,80
422,153,48179,2,0,L|429:260,1,80
145,31,48522,2,0,L|150:110,1,80
338,321,48865,6,0,L|330:232,1,80
247,78,49208,1,0,0:0:0:0:
222,281,49379,1,0,0:0:0:0:
254,79,49551,1,0,0:0:0:0:
227,284,49722,1,0,0:0:0:0:
232,288,49808,1,0,0:0:0:0:
237,292,49894,2,0,L|257:199,1,80
441,76,50236,2,0,P|453:166|445:185,1,80
425,369,50579,2,0,L|328:358,1,80
159,241,50922,5,0,0:0:0:0:
131,236,51008,1,0,0:0:0:0:
103,241,51094,1,0,0:0:0:0:
78,254,51179,1,0,0:0:0:0:
55,271,51265,1,0,0:0:0:0:
39,294,51351,1,0,0:0:0:0:
27,319,51436,2,0,L|36:366,2,40
89,105,51779,5,0,0:0:0:0:
162,230,51951,1,0,0:0:0:0:
27,188,52122,1,0,0:0:0:0:
195,46,52294,2,0,L|191:150,1,80
319,331,52636,1,0,0:0:0:0:
313,315,52722,1,0,0:0:0:0:
309,299,52808,1,0,0:0:0:0:
305,283,52894,1,0,0:0:0:0:
302,267,52979,6,0,L|303:162,1,80
444,87,53322,1,0,0:0:0:0:
498,219,53494,2,0,P|454:228|409:223,1,80
206,70,53836,1,0,0:0:0:0:
338,16,54008,2,0,P|347:64|332:114,1,80
39,216,54351,2,0,P|92:230|204:212,1,160
194,216,54865,1,0,0:0:0:0:
166,74,55036,5,0,0:0:0:0:
310,178,55208,1,0,0:0:0:0:
224,337,55379,1,0,0:0:0:0:
318,182,55551,1,0,0:0:0:0:
479,316,55722,6,0,L|382:301,1,80
232,191,56065,1,0,0:0:0:0:
40,350,56236,2,0,P|92:350|139:332,1,80
312,151,56579,1,0,0:0:0:0:
312,151,56665,1,0,0:0:0:0:
312,151,56751,2,0,P|319:207|298:255,1,80
89,257,57094,6,0,L|189:270,1,80
423,214,57436,1,0,0:0:0:0:
180,78,57608,1,0,0:0:0:0:
173,74,57951,5,0,0:0:0:0:
38,197,58122,1,0,0:0:0:0:
67,90,58294,1,0,0:0:0:0:
247,157,58465,6,0,P|310:156|344:142,1,80
477,78,58808,2,0,L|466:169,2,80
326,43,59322,1,0,0:0:0:0:
353,248,59494,1,0,0:0:0:0:
196,275,59665,1,0,0:0:0:0:
386,142,59836,5,0,0:0:0:0:
384,358,60008,1,0,0:0:0:0:
275,183,60179,1,0,0:0:0:0:
478,283,60351,6,0,L|381:272,1,80
70,164,60694,2,0,L|164:156,1,80
32,314,61036,1,0,0:0:0:0:
293,246,61208,2,0,L|290:340,1,80
102,249,61551,1,0,0:0:0:0:
257,46,61722,2,0,L|260:149,1,80
425,338,62065,2,0,P|404:258|415:163,1,160
152,4,62579,6,0,P|173:84|162:179,1,160
24,308,63094,1,0,0:0:0:0:
72,92,63265,1,0,0:0:0:0:
264,236,63436,1,0,0:0:0:0:
124,216,63608,1,0,0:0:0:0:
127,222,63694,1,0,0:0:0:0:
129,229,63779,1,0,0:0:0:0:
132,235,63865,1,0,0:0:0:0:
136,240,63951,6,0,L|147:130,1,80
415,36,64294,2,0,L|408:132,1,80
247,384,64636,2,0,P|238:348|250:293,1,80
426,346,64979,1,0,0:0:0:0:
268,186,65151,1,0,0:0:0:0:
75,327,65322,6,0,L|186:321,1,80
468,239,65665,2,0,L|371:237,2,80
389,142,66179,1,0,0:0:0:0:
307,322,66351,1,0,0:0:0:0:
512,314,66522,1,0,0:0:0:0:
241,174,66694,6,0,L|243:263,1,80
31,384,67036,2,0,L|32:283,1,80
172,222,67379,1,0,0:0:0:0:
170,233,67465,1,0,0:0:0:0:
169,245,67551,1,0,0:0:0:0:
78,132,67722,1,0,0:0:0:0:
201,51,67894,1,0,0:0:0:0:
297,296,68065,6,0,L|302:191,1,80
492,63,68408,1,0,0:0:0:0:
492,63,68579,2,0,P|504:136|492:167,1,80
362,0,68922,1,0,0:0:0:0:
260,140,69094,1,0,0:0:0:0:
232,139,69179,1,0,0:0:0:0:
203,139,69265,1,0,0:0:0:0:
174,138,69351,1,0,0:0:0:0:
147,136,69436,6,0,L|37:129,1,80
236,29,69779,1,0,0:0:0:0:
209,268,69951,1,0,0:0:0:0:
410,245,70122,2,0,P|434:201|438:147,1,80
226,150,70465,1,0,0:0:0:0:
368,345,70636,1,0,0:0:0:0:
73,347,70808,6,0,L|85:245,1,80
341,83,71151,2,0,L|331:174,1,80
34,193,71494,1,0,0:0:0:0:
228,119,71665,1,0,0:0:0:0:
97,49,71836,1,0,0:0:0:0:
184,288,72008,6,0,L|185:195,1,80
228,119,72351,1,0,0:0:0:0:
277,375,72522,1,0,0:0:0:0:
481,219,72694,1,0,0:0:0:0:
302,160,72865,5,0,0:0:0:0:
270,190,72951,1,0,0:0:0:0:
228,203,73036,1,0,0:0:0:0:
186,216,73122,1,0,0:0:0:0:
141,216,73208,1,0,0:0:0:0:
97,209,73294,1,0,0:0:0:0:
58,188,73379,1,0,0:0:0:0:
22,161,73465,1,0,0:0:0:0:
12,117,73551,6,0,L|16:65,1,40
130,17,73722,2,0,L|121:68,1,40
224,136,73894,2,0,L|219:73,1,40
245,59,74065,5,0,0:0:0:0:
286,43,74151,1,0,0:0:0:0:
329,41,74236,1,0,0:0:0:0:
371,51,74322,1,0,0:0:0:0:
412,65,74408,1,0,0:0:0:0:
442,97,74494,1,0,0:0:0:0:
459,136,74579,1,0,0:0:0:0:
512,264,74751,1,0,0:0:0:0:
383,238,74922,6,0,P|336:242|292:231,1,80
93,132,75265,2,0,P|140:128|184:139,1,80
425,330,75608,2,0,L|323:318,1,80
14,208,75951,2,0,L|97:213,1,80
226,258,76294,5,0,0:0:0:0:
81,299,76465,1,0,0:0:0:0:
227,122,76636,1,0,0:0:0:0:
227,122,76808,1,0,0:0:0:0:
334,208,76979,2,0,P|394:207|445:184,1,80
227,122,77322,2,0,L|120:116,1,80
11,198,77665,5,0,0:0:0:0:
175,33,77836,1,0,0:0:0:0:
180,260,78008,1,0,0:0:0:0:
180,260,78179,1,0,0:0:0:0:
336,280,78351,2,0,P|374:280|443:264,1,80
187,136,78694,1,0,0:0:0:0:
187,136,78865,1,0,0:0:0:0:
79,361,79036,6,0,L|-26:355,1,80
199,264,79379,1,0,0:0:0:0:
199,264,79551,1,0,0:0:0:0:
47,136,79722,2,0,L|56:231,1,80
202,79,80065,2,0,L|193:-17,1,80
462,168,80408,6,0,P|409:177|366:161,1,80
127,113,80751,1,0,0:0:0:0:
127,113,80922,1,0,0:0:0:0:
286,34,81094,1,0,0:0:0:0:
286,34,81265,1,0,0:0:0:0:
262,203,81436,1,0,0:0:0:0:
262,203,81608,6,0,L|262:313,1,80
470,351,81951,2,0,P|429:363|383:355,1,80
51,303,82294,1,0,0:0:0:0:
51,303,82465,2,0,P|92:291|138:299,1,80
267,115,82808,2,0,L|266:215,1,80
424,285,83151,6,0,L|422:199,1,80
186,75,83494,2,0,L|185:175,1,80
337,357,83836,2,0,L|336:255,1,80
257,31,84179,1,0,0:0:0:0:
166,237,84351,6,0,P|229:225|262:188,1,80
447,133,84694,2,0,L|345:135,1,80
257,31,85036,1,0,0:0:0:0:
57,127,85208,5,0,0:0:0:0:
62,154,85294,1,0,0:0:0:0:
66,181,85379,1,0,0:0:0:0:
71,208,85465,1,0,0:0:0:0:
77,235,85551,1,0,0:0:0:0:
256,192,85894,12,0,90008,0:0:0:0:
