osu file format v14

[General]
AudioFilename: audio.mp3
AudioLeadIn: 0
PreviewTime: -1
Countdown: 1
SampleSet: Soft
StackLeniency: 0.7
Mode: 0
LetterboxInBreaks: 0
WidescreenStoryboard: 0

[Editor]
Bookmarks: 28294
DistanceSpacing: 1
BeatDivisor: 4
GridSize: 4
TimelineZoom: 1.9

[Metadata]
Title:Opening
TitleUnicode:Opening
Artist:3R2
ArtistUnicode:3R2
Creator:TT Mouse
Version:Insane wip
Source:Rabi-Ribi
Tags:opening
BeatmapID:904483
BeatmapSetID:417722

[Difficulty]
HPDrainRate:6
CircleSize:4
OverallDifficulty:8
ApproachRate:9
SliderMultiplier:1.6
SliderTickRate:1

[Events]
//Background and Video events
//Break Periods
//Storyboard Layer 0 (Background)
//Storyboard Layer 1 (Fail)
//Storyboard Layer 2 (Pass)
//Storyboard Layer 3 (Foreground)
//Storyboard Sound Samples

[TimingPoints]
-506,342.857142857143,4,2,0,60,1,0
865,-153.846153846153,4,2,0,60,0,0
6351,-100,4,2,0,60,0,0
9094,-133.333333333333,4,2,0,60,0,0
11836,-100,4,2,0,60,0,0
16636,-90.9090909090909,4,2,0,60,0,0
16979,-166.666666666667,4,2,0,60,0,0
17322,-125,4,2,0,60,0,0
26922,-83.3333333333333,4,2,0,60,0,0
28294,-100,4,2,0,60,0,0
37894,-71.4285714285714,4,2,0,60,0,0
38922,-100,4,2,0,60,0,0
47151,-133.333333333333,4,2,0,60,0,0
51608,-83.3333333333333,4,2,0,60,0,0
52636,-111.111111111111,4,2,0,60,0,1
74579,-83.3333333333333,4,2,0,60,0,1
74922,-99.9999999999999,4,2,0,60,0,0

[HitObjects]
197,56,865,6,0,P|116:42|34:86,2,155.999992858887
396,139,2236,2,0,P|424:131|452:134,1,51.999997619629
310,220,2579,2,0,P|274:205|260:207,1,51.999997619629
420,327,3094,2,0,L|493:320,2,51.999997619629
363,375,3608,6,0,L|407:220,1,155.999992858887
405,224,4636,2,0,L|386:272,1,51.999997619629
117,340,5322,1,0,0:0:0:0:
95,258,5665,1,0,0:0:0:0:
290,197,6008,5,0,0:0:0:0:
285,209,6094,1,0,0:0:0:0:
280,221,6179,1,0,0:0:0:0:
275,233,6265,1,0,0:0:0:0:
269,243,6351,2,0,P|234:182|279:100,1,160
383,79,6865,1,0,0:0:0:0:
352,280,7036,2,0,P|316:320|203:308,1,160
368,179,7551,1,0,0:0:0:0:
462,287,7722,6,0,B|476:317|476:317|442:371,1,80
307,128,8065,2,0,B|293:98|293:98|327:44,1,80
447,207,8408,1,0,0:0:0:0:
343,255,8579,1,0,0:0:0:0:
245,198,8751,1,0,0:0:0:0:
143,248,8922,1,0,0:0:0:0:
245,198,9094,6,0,L|199:151,1,60.0000022888184
61,309,9436,2,0,L|69:374,1,60.0000022888184
43,163,9779,1,0,0:0:0:0:
143,248,9951,1,0,0:0:0:0:
129,160,10122,1,0,0:0:0:0:
113,67,10294,1,0,0:0:0:0:
113,67,10379,5,0,0:0:0:0:
113,67,10465,2,0,L|66:33,3,30.0000011444092
226,33,10808,2,0,L|262:32,3,30.0000011444092
231,118,11151,1,0,0:0:0:0:
259,127,11236,1,0,0:0:0:0:
289,128,11322,1,0,0:0:0:0:
318,121,11408,1,0,0:0:0:0:
345,109,11493,1,0,0:0:0:0:
374,102,11579,1,0,0:0:0:0:
404,104,11665,1,0,0:0:0:0:
433,111,11751,1,0,0:0:0:0:
454,133,11836,6,0,L|438:211,1,80
285,288,12179,2,0,L|301:366,1,80
465,148,12522,2,0,L|449:226,1,80
295,329,12865,2,0,B|303:366|303:366|339:343,1,80
209,262,13208,2,0,B|172:250|172:250|174:293,1,80
305,216,13551,2,0,B|333:190|333:190|295:170,1,80
120,164,13894,2,0,P|77:143|65:91,1,80
222,56,14236,2,0,P|203:22|167:8,1,80
120,164,14579,6,0,L|136:242,1,80
313,305,14922,2,0,L|297:383,1,80
111,185,15265,6,0,L|127:263,1,80
312,303,15608,1,0,0:0:0:0:
154,359,15779,1,0,0:0:0:0:
159,369,16122,1,0,0:0:0:0:
164,380,16465,1,0,0:0:0:0:
229,216,16636,2,0,P|210:176|208:232,1,132.00000402832
261,281,16979,2,0,L|336:274,1,71.9999978027344
404,294,17322,6,0,P|405:341|388:365,1,64,0|2,0:0|0:3,0:0:0:0:
351,175,17665,2,0,P|368:137|401:120,1,64,0|2,0:0|0:3,0:0:0:0:
465,206,18008,1,0,0:0:0:0:
465,206,18179,1,2,0:3:0:0:
472,71,18351,1,0,0:0:0:0:
472,71,18522,1,2,0:3:0:0:
302,77,18694,6,0,L|241:59,1,64,0|2,0:0|0:3,0:0:0:0:
110,193,19036,2,0,L|174:182,1,64,0|2,0:0|0:3,0:0:0:0:
248,294,19379,1,0,0:0:0:0:
239,133,19551,1,2,0:3:0:0:
254,326,19722,1,0,0:0:0:0:
98,275,19894,1,10,0:3:0:0:
260,357,20065,6,0,P|309:340|321:324,1,64
170,248,20408,2,0,P|158:219|131:204,1,64
158,329,20751,1,0,0:0:0:0:
158,329,20922,1,0,0:0:0:0:
272,214,21094,1,0,0:0:0:0:
272,214,21265,1,0,0:0:0:0:
86,124,21436,6,0,L|24:138,1,64
169,13,21779,2,0,L|231:28,1,64
216,184,22122,1,0,0:0:0:0:
292,232,22294,1,0,0:0:0:0:
372,186,22465,1,0,0:0:0:0:
365,96,22636,1,0,0:0:0:0:
149,231,22808,6,0,L|230:218,1,64
386,276,23151,2,0,L|313:264,1,64
94,265,23494,2,0,L|175:252,1,64
440,324,23836,2,0,L|367:312,1,64
101,346,24179,5,0,0:0:0:0:
202,327,24351,1,0,0:0:0:0:
226,227,24522,1,0,0:0:0:0:
164,144,24694,1,0,0:0:0:0:
358,84,24865,2,0,P|357:115|330:144,1,64
164,144,25208,2,0,L|81:161,1,64
163,27,25551,6,0,P|221:31|271:95,1,128
279,210,26065,1,0,0:0:0:0:
397,258,26236,2,0,P|439:229|446:199,1,64
199,248,26579,1,0,0:0:0:0:
203,279,26665,1,0,0:0:0:0:
209,310,26751,1,0,0:0:0:0:
213,341,26836,1,0,0:0:0:0:
218,367,26922,6,0,P|280:372|226:306,1,191.999994140625
63,362,27436,1,0,0:0:0:0:
373,300,27779,1,0,0:0:0:0:
62,154,28122,1,0,0:0:0:0:
16,246,28294,6,0,L|36:331,1,80
103,134,28636,2,0,L|123:49,1,80
197,212,28979,1,0,0:0:0:0:
302,161,29151,2,0,P|338:152|398:179,2,80
211,325,29665,5,0,0:0:0:0:
211,325,29836,1,0,0:0:0:0:
356,359,30008,2,0,P|395:333|371:313,1,80
211,325,30351,1,0,0:0:0:0:
130,299,30522,1,0,0:0:0:0:
261,181,30694,1,0,0:0:0:0:
337,156,30865,1,0,0:0:0:0:
210,324,31036,6,0,L|197:246,1,80
350,77,31379,2,0,L|336:155,1,80
249,29,31722,1,0,0:0:0:0:
153,80,31894,2,0,P|101:78|71:52,2,80
246,142,32408,5,0,0:0:0:0:
246,142,32579,1,0,0:0:0:0:
220,253,32751,1,0,0:0:0:0:
220,253,32922,1,0,0:0:0:0:
141,201,33094,1,0,0:0:0:0:
299,302,33265,1,0,0:0:0:0:
135,166,33436,1,0,0:0:0:0:
165,363,33608,1,0,0:0:0:0:
135,166,33779,6,0,L|155:77,1,80
299,302,34122,2,0,L|316:380,1,80
403,117,34465,1,0,0:0:0:0:
280,222,34636,1,0,0:0:0:0:
470,284,34808,1,0,0:0:0:0:
384,81,34979,1,0,0:0:0:0:
395,200,35151,5,0,0:0:0:0:
478,63,35322,1,0,0:0:0:0:
475,55,35494,1,0,0:0:0:0:
472,47,35665,1,0,0:0:0:0:
469,39,35836,2,0,L|463:126,1,80
448,370,36179,2,0,P|451:336|490:300,1,80
342,366,36522,6,0,L|177:332,1,160
73,362,37036,1,0,0:0:0:0:
145,240,37208,2,0,P|141:198|167:152,1,80
97,21,37551,2,0,P|101:63|75:109,1,80
73,362,37894,5,0,0:0:0:0:
0,99,38236,1,0,0:0:0:0:
73,362,38579,1,0,0:0:0:0:
233,176,38922,5,0,0:0:0:0:
234,172,39008,1,0,0:0:0:0:
235,168,39094,1,0,0:0:0:0:
236,164,39179,1,0,0:0:0:0:
237,160,39265,1,0,0:0:0:0:
302,252,39436,1,0,0:0:0:0:
232,322,39608,2,0,P|257:348|317:351,1,80
298,356,39865,2,0,P|355:332|412:351,1,120
302,252,40294,1,0,0:0:0:0:
439,202,40465,1,0,0:0:0:0:
408,349,40636,5,0,0:0:0:0:
360,185,40808,1,0,0:0:0:0:
365,174,40894,1,0,0:0:0:0:
370,163,40979,1,0,0:0:0:0:
404,87,41151,1,0,0:0:0:0:
462,285,41322,1,0,0:0:0:0:
466,201,41665,5,0,0:0:0:0:
462,285,41836,1,0,0:0:0:0:
307,339,42008,2,0,L|397:330,1,80
279,260,42351,2,0,P|233:296|228:332,1,80
227,314,42608,2,0,P|201:260|114:252,1,120
167,368,43036,1,0,0:0:0:0:
70,238,43208,5,0,0:0:0:0:
72,227,43294,1,0,0:0:0:0:
74,217,43379,2,0,L|59:75,1,120
121,9,43722,2,0,L|136:144,1,120
172,195,44065,2,0,P|226:206|251:189,1,80
403,67,44408,2,0,P|346:52|335:25,1,80
379,195,44751,5,0,0:0:0:0:
212,132,44922,1,0,0:0:0:0:
379,195,45094,2,0,L|367:279,1,80
367,274,45351,2,0,P|322:314|241:289,1,120
48,349,45779,2,0,P|114:349|135:368,1,80
220,366,46122,5,0,0:0:0:0:
178,191,46294,1,0,0:0:0:0:
159,287,46465,1,0,0:0:0:0:
199,103,46636,1,0,0:0:0:0:
332,231,46808,1,0,0:0:0:0:
159,287,47151,2,0,L|241:312,1,60.0000022888184
362,373,47494,6,0,P|384:328|411:316,1,60.0000022888184
397,112,47836,2,0,P|375:157|348:169,1,60.0000022888184
365,346,48179,6,0,P|387:301|414:289,1,60.0000022888184
400,85,48521,2,0,P|378:130|351:142,1,60.0000022888184
189,149,48865,6,0,L|106:133,1,60.0000022888184
345,213,49208,2,0,L|428:229,1,60.0000022888184
161,159,49551,6,0,L|78:143,1,60.0000022888184
317,223,49894,2,0,L|400:239,1,60.0000022888184
128,357,50236,5,0,0:0:0:0:
260,328,50408,1,0,0:0:0:0:
230,193,50579,1,0,0:0:0:0:
98,222,50751,1,0,0:0:0:0:
260,328,50922,1,0,0:0:0:0:
285,311,51007,1,0,0:0:0:0:
313,302,51093,1,0,0:0:0:0:
343,302,51179,1,0,0:0:0:0:
372,309,51264,1,0,0:0:0:0:
398,324,51350,1,0,0:0:0:0:
419,345,51436,1,0,0:0:0:0:
419,345,51779,6,0,P|406:286|407:285,1,47.9999985351563
337,251,51951,2,0,P|374:202|375:202,1,47.9999985351563
358,126,52122,2,0,P|419:123|419:124,1,47.9999985351563
421,192,52294,2,0,P|369:174|437:122,1,143.999995605469
478,130,52636,6,0,L|496:99,3,35.9999989013672
485,51,52979,6,0,B|434:32|434:32|385:38|385:38|327:20,1,143.999995605469
218,101,53494,1,0,0:0:0:0:
218,101,53665,2,0,P|215:133|240:173,1,71.9999978027344
220,339,54008,2,0,P|241:295|236:265,1,71.9999978027344
27,245,54351,6,0,L|187:292,1,143.999995605469
329,331,54865,1,0,0:0:0:0:
329,331,55036,1,0,0:0:0:0:
413,194,55208,1,0,0:0:0:0:
433,279,55379,1,0,0:0:0:0:
460,362,55551,1,0,0:0:0:0:
328,197,55722,6,0,P|341:138|429:108,1,143.999995605469
433,279,56236,1,0,0:0:0:0:
361,333,56408,2,0,L|258:312,1,71.9999978027344
82,340,56751,1,0,0:0:0:0:
249,201,56922,1,0,0:0:0:0:
194,362,57094,5,0,0:0:0:0:
256,170,57436,1,0,0:0:0:0:
194,362,57608,2,0,P|200:308|129:255,1,143.999995605469
31,231,58122,1,0,0:0:0:0:
145,174,58294,1,0,0:0:0:0:
9,86,58465,6,0,P|88:78|124:2,1,143.999995605469
322,77,58979,1,0,0:0:0:0:
322,77,59151,2,0,L|252:89,1,71.9999978027344
448,219,59494,2,0,P|425:280|439:312,1,71.9999978027344
288,204,59836,5,0,0:0:0:0:
429,132,60008,1,0,0:0:0:0:
501,274,60179,1,0,0:0:0:0:
360,346,60351,2,0,P|282:315|224:373,1,143.999995605469
130,372,60865,1,0,0:0:0:0:
48,295,61036,1,0,0:0:0:0:
127,157,61208,6,0,L|134:81,1,71.9999978027344
60,282,61551,1,0,0:0:0:0:
139,144,61722,2,0,L|146:68,1,71.9999978027344
202,249,62065,1,0,0:0:0:0:
202,249,62236,2,0,P|274:235|289:247,1,71.9999978027344
367,353,62579,5,0,0:0:0:0:
420,195,62751,1,0,0:0:0:0:
253,312,62922,1,0,0:0:0:0:
430,286,63094,1,0,0:0:0:0:
320,137,63265,1,0,0:0:0:0:
367,353,63436,1,0,0:0:0:0:
428,155,63608,5,0,0:0:0:0:
421,130,63694,1,0,0:0:0:0:
414,105,63779,1,0,0:0:0:0:
407,80,63865,1,0,0:0:0:0:
398,56,63951,2,0,L|246:26,1,143.999995605469
105,88,64465,1,0,0:0:0:0:
105,88,64636,2,0,P|151:101|172:130,1,71.9999978027344
56,293,64979,2,0,P|92:243|91:216,1,71.9999978027344
143,336,65322,6,0,L|295:366,1,143.999995605469
439,344,65836,1,0,0:0:0:0:
439,344,66007,2,0,P|393:331|372:302,1,71.9999978027344
416,142,66351,1,0,0:0:0:0:
450,259,66522,1,0,0:0:0:0:
245,255,66694,6,0,B|275:240|275:240|329:242,1,71.9999978027344
85,193,67036,2,0,B|123:194|123:194|153:179,1,71.9999978027344
31,332,67379,2,0,P|64:301|63:257,1,71.9999978027344
35,107,67722,1,0,0:0:0:0:
163,253,67894,1,0,0:0:0:0:
2,334,68065,6,0,L|161:361,1,143.999995605469
442,336,68579,2,0,L|283:363,1,143.999995605469
163,253,69094,1,0,0:0:0:0:
149,220,69179,1,0,0:0:0:0:
156,185,69265,1,0,0:0:0:0:
183,162,69351,1,0,0:0:0:0:
218,158,69436,6,0,P|155:207|71:179,1,143.999995605469
37,104,69951,1,0,0:0:0:0:
254,70,70122,2,0,P|302:114|301:195,1,143.999995605469
145,85,70636,1,0,0:0:0:0:
359,52,70808,6,0,L|447:63,1,71.9999978027344
218,158,71151,2,0,L|120:173,1,71.9999978027344
307,298,71494,1,0,0:0:0:0:
382,208,71665,1,0,0:0:0:0:
475,283,71836,1,0,0:0:0:0:
401,369,72008,1,0,0:0:0:0:
236,309,72179,6,0,L|307:298,1,71.9999978027344
57,311,72522,2,0,L|89:381,1,71.9999978027344
93,238,72865,2,0,P|75:231|34:230,3,35.9999989013672
181,177,73208,2,0,P|198:170|226:172,3,35.9999989013672
92,125,73551,5,0,0:0:0:0:
108,93,73636,1,0,0:0:0:0:
136,71,73722,1,0,0:0:0:0:
171,64,73808,1,0,0:0:0:0:
206,71,73893,1,0,0:0:0:0:
235,92,73979,1,0,0:0:0:0:
268,103,74064,1,0,0:0:0:0:
304,101,74150,1,0,0:0:0:0:
335,83,74236,2,0,L|332:62,6,17.9999994506836
302,180,74579,6,0,B|294:210|294:210|327:278,1,95.9999970703126
462,334,74922,6,0,L|371:355,1,80
174,319,75265,2,0,L|264:347,1,80
445,348,75608,2,0,L|354:369,1,80
156,332,75951,6,0,B|173:293|173:293|128:265,1,80
212,180,76294,2,0,B|237:214|237:214|271:197,1,80
304,307,76636,2,0,B|261:311|261:311|260:349,1,80
66,293,76979,6,0,P|70:235|105:203,1,80
48,52,77322,2,0,P|44:110|9:142,1,80
66,293,77665,6,0,L|161:282,1,80
319,207,78008,2,0,L|229:188,1,80
81,311,78351,2,0,L|176:300,1,80
319,207,78694,6,0,B|282:195|282:195|284:238,1,80
415,161,79036,2,0,B|443:135|443:135|405:115,1,80
405,274,79379,2,0,B|413:311|413:311|449:288,1,80
333,91,79722,6,0,P|368:46|415:40,1,80
509,150,80065,2,0,P|474:195|427:201,1,80
296,157,80408,6,0,L|211:108,1,80
94,256,80751,2,0,L|107:356,1,80
286,133,81094,2,0,L|201:84,1,80
84,232,81437,6,0,B|49:251|49:251|0:240,1,80
24,144,81779,2,0,B|25:104|25:104|59:67,1,80
130,136,82122,2,0,B|163:156|163:156|178:204,1,80
221,320,82465,6,0,P|266:345|365:293,1,160
374,177,82979,1,0,0:0:0:0:
471,100,83151,6,0,P|482:143|528:179,1,80
436,351,83494,2,0,P|462:321|470:282,1,80
374,177,83836,2,0,L|289:159,1,80
92,193,84179,1,0,0:0:0:0:
216,358,84351,5,0,0:0:0:0:
213,366,84694,1,0,0:0:0:0:
208,374,85036,1,0,0:0:0:0:
179,272,85208,6,0,P|185:248|201:226,3,40
281,295,85551,1,0,0:0:0:0:
256,192,85894,12,0,92751,0:0:0:0:
