osu file format v14

[General]
AudioFilename: audio.mp3
AudioLeadIn: 0
PreviewTime: -1
Countdown: 1
SampleSet: Soft
StackLeniency: 0.7
Mode: 0
LetterboxInBreaks: 0
WidescreenStoryboard: 1

[Editor]
Bookmarks: 28294
DistanceSpacing: 1.5
BeatDivisor: 4
GridSize: 4
TimelineZoom: 1

[Metadata]
Title:Opening
TitleUnicode:Opening
Artist:3R2
ArtistUnicode:3R2
Creator:TT Mouse
Version:Hard wip
Source:Rabi-Ribi
Tags:opening
BeatmapID:925853
BeatmapSetID:417722

[Difficulty]
HPDrainRate:4
CircleSize:4
OverallDifficulty:5
ApproachRate:7
SliderMultiplier:1.3
SliderTickRate:1

[Events]
//Background and Video events
//Break Periods
//Storyboard Layer 0 (Background)
//Storyboard Layer 1 (Fail)
//Storyboard Layer 2 (Pass)
//Storyboard Layer 3 (Foreground)
//Storyboard Sound Samples

[TimingPoints]
-506,342.857142857143,4,2,0,60,1,0
865,-133.333333333333,4,2,0,60,0,0
6351,-100,4,2,0,60,0,0
9094,-100,4,2,0,60,0,0
11836,-90.9090909090909,4,2,0,60,0,0
16636,-90.9090909090909,4,2,0,60,0,0
16979,-166.666666666667,4,2,0,60,0,0
17322,-125,4,2,0,60,0,0
26922,-83.3333333333333,4,2,0,60,0,0
28294,-100,4,2,0,60,0,0
37894,-71.4285714285714,4,2,0,60,0,0
38922,-100,4,2,0,60,0,0
47151,-133.333333333333,4,2,0,60,0,0
51608,-83.3333333333333,4,2,0,60,0,0
52636,-111.111111111111,4,2,0,60,0,1
74922,-111.111111111111,4,2,0,60,0,0

[HitObjects]
193,290,865,6,0,P|125:307|58:264,2,146.250005578995
324,229,2236,2,0,L|377:241,1,48.750001859665
420,310,2579,2,0,L|475:300,1,48.750001859665
340,317,3094,2,0,L|329:368,2,48.750001859665
371,239,3608,2,0,L|346:87,1,146.250005578995
159,34,4636,2,0,L|168:95,1,48.750001859665
18,168,5322,2,0,P|51:202|98:207,1,97.50000371933
174,180,5836,1,0,0:0:0:0:
220,249,6008,2,0,L|203:285,3,24.3750009298325
269,313,6351,2,0,L|265:175,1,130
314,108,6865,1,0,0:0:0:0:
384,167,7036,2,0,P|425:204|503:187,1,130
451,126,7551,1,0,0:0:0:0:
451,126,7722,2,0,B|433:78|433:78|444:31|444:31|433:-7,2,130
480,212,8579,2,0,L|464:284,1,65
377,253,8922,1,0,0:0:0:0:
377,253,9094,2,0,P|340:255|310:286,1,65
302,360,9436,2,0,P|262:343|246:317,1,65
165,258,9779,2,0,P|168:290|158:321,1,65
68,354,10122,1,0,0:0:0:0:
10,280,10294,2,0,L|93:264,1,65
109,182,10636,2,0,L|43:172,1,65
5,98,10979,1,0,0:0:0:0:
79,41,11151,2,0,L|119:51,2,32.5
168,99,11494,2,0,L|203:84,2,32.5
268,57,11836,2,0,P|275:107|207:165,2,143.000004364014
415,192,12865,2,0,P|454:182|485:190,1,71.5000021820069
486,289,13208,2,0,P|447:299|416:291,1,71.5000021820069
331,239,13551,2,0,P|314:280|321:319,1,71.5000021820069
227,352,13894,2,0,B|186:388|128:316|86:354,1,143.000004364014
101,150,14579,2,0,L|59:-1,2,143.000004364014
162,341,15608,2,0,L|136:260,1,71.5000021820069
332,329,16122,1,0,0:0:0:0:
235,153,16465,1,0,0:0:0:0:
281,241,16636,2,0,P|329:200|320:106,1,143.000004364014
208,45,17322,2,0,L|145:51,1,52
73,122,17665,2,0,L|136:117,1,52
213,178,18008,2,0,L|150:184,1,52
108,240,18351,1,0,0:0:0:0:
108,240,18522,1,0,0:0:0:0:
58,302,18694,2,0,P|101:323|117:321,1,52
176,290,19036,2,0,P|213:284|232:288,1,52
282,343,19379,1,0,0:0:0:0:
368,298,19551,1,0,0:0:0:0:
288,236,19722,1,0,0:0:0:0:
288,236,19894,1,0,0:0:0:0:
384,191,20065,2,0,L|441:208,1,52
509,149,20408,2,0,L|452:132,1,52
393,41,20751,2,0,L|450:58,1,52
389,117,21094,1,0,0:0:0:0:
389,117,21265,1,0,0:0:0:0:
303,110,21436,2,0,P|278:73|275:43,1,52
194,37,21779,2,0,P|150:40|129:57,1,52
92,116,22122,1,0,0:0:0:0:
186,118,22294,1,0,0:0:0:0:
184,209,22465,1,0,0:0:0:0:
86,210,22636,1,0,0:0:0:0:
23,281,22808,2,0,P|68:313|122:297,1,104
301,334,23494,2,0,P|256:366|202:350,1,104
372,247,24179,1,0,0:0:0:0:
422,314,24351,2,0,L|407:372,2,52
441,198,24865,2,0,P|416:152|442:92,1,104
512,76,25379,1,0,0:0:0:0:
512,76,25551,2,0,P|476:35|460:31,1,52
394,29,25894,2,0,L|273:46,1,104
208,108,26408,1,0,0:0:0:0:
265,185,26579,2,0,L|300:200,3,26
291,138,26922,2,0,B|299:184|299:184|258:242|258:242|264:295,1,155.999995239258
321,353,27436,2,0,P|276:316|184:357,1,155.999995239258
192,346,28122,1,0,0:0:0:0:
99,357,28294,2,0,P|121:316|112:281,1,65
48,243,28636,2,0,P|49:210|68:184,1,65
157,197,28979,1,0,0:0:0:0:
228,140,29151,2,0,L|211:68,2,65
227,231,29665,2,0,P|260:230|289:203,1,65
375,203,30008,2,0,P|370:234|351:260,1,65
269,302,30351,1,0,0:0:0:0:
347,347,30522,1,0,0:0:0:0:
486,336,30694,2,0,P|450:352|418:338,1,65
443,266,31036,2,0,L|474:206,1,65
438,123,31379,2,0,L|467:65,1,65
385,26,31722,1,0,0:0:0:0:
318,88,31894,2,0,P|272:78|253:49,2,65
268,164,32408,2,0,P|284:200|272:237,1,65
340,292,32751,2,0,P|293:319|263:313,1,65
202,277,33094,1,0,0:0:0:0:
205,366,33265,1,0,0:0:0:0:
69,380,33436,2,0,P|32:358|23:329,1,65
94,304,33779,2,0,L|75:218,1,65
30,163,34122,2,0,L|11:77,1,65
86,42,34465,1,0,0:0:0:0:
86,42,34636,1,0,0:0:0:0:
166,85,34808,1,0,0:0:0:0:
166,85,34979,1,0,0:0:0:0:
246,41,35151,2,0,L|320:47,1,65
387,95,35494,2,0,P|407:46|395:14,1,65
310,134,35836,2,0,P|346:175|434:164,1,130
491,129,36351,1,0,0:0:0:0:
491,129,36522,2,0,B|499:182|499:182|459:260,1,130
324,368,37208,2,0,P|303:343|273:330,1,65
183,317,37551,2,0,P|151:323|123:339,1,65
67,258,37894,2,0,B|66:206|54:167|54:167|75:204|126:263,2,181.999994445801
158,100,38922,2,0,L|125:74,3,32.5
163,141,39265,2,0,L|248:125,1,65
315,105,39608,2,0,P|315:138|294:176,1,65
301,166,39865,2,0,P|368:144|409:162,1,97.5
454,217,40294,1,0,0:0:0:0:
364,233,40465,1,0,0:0:0:0:
375,323,40636,2,0,P|331:307|303:316,1,65
314,310,40894,1,0,0:0:0:0:
314,310,40979,1,0,0:0:0:0:
237,359,41151,1,0,0:0:0:0:
237,359,41322,2,0,L|263:210,1,130
200,161,41836,1,0,0:0:0:0:
130,219,42008,2,0,L|59:195,1,65
8,129,42351,2,0,P|48:109|92:118,1,65
67,109,42608,2,0,P|37:61|51:17,1,97.5
136,16,43036,1,0,0:0:0:0:
205,75,43208,1,0,0:0:0:0:
201,83,43294,1,0,0:0:0:0:
197,93,43379,2,0,P|246:99|264:21,2,130
228,178,44236,1,0,0:0:0:0:
228,178,44408,2,0,L|310:188,1,65
366,132,44751,2,0,P|388:178|380:212,1,65
335,272,45094,2,0,P|338:304|356:330,1,65
356,330,45351,2,0,P|303:294|260:309,1,97.5
206,340,45779,1,0,0:0:0:0:
142,278,45951,1,0,0:0:0:0:
68,310,46122,2,0,L|67:376,2,65
70,230,46636,1,0,0:0:0:0:
142,278,46808,2,0,L|146:144,1,130
148,71,47322,1,0,0:0:0:0:
218,115,47494,2,0,P|261:126|328:101,2,97.50000371933
356,23,48522,1,0,0:0:0:0:
448,160,48865,1,0,0:0:0:0:
312,256,49208,1,0,0:0:0:0:
453,342,49551,2,0,P|456:299|498:257,1,97.50000371933
354,354,50236,2,0,L|292:342,1,48.750001859665
200,368,50579,2,0,L|239:318,1,48.750001859665
295,239,50922,2,0,L|262:216,3,24.3750009298325
343,217,51265,2,0,L|337:280,1,48.750001859665
220,137,51779,1,0,0:0:0:0:
185,58,51950,1,0,0:0:0:0:
264,24,52122,1,0,0:0:0:0:
297,103,52294,2,0,P|330:80|431:135,1,155.999995239258
420,134,52722,1,0,0:0:0:0:
414,147,52808,1,0,0:0:0:0:
408,160,52894,1,0,0:0:0:0:
403,173,52979,2,0,L|431:295,1,116.999996429443
361,344,53494,1,0,0:0:0:0:
286,297,53665,2,0,P|253:301|218:334,1,58.4999982147217
155,358,54008,2,0,P|108:348|94:329,1,58.4999982147217
84,255,54351,2,0,P|37:284|23:362,2,116.999996429443
166,263,55208,1,0,0:0:0:0:
117,160,55379,1,0,0:0:0:0:
226,191,55551,1,0,0:0:0:0:
117,160,55722,2,0,L|115:32,1,116.999996429443
199,18,56236,1,0,0:0:0:0:
250,89,56408,2,0,P|297:106|326:101,1,58.4999982147217
429,93,56751,1,0,0:0:0:0:
357,40,56922,1,0,0:0:0:0:
377,159,57094,2,0,L|395:285,1,116.999996429443
326,357,57608,2,0,L|308:231,1,116.999996429443
231,206,58122,1,0,0:0:0:0:
231,206,58294,1,0,0:0:0:0:
181,271,58465,2,0,P|137:292|59:272,2,116.999996429443
146,195,59322,1,0,0:0:0:0:
146,195,59494,2,0,L|157:137,1,58.4999982147217
199,23,59836,1,0,0:0:0:0:
228,103,60008,1,0,0:0:0:0:
108,75,60179,1,0,0:0:0:0:
228,103,60351,2,0,P|281:86|359:109,1,116.999996429443
