osu file format v14

[General]
AudioFilename: audio.mp3
AudioLeadIn: 0
PreviewTime: 57269
Countdown: 0
SampleSet: Soft
StackLeniency: 0.7
Mode: 0
LetterboxInBreaks: 0
WidescreenStoryboard: 0

[Editor]
Bookmarks: 15047,29269,57713,86158
DistanceSpacing: 1.3
BeatDivisor: 2
GridSize: 4
TimelineZoom: 1

[Metadata]
Title:Melting Point
TitleUnicode:Melting Point
Artist:3R2
ArtistUnicode:3R2
Creator:Nozhomi
Version:Normal
Source:Rabi-Ribi
Tags:ăƒ©ăƒ“-ăƒȘビ Rabi Ribi Original Soundtrack Steam kano-bi CreSpirit Animen Sekai Project Plurk GemaYue Erina Ribbon Is the order a DLC?
BeatmapID:1413069
BeatmapSetID:667862

[Difficulty]
HPDrainRate:3
CircleSize:3
OverallDifficulty:4
ApproachRate:5
SliderMultiplier:1.3
SliderTickRate:1

[Events]
//Background and Video events
0,0,"pyon.jpg",0,0
//Break Periods
//Storyboard Layer 0 (Background)
//Storyboard Layer 1 (Fail)
//Storyboard Layer 2 (Pass)
//Storyboard Layer 3 (Foreground)
//Storyboard Sound Samples

[TimingPoints]
825,444.444444444444,4,2,1,60,1,0
57713,-100,4,2,1,70,0,1
71713,-83.3333333333333,4,2,1,70,0,0
71936,-100,4,2,1,70,0,1
84380,-100,4,2,1,60,0,0
89602,-100,4,2,1,20,0,0

[Colours]
Combo1 : 35,158,194
Combo2 : 210,0,0
Combo3 : 81,19,242
Combo4 : 244,119,198

[HitObjects]
132,236,825,5,4,3:2:0:0:
56,200,1047,2,0,L|48:84,2,97.5,2|2|2,0:0|0:0|0:0,0:0:0:0:
108,316,2047,2,0,P|151:333|212:328,1,97.5,2|2,0:0|0:0,0:0:0:0:
256,268,2602,1,0,0:0:0:0:
310,331,2824,2,0,P|358:333|403:315,1,97.5,2|2,0:0|0:0,0:0:0:0:
488,220,3491,2,0,L|480:20,1,195,2|2,0:0|0:0,0:0:0:0:
399,49,4380,5,0,0:0:0:0:
316,32,4602,2,0,B|268:24|268:24|220:32,2,97.5,2|2|2,0:0|0:0|0:0,0:0:0:0:
316,160,5602,2,0,B|268:168|268:168|220:160,1,97.5,2|2,0:0|0:0,0:0:0:0:
136,140,6158,1,0,0:0:0:0:
160,220,6380,2,0,P|168:268|148:336,1,97.5,2|2,0:0|0:0,0:0:0:0:
41,266,7047,2,0,L|45:58,1,195,2|2,0:0|0:0,0:0:0:0:
128,52,7936,5,0,0:0:0:0:
126,136,8158,2,0,L|124:233,2,97.5,2|2|2,0:0|0:0|0:0,0:0:0:0:
212,40,9158,2,0,L|210:152,1,97.5,2|2,0:0|0:0,0:0:0:0:
208,220,9713,1,0,0:0:0:0:
284,183,9936,2,0,P|331:174|378:183,1,97.5,2|2,0:0|0:0,0:0:0:0:
422,304,10603,2,0,P|330:332|238:303,1,195,2|0,0:0|0:0,0:0:0:0:
172,252,11491,5,0,0:0:0:0:
107,308,11713,2,0,P|62:324|13:324,2,97.5,2|2|2,0:0|0:0|0:0,0:0:0:0:
171,200,12713,2,0,L|163:92,1,97.5,2|2,0:0|0:0,0:0:0:0:
160,20,13269,1,0,0:0:0:0:
244,40,13491,2,0,L|251:137,1,97.5,2|2,0:0|0:0,0:0:0:0:
316,248,14158,1,2,0:0:0:0:
480,280,14602,2,0,P|487:248|480:216,1,65,2|0,0:0|1:0,0:0:0:0:
445,140,15046,5,4,3:2:0:0:
316,248,15491,2,0,P|253:264|190:249,1,130,8|2,0:0|0:0,0:0:0:0:
120,204,16158,2,0,L|44:208,1,65,4|8,0:3|0:0,0:0:0:0:
200,124,16824,1,4,0:3:0:0:
316,248,17269,2,0,L|445:242,1,130,8|2,0:0|0:0,0:0:0:0:
410,164,17936,2,0,L|345:166,2,65,4|8|2,0:3|0:0|0:0,0:0:0:0:
376,86,18602,5,4,0:3:0:0:
316,248,19047,2,0,P|295:308|315:369,1,130,8|2,0:0|0:0,0:0:0:0:
396,341,19713,2,0,P|400:308|395:276,1,65,4|8,0:3|0:0,0:0:0:0:
256,180,20380,1,4,0:3:0:0:
98,242,20825,2,0,P|80:180|98:118,1,130,8|2,0:0|0:0,0:0:0:0:
160,60,21492,2,0,P|191:51|213:28,2,65,4|8|2,0:3|0:0|0:0,0:0:0:0:
79,36,22158,5,4,0:3:0:0:
184,168,22603,2,0,L|180:300,1,130,8|2,0:0|0:0,0:0:0:0:
100,268,23270,2,0,L|102:203,1,65,4|8,0:3|0:0,0:0:0:0:
256,132,23936,1,4,0:3:0:0:
320,288,24381,2,0,B|256:300|256:300|192:288,1,130,8|2,0:0|0:0,0:0:0:0:
128,232,25047,2,0,L|128:168,2,65,4|8|2,0:3|0:0|0:0,0:0:0:0:
64,288,25713,5,4,0:3:0:0:
211,208,26158,2,0,P|274:191|336:208,1,130,8|2,0:0|0:0,0:0:0:0:
416,232,26824,2,0,P|448:236|480:232,1,65,4|8,0:3|0:0,0:0:0:0:
446,73,27491,1,4,3:2:0:0:
446,73,27713,2,0,L|340:80,1,97.5,2|2,0:0|0:0,0:0:0:0:
228,115,28380,2,0,P|237:68|220:23,2,97.5,0|0|0,1:0|1:0|1:0,0:0:0:0:
152,76,29269,5,4,3:2:0:0:
80,232,29713,2,0,L|76:340,1,97.5,8|2,0:0|0:0,0:0:0:0:
200,312,30380,2,0,L|202:247,2,65,4|8|0,0:3|0:0|0:3,0:0:0:0:
256,376,31047,1,4,0:3:0:0:
404,296,31491,2,0,P|415:249|403:202,1,97.5,8|2,0:0|0:0,0:0:0:0:
324,104,32158,2,0,P|292:104|256:92,2,65,4|8|0,0:3|0:0|0:3,0:0:0:0:
400,68,32824,5,4,0:3:0:0:
280,188,33268,2,0,P|224:172|186:144,1,97.5,8|2,0:0|0:0,0:0:0:0:
88,80,33936,2,0,L|92:16,2,65,4|8|0,0:3|0:0|0:3,0:0:0:0:
36,148,34602,1,4,0:3:0:0:
178,57,35046,2,0,P|225:49|273:56,1,97.5,8|2,0:0|0:0,0:0:0:0:
365,154,35713,1,4,0:3:0:0:
365,154,35936,2,0,L|361:230,1,65,8|0,0:0|0:3,0:0:0:0:
357,302,36380,5,4,3:2:0:0:
220,204,36824,2,0,P|172:193|125:203,1,97.5,8|2,0:0|0:0,0:0:0:0:
20,276,37491,2,0,L|16:340,2,65,4|8|0,0:3|0:0|0:3,0:0:0:0:
8,192,38158,1,4,0:3:0:0:
125,311,38602,2,0,P|172:321|220:312,1,97.5,8|2,0:0|0:0,0:0:0:0:
336,260,39269,2,0,L|340:336,2,65,4|8|0,0:3|0:0|0:3,0:0:0:0:
380,188,39936,5,4,0:3:0:0:
320,28,40380,2,0,P|365:12|417:24,1,97.5,8|2,0:0|0:0,0:0:0:0:
492,120,41047,2,0,P|498:151|492:183,2,65,4|8|0,0:3|0:0|0:3,0:0:0:0:
414,152,41713,1,4,0:3:0:0:
256,96,42157,2,0,B|144:100,1,97.5,8|2,0:0|0:0,0:0:0:0:
68,188,42824,1,4,0:3:0:0:
68,188,43047,2,0,L|132:185,1,65,8|0,0:0|0:0,0:0:0:0:
204,228,43491,6,0,L|276:225,1,65,4|0,3:2|0:3,0:0:0:0:
348,252,43935,2,0,P|368:304|336:364,1,97.5,8|2,0:0|0:0,0:0:0:0:
452,260,44602,2,0,P|459:290|457:327,2,65,4|8|0,0:3|0:0|0:3,0:0:0:0:
508,196,45269,2,0,L|508:128,1,65,4|0,0:3|0:3,0:0:0:0:
452,68,45713,2,0,P|405:59|357:68,1,97.5,8|2,0:0|0:0,0:0:0:0:
284,172,46380,2,0,L|284:236,2,65,4|8|0,0:3|0:0|0:3,0:0:0:0:
268,88,47047,6,0,P|241:57|228:33,1,65,4|0,0:3|0:3,0:0:0:0:
168,96,47491,2,0,P|156:136|96:192,1,97.5,8|2,0:0|0:0,0:0:0:0:
8,236,48158,2,0,L|8:304,2,65,4|8|0,0:3|0:0|0:3,0:0:0:0:
88,256,48824,2,0,L|88:321,1,65,4|0,0:3|0:3,0:0:0:0:
168,344,49268,2,0,B|168:246,1,97.5,8|2,0:0|0:0,0:0:0:0:
226,132,49936,1,4,0:3:0:0:
226,132,50158,2,0,P|257:124|288:131,1,65,8|0,0:0|0:3,0:0:0:0:
369,155,50602,6,0,P|400:163|431:156,1,65,4|0,3:2|0:3,0:0:0:0:
504,112,51046,2,0,P|518:158|499:208,1,97.5,8|2,0:0|0:0,0:0:0:0:
408,288,51713,1,4,0:3:0:0:
408,288,51935,2,0,L|412:368,1,65,8|0,0:0|0:3,0:0:0:0:
328,348,52380,2,0,L|324:283,1,65,4|0,0:3|0:3,0:0:0:0:
364,208,52824,2,0,B|357:85,1,97.5,8|2,0:0|0:0,0:0:0:0:
256,36,53491,1,4,0:3:0:0:
256,36,53713,2,0,P|228:64|188:80,1,65,8|0,0:0|0:3,0:0:0:0:
120,80,54158,6,0,P|80:80|40:63,1,65,4|0,0:3|0:3,0:0:0:0:
20,148,54602,2,0,B|24:264,1,97.5,8|2,0:0|0:0,0:0:0:0:
124,320,55269,1,4,0:3:0:0:
124,320,55491,2,0,L|126:255,1,65,8|0,0:0|0:3,0:0:0:0:
183,192,55936,2,0,P|215:185|247:192,1,65,4|0,0:3|0:3,0:0:0:0:
328,212,56380,2,0,B|428:208,1,97.5,8|0,0:0|1:0,0:0:0:0:
254,326,57269,5,0,1:0:0:0:
254,326,57491,1,0,1:0:0:0:
254,326,57713,6,0,L|108:319,2,130,4|8|2,3:2|0:0|0:0,0:0:0:0:
336,352,58824,2,0,L|406:349,1,65,4|8,0:3|0:0,0:0:0:0:
464,292,59269,1,0,0:3:0:0:
384,266,59491,6,0,L|381:127,2,130,4|8|2,0:3|0:0|0:0,0:0:0:0:
468,296,60602,1,4,0:3:0:0:
468,296,60824,2,0,L|466:220,1,65,8|0,0:0|0:3,0:0:0:0:
464,147,61269,6,0,P|495:92|498:27,2,130,4|8|2,0:3|0:0|0:0,0:0:0:0:
388,188,62380,2,0,L|308:184,1,65,4|8,0:3|0:0,0:0:0:0:
248,220,62825,1,0,0:3:0:0:
248,220,63047,6,0,P|216:275|213:340,2,130,4|8|2,0:3|0:0|0:0,0:0:0:0:
323,184,64158,1,4,0:3:0:0:
323,184,64380,2,0,P|304:144|312:104,1,65,8|0,0:0|0:3,0:0:0:0:
332,44,64824,6,0,L|188:36,2,130,4|8|2,0:3|0:0|0:0,0:0:0:0:
305,124,65935,2,0,L|223:120,1,65,4|8,0:3|0:0,0:0:0:0:
164,156,66380,1,0,0:3:0:0:
211,223,66602,6,0,P|228:286|211:348,2,130,4|8|2,0:3|0:0|0:0,0:0:0:0:
164,156,67713,1,4,0:3:0:0:
164,156,67935,2,0,L|80:160,1,65,8|0,0:0|0:3,0:0:0:0:
80,76,68380,6,0,L|209:70,2,130,4|8|2,0:3|0:0|0:0,0:0:0:0:
20,136,69491,2,0,P|15:166|27:203,1,65,4|8,0:3|0:0,0:0:0:0:
80,260,69936,1,0,0:3:0:0:
160,292,70158,6,0,L|296:288,2,130,4|8|2,0:3|0:0|0:0,0:0:0:0:
195,375,71269,1,4,0:3:0:0:
195,375,71491,2,0,L|259:373,1,65,8|0,0:0|1:0,0:0:0:0:
344,370,71936,5,4,3:2:0:0:
464,252,72380,2,0,P|481:190|461:129,1,130,8|2,0:0|0:0,0:0:0:0:
396,76,73047,2,0,L|331:79,1,65,4|8,0:3|0:0,0:0:0:0:
256,120,73492,1,0,0:3:0:0:
181,79,73713,6,0,L|51:72,1,130,4|8,0:3|0:0,0:0:0:0:
80,156,74380,1,0,0:0:0:0:
80,156,74602,2,0,P|87:187|79:236,1,65,2|4,0:0|0:3,0:0:0:0:
164,252,75047,2,0,P|147:278|106:307,1,65,8|0,0:0|0:3,0:0:0:0:
36,292,75491,5,4,0:3:0:0:
196,348,75936,2,0,B|240:356|240:356|324:346,1,130,8|0,0:0|0:0,0:0:0:0:
392,300,76602,2,0,P|398:268|391:236,1,65,4|8,0:3|0:0,0:0:0:0:
356,162,77047,1,0,0:3:0:0:
355,161,77269,6,0,P|335:101|356:40,1,130,4|8,0:3|0:0,0:0:0:0:
432,80,77935,1,0,0:0:0:0:
432,80,78157,2,0,L|436:152,1,65,2|4,0:0|0:3,0:0:0:0:
492,208,78602,2,0,L|496:280,1,65,8|0,0:0|0:3,0:0:0:0:
444,340,79047,5,4,0:3:0:0:
280,264,79491,2,0,P|217:248|136:280,1,130,8|2,0:0|0:0,0:0:0:0:
140,348,80158,2,0,L|75:341,1,65,4|8,0:3|0:0,0:0:0:0:
6,293,80601,1,0,0:3:0:0:
48,219,80824,6,0,P|60:155|40:87,1,130,4|8,0:3|0:0,0:0:0:0:
108,38,81491,1,0,0:0:0:0:
108,38,81713,2,0,L|172:42,1,65,2|4,0:0|0:3,0:0:0:0:
252,72,82158,2,0,L|316:68,1,65,8|0,0:0|0:3,0:0:0:0:
400,56,82602,6,0,P|356:92|348:180,1,130,4|8,0:3|0:0,0:0:0:0:
396,228,83269,2,0,L|472:224,1,65,4|0,0:3|0:3,0:0:0:0:
472,312,83713,1,0,1:0:0:0:
472,312,83936,2,0,L|408:316,1,65,0|0,1:0|1:0,0:0:0:0:
328,284,84380,6,0,P|271:266|192:293,1,130,0|0,0:0|0:0,0:0:0:0:
60,192,85268,2,0,L|64:120,1,65,2|2,0:0|0:0,0:0:0:0:
144,156,85713,2,0,L|147:220,1,65,0|0,1:0|1:0,0:0:0:0:
205,284,86158,5,4,3:2:0:0:
256,192,86269,12,0,89713,0:0:0:0:
