osu file format v14

[General]
AudioFilename: audio.mp3
AudioLeadIn: 0
PreviewTime: 57269
Countdown: 0
SampleSet: Soft
StackLeniency: 0.5
Mode: 0
LetterboxInBreaks: 0
WidescreenStoryboard: 0

[Editor]
Bookmarks: 15047,29269,57713,86158
DistanceSpacing: 1.5
BeatDivisor: 4
GridSize: 4
TimelineZoom: 1

[Metadata]
Title:Melting Point
TitleUnicode:Melting Point
Artist:3R2
ArtistUnicode:3R2
Creator:Nozhomi
Version:Hard
Source:Rabi-Ribi
Tags:ăƒ©ăƒ“-ăƒȘビ Rabi Ribi Original Soundtrack Steam kano-bi CreSpirit Animen Sekai Project Plurk GemaYue Erina Ribbon Is the order a DLC?
BeatmapID:1413068
BeatmapSetID:667862

[Difficulty]
HPDrainRate:5
CircleSize:4
OverallDifficulty:6.2
ApproachRate:7.3
SliderMultiplier:1.5
SliderTickRate:1

[Events]
//Background and Video events
0,0,"pyon.jpg",0,0
//Break Periods
//Storyboard Layer 0 (Background)
//Storyboard Layer 1 (Fail)
//Storyboard Layer 2 (Pass)
//Storyboard Layer 3 (Foreground)
//Storyboard Sound Samples

[TimingPoints]
825,444.444444444444,4,2,1,60,1,0
31824,-83.3333333333333,4,2,1,60,0,0
32047,-100,4,2,1,60,0,0
33602,-83.3333333333333,4,2,1,60,0,0
33824,-100,4,2,1,60,0,0
35380,-83.3333333333333,4,2,1,60,0,0
35602,-100,4,2,1,60,0,0
37158,-83.3333333333333,4,2,1,60,0,0
37380,-100,4,2,1,60,0,0
38936,-83.3333333333333,4,2,1,60,0,0
39158,-100,4,2,1,60,0,0
40713,-83.3333333333333,4,2,1,60,0,0
40936,-100,4,2,1,60,0,0
42491,-83.3333333333333,4,2,1,60,0,0
42713,-100,4,2,1,60,0,0
44269,-83.3333333333333,4,2,1,60,0,0
44491,-100,4,2,1,60,0,0
46047,-83.3333333333333,4,2,1,60,0,0
46269,-100,4,2,1,60,0,0
47824,-83.3333333333333,4,2,1,60,0,0
48047,-100,4,2,1,60,0,0
49602,-83.3333333333333,4,2,1,60,0,0
49824,-100,4,2,1,60,0,0
51380,-83.3333333333333,4,2,1,60,0,0
51602,-100,4,2,1,60,0,0
53158,-83.3333333333333,4,2,1,60,0,0
53380,-100,4,2,1,60,0,0
54936,-83.3333333333333,4,2,1,60,0,0
55158,-100,4,2,1,60,0,0
57713,-83.3333333333333,4,2,1,70,0,1
71713,-83.3333333333333,4,2,1,70,0,0
71936,-83.3333333333333,4,2,1,70,0,1
84380,-100,4,2,1,60,0,0
89602,-100,4,2,1,20,0,0

[Colours]
Combo1 : 35,158,194
Combo2 : 210,0,0
Combo3 : 81,19,242
Combo4 : 244,119,198

[HitObjects]
256,52,825,5,4,3:2:0:0:
344,92,1047,2,0,P|395:93|471:72,2,112.5,2|2|2,0:0|0:0|0:0,0:0:0:0:
264,148,1936,1,0,0:0:0:0:
264,148,2047,2,0,P|252:200|272:276,1,112.5,2|2,0:0|0:0,0:0:0:0:
330,328,2602,5,0,0:0:0:0:
397,257,2824,2,0,P|408:202|396:148,1,112.5,2|2,0:0|0:0,0:0:0:0:
320,24,3491,2,0,L|196:16,2,112.5,2|2|2,0:0|0:0|0:0,0:0:0:0:
236,100,4380,5,0,0:0:0:0:
144,68,4602,2,0,P|142:129|179:179,2,112.5,2|2|2,0:0|0:0|0:0,0:0:0:0:
240,104,5491,1,0,0:0:0:0:
240,104,5602,2,0,L|236:228,1,112.5,2|2,0:0|0:0,0:0:0:0:
232,312,6157,5,0,0:0:0:0:
316,264,6379,2,0,P|368:248|448:264,1,112.5,2|2,0:0|0:0,0:0:0:0:
316,352,7047,2,0,P|368:368|448:352,2,112.5,2|2|2,0:0|0:0|0:0,0:0:0:0:
210,312,7936,5,0,0:0:0:0:
127,363,8158,2,0,P|106:309|130:258,2,112.5,2|2|2,0:0|0:0|0:0,0:0:0:0:
214,316,9047,1,0,0:0:0:0:
214,316,9158,2,0,L|206:200,1,112.5,2|2,0:0|0:0,0:0:0:0:
158,120,9713,5,0,0:0:0:0:
254,120,9935,2,0,P|302:108|350:60,1,112.5,2|2,0:0|0:0,0:0:0:0:
298,204,10602,2,0,P|294:256|306:320,2,112.5,2|2|2,0:0|0:0|0:0,0:0:0:0:
256,99,11491,5,0,0:0:0:0:
214,204,11713,2,0,P|218:256|206:320,2,112.5,2|2|2,0:0|0:0|0:0,0:0:0:0:
156,124,12602,1,0,0:0:0:0:
156,124,12713,2,0,L|16:128,1,112.5,2|2,0:0|0:0,0:0:0:0:
96,208,13269,5,0,0:0:0:0:
156,124,13491,2,0,P|160:68|144:8,1,112.5,2|2,0:0|0:0,0:0:0:0:
308,60,14158,2,0,L|367:56,2,37.5,2|2|0,0:0|0:0|0:0,0:0:0:0:
235,135,14602,1,0,1:0:0:0:
343,171,14824,1,0,1:0:0:0:
343,171,14935,1,0,1:0:0:0:
343,171,15046,5,4,3:2:0:0:
420,108,15269,1,0,0:3:0:0:
452,200,15491,1,8,0:0:0:0:
452,200,15602,2,0,B|464:252|464:252|452:309,1,112.5,2|2,0:0|0:0,0:0:0:0:
372,364,16158,1,4,0:3:0:0:
372,364,16269,2,0,L|252:360,1,112.5,2|2,0:0|0:0,0:0:0:0:
180,280,16824,5,4,0:3:0:0:
100,340,17047,1,0,0:3:0:0:
88,244,17269,1,8,0:0:0:0:
88,244,17380,2,0,L|92:120,1,112.5,2|2,0:0|0:0,0:0:0:0:
204,84,17936,2,0,L|203:121,1,37.5,4|0,0:3|0:0,0:0:0:0:
172,196,18159,1,8,0:0:0:0:
172,196,18269,2,0,L|171:233,1,37.5,0|2,0:0|0:0,0:0:0:0:
256,308,18602,5,4,0:3:0:0:
344,268,18825,1,0,0:3:0:0:
432,308,19047,1,8,0:0:0:0:
432,308,19158,2,0,P|439:253|415:203,1,112.5,2|2,0:0|0:0,0:0:0:0:
332,148,19713,1,4,0:3:0:0:
332,148,19825,2,0,P|278:161|224:151,1,112.5,2|2,0:0|0:0,0:0:0:0:
136,108,20380,5,4,0:3:0:0:
83,190,20603,1,0,0:3:0:0:
30,108,20825,1,8,0:0:0:0:
30,108,20936,2,0,P|83:92|136:108,1,112.5,2|2,0:0|0:0,0:0:0:0:
223,151,21491,2,0,L|220:200,1,37.5,4|0,0:3|0:0,0:0:0:0:
192,256,21714,1,8,0:0:0:0:
192,256,21825,2,0,L|195:297,1,37.5,0|2,0:0|0:0,0:0:0:0:
298,248,22158,5,4,0:3:0:0:
221,188,22381,1,0,0:3:0:0:
312,152,22602,1,8,0:0:0:0:
312,152,22713,2,0,P|366:163|417:142,1,112.5,2|2,0:0|0:0,0:0:0:0:
416,44,23270,1,4,0:3:0:0:
416,44,23380,2,0,P|364:23|310:34,1,112.5,2|2,0:0|0:0,0:0:0:0:
212,94,23936,5,4,0:3:0:0:
116,68,24159,1,0,0:3:0:0:
156,156,24381,1,8,0:0:0:0:
156,156,24491,2,0,P|172:209|156:262,1,112.5,2|2,0:0|0:0,0:0:0:0:
56,328,25047,2,0,L|12:324,1,37.5,4|0,0:3|0:0,0:0:0:0:
44,252,25270,1,8,0:0:0:0:
44,252,25380,2,0,L|81:255,1,37.5,0|2,0:0|0:0,0:0:0:0:
160,336,25713,5,4,0:3:0:0:
256,292,25936,1,0,0:3:0:0:
352,336,26158,1,8,0:0:0:0:
352,336,26269,2,0,P|420:344|464:324,1,112.5,2|2,0:0|0:0,0:0:0:0:
500,240,26825,1,4,0:3:0:0:
500,240,26936,2,0,P|472:177|433:149,1,112.5,2|2,0:0|0:0,0:0:0:0:
332,116,27491,5,4,3:2:0:0:
256,212,27713,1,2,0:0:0:0:
180,116,27936,2,0,L|112:120,1,37.5,0|2,0:0|0:0,0:0:0:0:
88,164,28158,1,4,3:0:0:0:
260,216,28380,5,0,1:0:0:0:
260,216,28491,2,0,L|336:220,1,75,0|0,1:0|1:0,0:0:0:0:
196,256,28936,2,0,P|187:238|185:215,2,37.5,0|0|0,1:0|1:0|1:0,0:0:0:0:
224,328,29269,6,0,B|149:324,1,75,4|0,3:2|0:3,0:0:0:0:
44,320,29713,2,0,P|33:335|12:348,2,37.5,8|2|0,0:0|0:0|0:0,0:0:0:0:
64,248,30047,2,0,P|56:211|77:163,1,75,2|0,0:0|0:0,0:0:0:0:
100,108,30380,1,4,0:3:0:0:
100,108,30491,1,0,0:0:0:0:
100,108,30602,2,0,P|120:76|169:57,1,75,8|0,0:0|0:3,0:0:0:0:
250,138,31047,6,0,P|213:144|176:138,1,75,4|0,0:3|0:3,0:0:0:0:
196,240,31491,2,0,L|192:292,2,37.5,8|2|0,0:0|0:0|0:0,0:0:0:0:
268,208,31825,2,0,B|277:297,1,89.9999972534181,2|0,0:0|0:0,0:0:0:0:
336,360,32158,1,4,0:3:0:0:
336,360,32269,1,0,0:0:0:0:
335,360,32380,2,0,P|356:328|363:292,1,75,8|0,0:0|0:3,0:0:0:0:
332,144,32824,6,0,P|352:175|359:211,1,75,4|0,0:3|0:3,0:0:0:0:
432,320,33268,2,0,L|476:324,2,37.5,8|2|0,0:0|0:0|0:0,0:0:0:0:
363,292,33602,2,0,B|273:284,1,89.9999972534181,2|0,0:0|0:0,0:0:0:0:
212,244,33935,1,4,0:3:0:0:
212,244,34046,1,0,0:0:0:0:
212,244,34157,2,0,L|115:236,1,75,8|0,0:0|0:3,0:0:0:0:
48,144,34602,6,4,P|42:107|50:70,1,75,4|0,0:3|0:3,0:0:0:0:
151,99,35047,2,0,L|151:139,2,37.5,8|0|0,0:0|0:0|0:0,0:0:0:0:
224,72,35380,2,0,P|236:121|212:180,1,89.9999972534181,2|0,0:0|0:0,0:0:0:0:
200,228,35713,1,4,0:3:0:0:
200,228,35824,1,0,0:0:0:0:
200,228,35936,2,0,L|237:229,1,37.5,8|0,0:0|0:0,0:0:0:0:
296,272,36158,2,0,L|333:273,1,37.5,0|0,0:3|0:0,0:0:0:0:
404,316,36380,6,0,B|478:319,1,75,4|0,3:2|0:3,0:0:0:0:
440,220,36824,2,0,P|437:201|440:183,2,37.5,8|2|0,0:0|0:0|0:0,0:0:0:0:
368,192,37158,2,0,P|378:145|416:112,1,89.9999972534181,2|0,0:0|0:0,0:0:0:0:
456,56,37491,1,4,0:3:0:0:
448,52,37602,1,0,0:0:0:0:
440,48,37713,2,0,P|394:62|349:48,1,75,8|0,0:0|0:3,0:0:0:0:
248,60,38158,6,0,P|210:63|176:50,1,75,4|0,0:3|0:3,0:0:0:0:
84,100,38602,2,0,P|68:112|28:120,2,37.5,8|2|0,0:0|0:0|0:0,0:0:0:0:
152,120,38936,2,0,B|148:216,1,89.9999972534181,2|0,0:0|0:0,0:0:0:0:
220,256,39269,1,4,0:3:0:0:
220,256,39380,1,0,0:0:0:0:
220,256,39491,2,0,P|233:222|229:184,1,75,8|0,0:0|0:3,0:0:0:0:
72,184,39936,6,0,P|69:221|82:255,1,75,4|0,0:3|0:3,0:0:0:0:
144,340,40379,2,0,L|100:344,2,37.5,8|2|0,0:0|0:0|0:0,0:0:0:0:
220,332,40713,2,0,B|309:339,1,89.9999972534181,2|0,0:0|0:0,0:0:0:0:
380,312,41046,1,4,0:3:0:0:
380,312,41157,1,0,0:0:0:0:
380,312,41268,2,0,P|394:272|380:212,1,75,8|0,0:0|0:3,0:0:0:0:
344,104,41713,6,0,P|342:141|356:175,1,75,4|0,0:3|0:3,0:0:0:0:
260,132,42158,2,0,L|196:128,2,37.5,8|0|0,0:0|0:0|0:0,0:0:0:0:
280,208,42491,2,0,L|168:200,1,89.9999972534181,2|0,0:0|0:0,0:0:0:0:
116,196,42824,1,4,0:3:0:0:
88,308,43047,2,0,L|92:376,1,37.5,8|0,0:0|0:0,0:0:0:0:
16,380,43269,1,0,1:0:0:0:
16,380,43380,1,0,1:0:0:0:
16,380,43491,6,0,B|12:305,1,75,4|0,3:2|0:3,0:0:0:0:
8,192,43936,1,8,0:0:0:0:
8,192,44047,2,0,L|10:139,1,37.5,2|0,0:0|0:0,0:0:0:0:
60,96,44269,2,0,P|105:111|151:108,1,89.9999972534181,2|0,0:0|0:0,0:0:0:0:
220,92,44602,2,0,P|246:81|268:60,1,37.5,4|0,0:3|0:0,0:0:0:0:
326,44,44824,2,0,L|322:128,1,75,8|0,0:0|0:3,0:0:0:0:
384,256,45269,6,0,L|380:181,1,75,4|0,0:3|0:3,0:0:0:0:
428,80,45713,2,0,L|426:42,2,37.5,8|2|0,0:0|0:0|0:0,0:0:0:0:
476,136,46047,2,0,B|479:225,1,89.9999972534181,2|0,0:0|0:0,0:0:0:0:
456,304,46380,1,4,0:3:0:0:
456,304,46491,1,0,0:0:0:0:
456,304,46602,2,0,P|426:331|365:342,1,75,8|0,0:0|0:3,0:0:0:0:
242,342,47047,6,0,P|207:329|180:304,1,75,4|0,0:3|0:3,0:0:0:0:
144,180,47492,1,8,0:0:0:0:
144,180,47603,2,0,P|138:209|120:248,1,37.5,2|0,0:0|0:0,0:0:0:0:
92,280,47825,2,0,B|0:276,1,89.9999972534181,2|0,0:0|0:0,0:0:0:0:
20,350,48158,2,0,L|57:351,1,37.5,4|0,0:3|0:0,0:0:0:0:
132,352,48380,2,0,L|208:355,1,75,8|0,0:0|0:3,0:0:0:0:
380,352,48825,6,0,B|305:355,1,75,4|0,0:3|0:3,0:0:0:0:
304,244,49269,2,0,L|244:247,2,37.5,8|2|0,0:0|0:0|0:0,0:0:0:0:
376,224,49603,2,0,P|392:180|388:128,1,89.9999972534181,2|0,0:0|0:0,0:0:0:0:
360,72,49936,1,4,0:3:0:0:
360,72,50047,1,0,0:0:0:0:
360,72,50158,2,0,B|332:68|308:52|308:52|295:66,1,75,8|0,0:0|0:3,0:0:0:0:
256,80,50491,1,0,0:0:0:0:
216,66,50602,6,0,B|204:52|204:52|180:68|152:72,1,75,4|0,3:2|0:3,0:0:0:0:
40,52,51047,1,8,0:0:0:0:
40,52,51158,2,0,L|44:112,1,37.5,2|0,0:0|0:0,0:0:0:0:
88,144,51380,2,0,B|96:264,1,89.9999972534181,2|0,0:0|0:0,0:0:0:0:
164,268,51713,2,0,L|166:230,1,37.5,4|0,0:3|0:0,0:0:0:0:
240,256,51935,2,0,L|245:334,1,75,8|0,0:0|0:3,0:0:0:0:
388,288,52380,6,0,P|345:280|313:288,1,75,4|0,0:3|0:3,0:0:0:0:
324,176,52824,2,0,L|320:120,2,37.5,8|2|0,0:0|0:0|0:0,0:0:0:0:
392,204,53158,2,0,B|400:160|400:160|392:116,1,89.9999972534181,2|0,0:0|0:0,0:0:0:0:
336,64,53491,1,4,0:3:0:0:
336,64,53602,1,0,0:0:0:0:
336,64,53713,2,0,P|285:72|240:68,1,75,8|0,0:0|0:3,0:0:0:0:
116,36,54158,6,0,P|148:75|167:117,1,75,4|0,0:3|0:3,0:0:0:0:
172,208,54603,1,8,0:0:0:0:
172,208,54714,2,0,L|164:280,1,37.5,2|0,0:0|0:0,0:0:0:0:
176,320,54936,2,0,P|220:352|292:356,1,89.9999972534181,2|0,0:0|0:0,0:0:0:0:
328,356,55269,2,0,P|352:349|380:324,1,37.5,4|0,0:3|0:0,0:0:0:0:
408,284,55491,2,0,P|409:247|388:188,1,75,8|0,0:0|0:3,0:0:0:0:
248,210,55936,6,0,P|239:246|240:284,1,75,4|0,0:3|0:3,0:0:0:0:
324,188,56380,2,0,L|324:150,3,37.5,8|0|0|0,0:0|1:0|1:0|1:0,0:0:0:0:
176,16,57269,5,0,1:0:0:0:
164,28,57380,1,0,1:0:0:0:
148,36,57491,1,0,1:0:0:0:
132,40,57602,1,0,1:0:0:0:
112,36,57713,6,0,P|119:83|104:140,1,89.9999972534181,4|0,3:2|0:3,0:0:0:0:
56,248,58157,2,0,P|88:236|136:232,1,44.999998626709,8|2,0:0|0:0,0:0:0:0:
212,308,58491,2,0,P|186:286|159:246,1,44.999998626709,0|2,0:0|0:0,0:0:0:0:
186,144,58824,2,0,P|181:177|160:221,1,44.999998626709,4|2,0:3|0:0,0:0:0:0:
255,196,59047,1,8,0:0:0:0:
254,196,59158,2,0,P|260:174|261:151,1,44.999998626709,0|0,0:0|0:3,0:0:0:0:
344,32,59491,6,0,P|352:88|384:140,1,89.9999972534181,4|0,0:3|0:3,0:0:0:0:
472,212,59935,1,8,0:0:0:0:
472,212,60046,2,0,L|400:216,1,44.999998626709,2|0,0:0|0:0,0:0:0:0:
360,256,60268,1,0,0:0:0:0:
360,256,60380,2,0,L|257:263,1,89.9999972534181,2|4,0:0|0:3,0:0:0:0:
148,320,60824,2,0,L|256:328,1,89.9999972534181,8|0,0:0|0:3,0:0:0:0:
90,364,61269,6,0,P|75:322|87:279,1,89.9999972534181,4|0,0:3|0:3,0:0:0:0:
120,148,61713,2,0,L|116:96,1,44.999998626709,8|2,0:0|0:0,0:0:0:0:
192,216,62047,2,0,L|196:260,1,44.999998626709,0|2,0:0|0:0,0:0:0:0:
256,140,62380,2,0,L|252:88,1,44.999998626709,4|0,0:3|0:0,0:0:0:0:
324,80,62602,1,8,0:0:0:0:
324,80,62713,2,0,L|328:124,1,44.999998626709,0|0,0:0|0:3,0:0:0:0:
192,216,63047,6,0,L|84:208,1,89.9999972534181,4|0,0:3|0:3,0:0:0:0:
16,312,63491,1,8,0:0:0:0:
16,312,63602,2,0,P|36:328|80:336,1,44.999998626709,2|0,0:0|0:0,0:0:0:0:
132,356,63824,1,0,0:0:0:0:
132,356,63936,2,0,P|176:360|240:336,1,89.9999972534181,2|4,0:0|0:3,0:0:0:0:
328,268,64380,2,0,P|352:292|424:308,1,89.9999972534181,8|0,0:0|0:3,0:0:0:0:
460,176,64824,6,0,P|479:216|478:261,1,89.9999972534181,4|0,0:3|0:3,0:0:0:0:
380,168,65268,2,0,L|388:100,1,44.999998626709,8|2,0:0|0:0,0:0:0:0:
248,120,65602,2,0,L|206:66,1,44.999998626709,0|2,0:0|0:0,0:0:0:0:
144,196,65936,2,0,L|100:190,1,44.999998626709,4|0,0:3|0:0,0:0:0:0:
52,260,66157,1,8,0:0:0:0:
52,260,66269,2,0,L|97:264,1,44.999998626709,0|0,0:0|0:3,0:0:0:0:
88,116,66602,6,0,P|46:134|26:175,1,89.9999972534181,4|0,0:3|0:3,0:0:0:0:
164,116,67046,1,8,0:0:0:0:
164,116,67157,2,0,P|169:94|168:71,1,44.999998626709,2|0,0:0|0:0,0:0:0:0:
244,76,67379,1,0,0:0:0:0:
244,76,67491,2,0,P|232:33|200:3,1,89.9999972534181,2|4,0:0|0:3,0:0:0:0:
232,148,67936,2,0,P|275:159|318:146,1,89.9999972534181,8|0,0:0|0:3,0:0:0:0:
477,116,68380,6,0,P|434:105|391:118,1,89.9999972534181,4|0,0:3|0:3,0:0:0:0:
348,248,68824,2,0,P|348:272|356:296,1,44.999998626709,8|2,0:0|0:0,0:0:0:0:
256,384,69158,2,0,L|256:324,1,44.999998626709,0|2,0:0|0:0,0:0:0:0:
157,248,69491,2,0,P|157:272|149:296,1,44.999998626709,4|2,0:3|0:0,0:0:0:0:
76,292,69713,1,8,0:0:0:0:
76,292,69824,2,0,P|71:270|71:247,1,44.999998626709,0|0,0:0|0:3,0:0:0:0:
140,128,70158,6,0,L|236:132,1,89.9999972534181,4|0,0:3|0:3,0:0:0:0:
121,53,70602,1,8,0:0:0:0:
121,53,70713,2,0,L|77:50,1,44.999998626709,2|0,0:0|0:0,0:0:0:0:
50,124,70935,1,0,0:0:0:0:
50,124,71047,2,0,L|146:128,1,89.9999972534181,2|4,0:0|0:3,0:0:0:0:
248,212,71491,1,8,0:0:0:0:
348,127,71713,1,0,1:0:0:0:
368,124,71824,1,0,1:0:0:0:
388,120,71936,6,0,P|433:113|477:120,1,89.9999972534181,4|0,3:2|0:3,0:0:0:0:
364,48,72380,2,0,L|304:44,1,44.999998626709,8|2,0:0|0:0,0:0:0:0:
200,108,72714,1,0,0:0:0:0:
200,108,72825,2,0,L|156:104,2,44.999998626709,2|0|4,0:0|0:0|0:3,0:0:0:0:
217,182,73158,1,2,0:0:0:0:
217,182,73269,2,0,P|169:186|125:170,1,89.9999972534181,8|0,0:0|0:3,0:0:0:0:
16,104,73713,6,0,P|44:143|52:189,1,89.9999972534181,4|0,0:3|0:3,0:0:0:0:
24,316,74157,1,8,0:0:0:0:
24,316,74268,2,0,L|76:312,1,44.999998626709,2|0,0:0|0:0,0:0:0:0:
140,344,74490,1,0,0:0:0:0:
140,344,74602,2,0,L|249:335,1,89.9999972534181,2|4,0:0|0:3,0:0:0:0:
363,322,75046,2,0,P|367:344|363:366,1,44.999998626709,8|0,0:0|0:0,0:0:0:0:
349,248,75269,2,0,P|346:225|350:203,1,44.999998626709,0|0,0:3|0:0,0:0:0:0:
408,108,75491,6,0,P|360:120|288:116,1,89.9999972534181,4|0,0:3|0:3,0:0:0:0:
188,88,75935,2,0,L|132:92,1,44.999998626709,8|2,0:0|0:0,0:0:0:0:
232,192,76269,1,0,0:0:0:0:
232,192,76380,2,0,L|228:256,2,44.999998626709,2|0|4,0:0|0:0|0:3,0:0:0:0:
156,220,76713,1,2,0:0:0:0:
156,220,76824,2,0,L|151:315,1,89.9999972534181,8|0,0:0|0:3,0:0:0:0:
73,168,77269,6,0,P|64:124|77:79,1,89.9999972534181,4|0,0:3|0:3,0:0:0:0:
204,125,77713,1,8,0:0:0:0:
204,125,77824,2,0,P|182:129|159:128,1,44.999998626709,2|0,0:0|0:0,0:0:0:0:
176,51,78046,1,0,0:0:0:0:
176,51,78158,2,0,L|272:55,1,89.9999972534181,2|0,0:0|0:0,0:0:0:0:
400,64,78602,2,0,P|382:83|372:108,1,44.999998626709,8|0,0:0|0:0,0:0:0:0:
344,212,78824,2,0,P|343:189|348:168,1,44.999998626709,0|0,0:3|0:0,0:0:0:0:
468,164,79047,6,0,P|472:208|457:250,1,89.9999972534181,4|0,0:3|0:3,0:0:0:0:
326,285,79491,2,0,P|299:274|282:254,1,44.999998626709,8|2,0:0|0:0,0:0:0:0:
168,196,79825,1,0,0:0:0:0:
168,196,79936,2,0,P|144:212|112:220,2,44.999998626709,2|0|4,0:0|0:0|0:3,0:0:0:0:
220,136,80269,1,2,0:0:0:0:
220,136,80380,2,0,L|220:32,1,89.9999972534181,8|0,0:0|0:3,0:0:0:0:
298,183,80824,6,0,L|298:273,1,89.9999972534181,4|0,0:3|0:3,0:0:0:0:
396,364,81268,1,8,0:0:0:0:
396,364,81379,2,0,P|412:340|420:304,1,44.999998626709,2|0,0:0|0:0,0:0:0:0:
448,252,81601,1,0,0:0:0:0:
448,252,81713,2,0,P|452:200|428:136,1,89.9999972534181,2|4,0:0|0:3,0:0:0:0:
388,40,82157,2,0,L|468:36,1,44.999998626709,8|0,0:0|0:0,0:0:0:0:
340,92,82380,2,0,L|260:88,1,44.999998626709,0|0,0:3|0:0,0:0:0:0:
188,124,82602,6,0,P|177:167|182:211,1,89.9999972534181,4|0,0:3|0:3,0:0:0:0:
288,296,83047,2,0,L|344:304,2,44.999998626709,8|2|4,0:0|0:0|0:3,0:0:0:0:
156,352,83491,1,0,0:3:0:0:
182,212,83713,1,0,1:0:0:0:
40,272,83936,1,0,1:0:0:0:
40,247,84047,1,0,1:0:0:0:
39,223,84158,1,0,1:0:0:0:
39,199,84269,1,0,1:0:0:0:
39,175,84380,5,0,0:0:0:0:
182,212,84602,2,0,P|242:224|301:208,2,112.5,2|2|2,0:0|0:0|0:0,0:0:0:0:
140,148,85380,2,0,L|136:96,2,37.5,2|2|0,0:0|0:0|0:0,0:0:0:0:
105,218,85713,1,0,1:0:0:0:
216,144,85936,1,0,1:0:0:0:
215,125,86047,1,0,1:0:0:0:
214,106,86158,5,4,3:2:0:0:
256,192,86269,12,0,89713,0:0:0:0:
