osu file format v14

[General]
AudioFilename: audio.mp3
AudioLeadIn: 0
PreviewTime: 57269
Countdown: 0
SampleSet: Soft
StackLeniency: 0.7
Mode: 0
LetterboxInBreaks: 0
WidescreenStoryboard: 0

[Editor]
Bookmarks: 15047,29269,40380,57713,86158
DistanceSpacing: 1
BeatDivisor: 2
GridSize: 4
TimelineZoom: 1

[Metadata]
Title:Melting Point
TitleUnicode:Melting Point
Artist:3R2
ArtistUnicode:3R2
Creator:Nozhomi
Version:Easy
Source:Rabi-Ribi
Tags:ăƒ©ăƒ“-ăƒȘビ Rabi Ribi Original Soundtrack Steam kano-bi CreSpirit Animen Sekai Project Plurk GemaYue Erina Ribbon Is the order a DLC?
BeatmapID:1415005
BeatmapSetID:667862

[Difficulty]
HPDrainRate:2
CircleSize:2.6
OverallDifficulty:2.2
ApproachRate:3
SliderMultiplier:1
SliderTickRate:1

[Events]
//Background and Video events
0,0,"pyon.jpg",0,0
//Break Periods
//Storyboard Layer 0 (Background)
//Storyboard Layer 1 (Fail)
//Storyboard Layer 2 (Pass)
//Storyboard Layer 3 (Foreground)
//Storyboard Sound Samples

[TimingPoints]
825,444.444444444444,4,2,1,60,1,0
57713,-100,4,2,1,70,0,1
71713,-100,4,2,1,70,0,0
71936,-100,4,2,1,70,0,1
84380,-100,4,2,1,60,0,0
89602,-100,4,2,1,20,0,0

[Colours]
Combo1 : 35,158,194
Combo2 : 210,0,0
Combo3 : 81,19,242
Combo4 : 244,119,198

[HitObjects]
76,184,825,6,0,P|140:252|264:260,1,200,4|2,3:2|0:0,0:0:0:0:
368,152,2602,2,0,L|364:44,1,100,2|0,0:0|0:0,0:0:0:0:
280,104,3491,2,0,L|282:178,2,75,2|2|2,0:0|0:0|0:0,0:0:0:0:
252,64,4380,6,0,P|176:60|96:164,1,200,0|2,0:0|0:0,0:0:0:0:
188,292,6158,2,0,L|304:288,1,100,2|0,0:0|0:0,0:0:0:0:
372,236,7046,2,0,L|452:239,2,75,2|2|2,0:0|0:0|0:0,0:0:0:0:
328,212,7936,6,0,P|288:128|328:36,1,200,0|2,0:0|0:0,0:0:0:0:
446,158,9713,2,0,L|446:258,1,100,2|0,0:0|0:0,0:0:0:0:
346,266,10602,2,0,L|346:350,2,75,2|2|2,0:0|0:0|0:0,0:0:0:0:
322,222,11491,6,0,P|258:178|126:206,1,200,0|2,0:0|0:0,0:0:0:0:
40,331,13269,2,0,P|48:282|41:233,1,100,2|0,0:0|0:0,0:0:0:0:
12,140,14158,1,2,0:0:0:0:
108,160,14602,2,0,P|136:164|168:160,1,50,0|0,1:0|1:0,0:0:0:0:
204,143,15046,6,0,P|252:134|301:143,1,100,4|8,3:2|0:0,0:0:0:0:
392,188,15935,1,2,0:0:0:0:
340,272,16380,1,8,0:0:0:0:
440,275,16824,2,0,P|477:242|492:194,1,100,4|8,0:3|0:0,0:0:0:0:
468,100,17713,1,2,0:0:0:0:
392,36,18158,1,8,0:0:0:0:
304,84,18602,6,0,P|255:96|207:83,1,100,4|8,0:3|0:0,0:0:0:0:
121,34,19491,2,0,P|72:21|24:34,1,100,2|8,0:0|0:0,0:0:0:0:
25,134,20380,2,0,P|73:146|121:134,1,100,4|8,0:3|0:0,0:0:0:0:
208,84,21269,1,2,0:0:0:0:
256,172,21713,1,8,0:0:0:0:
344,124,22158,6,0,P|356:173|343:221,1,100,4|8,0:3|0:0,0:0:0:0:
292,304,23047,2,0,P|261:344|216:365,1,100,2|8,0:0|0:0,0:0:0:0:
117,365,23936,2,0,P|73:344|44:304,1,100,4|8,0:3|0:0,0:0:0:0:
19,207,24825,1,2,0:0:0:0:
115,235,25270,1,8,0:0:0:0:
100,136,25713,6,0,L|97:29,1,100,4|8,0:3|0:0,0:0:0:0:
196,52,26602,2,0,L|198:151,1,100,2|8,0:0|0:0,0:0:0:0:
256,232,27491,1,4,3:2:0:0:
313,152,27936,1,0,0:0:0:0:
404,192,28381,2,0,L|496:196,2,75,0|0|0,1:0|0:0|1:0,0:0:0:0:
373,231,29269,5,4,3:2:0:0:
313,152,29713,2,0,B|236:140|236:140|164:152,1,150,8|4,0:0|0:3,0:0:0:0:
116,164,30602,1,8,0:0:0:0:
144,260,31047,1,4,0:3:0:0:
80,336,31491,2,0,P|143:359|221:322,1,150,8|4,0:0|0:3,0:0:0:0:
256,296,32380,1,8,0:0:0:0:
344,340,32824,5,4,0:3:0:0:
420,276,33269,2,0,L|424:116,1,150,8|4,0:0|0:3,0:0:0:0:
396,84,34157,1,8,0:0:0:0:
320,148,34602,1,4,0:3:0:0:
244,84,35046,2,0,P|171:68|98:83,1,150,8|4,0:0|0:3,0:0:0:0:
60,116,35935,1,8,0:0:0:0:
112,200,36380,5,4,3:2:0:0:
176,276,36824,2,0,L|340:268,1,150,8|4,0:0|0:3,0:0:0:0:
360,232,37713,1,8,0:0:0:0:
304,148,38158,1,4,0:3:0:0:
392,104,38602,2,0,P|456:128|486:204,1,150,8|4,0:0|0:3,0:0:0:0:
476,248,39491,1,8,0:0:0:0:
416,328,39936,5,4,0:3:0:0:
316,348,40380,2,0,L|156:340,1,150,8|4,0:0|0:3,0:0:0:0:
120,320,41269,1,8,0:0:0:0:
180,240,41713,1,4,0:3:0:0:
120,160,42157,2,0,P|120:76|176:44,1,150,8|4,0:0|0:3,0:0:0:0:
220,56,43047,2,0,P|244:59|269:56,1,50,8|0,0:0|0:0,0:0:0:0:
312,32,43491,5,4,3:2:0:0:
404,72,43935,2,0,L|484:64,2,75,8|2|4,0:0|0:0|0:3,0:0:0:0:
384,116,44824,1,8,0:0:0:0:
420,208,45269,1,4,0:3:0:0:
384,300,45713,2,0,P|421:307|466:296,2,75,8|2|4,0:0|0:0|0:3,0:0:0:0:
336,284,46602,1,8,0:0:0:0:
256,224,47047,5,4,0:3:0:0:
176,284,47491,2,0,L|180:380,2,75,8|2|4,0:0|0:0|0:3,0:0:0:0:
144,244,48380,1,8,0:0:0:0:
60,188,48824,1,4,0:3:0:0:
96,96,49269,2,0,P|60:88|20:98,2,75,8|2|4,0:0|0:0|0:3,0:0:0:0:
144,116,50158,2,0,P|168:119|193:116,1,50,8|0,0:0|0:3,0:0:0:0:
232,80,50603,5,4,3:2:0:0:
312,140,51047,2,0,L|308:220,2,75,8|2|4,0:0|0:0|0:3,0:0:0:0:
352,112,51936,1,8,0:0:0:0:
428,183,52380,1,4,0:3:0:0:
384,272,52824,2,0,L|388:352,2,75,8|2|4,0:0|0:0|0:3,0:0:0:0:
344,240,53713,1,8,0:0:0:0:
364,140,54158,5,4,0:3:0:0:
392,44,54602,2,0,L|476:48,2,75,8|2|4,0:0|0:0|0:3,0:0:0:0:
344,32,55491,1,8,0:0:0:0:
256,80,55936,1,4,0:3:0:0:
167,31,56380,2,0,P|130:28|94:35,1,75,8|0,0:0|1:0,0:0:0:0:
32,144,57269,6,0,B|36:196,1,50,0|0,1:0|1:0,0:0:0:0:
72,227,57713,6,0,P|120:217|169:227,1,100,4|8,3:2|0:0,0:0:0:0:
268,252,58602,2,0,P|316:261|365:251,1,100,2|8,0:0|0:0,0:0:0:0:
406,221,59269,1,0,0:3:0:0:
448,192,59491,2,0,L|455:291,2,100,4|8|2,0:3|0:0|0:0,0:0:0:0:
436,92,60824,1,8,0:0:0:0:
356,152,61269,6,0,L|348:264,1,100,4|8,0:3|0:0,0:0:0:0:
284,327,62158,2,0,P|235:340|187:330,1,100,2|8,0:0|0:0,0:0:0:0:
156,292,62824,1,0,0:3:0:0:
132,248,63047,2,0,P|115:201|81:165,2,100,4|8|2,0:3|0:0|0:0,0:0:0:0:
88,338,64380,1,8,0:0:0:0:
188,331,64824,6,0,L|288:324,1,100,4|8,0:3|0:0,0:0:0:0:
356,247,65713,2,0,L|256:236,1,100,2|8,0:0|0:0,0:0:0:0:
215,208,66380,1,0,0:3:0:0:
184,168,66602,2,0,P|172:120|192:60,2,100,4|8|2,0:3|0:0|0:0,0:0:0:0:
256,237,67935,1,8,0:0:0:0:
341,184,68380,6,0,P|390:176|438:186,1,100,4|8,0:3|0:0,0:0:0:0:
438,287,69269,2,0,P|389:297|340:289,1,100,2|8,0:0|0:0,0:0:0:0:
293,271,69936,1,0,0:3:0:0:
256,237,70158,2,0,L|256:128,2,100,4|8|2,0:3|0:0|0:0,0:0:0:0:
171,290,71491,2,0,L|100:288,1,50,8|0,0:0|1:0,0:0:0:0:
83,255,71936,6,0,P|71:207|82:159,1,100,4|8,3:2|0:0,0:0:0:0:
136,76,72824,2,0,P|174:44|222:34,1,100,2|8,0:0|0:0,0:0:0:0:
270,47,73491,1,0,0:3:0:0:
313,72,73713,2,0,L|321:176,1,100,4|8,0:3|0:0,0:0:0:0:
416,204,74602,2,0,L|412:154,1,50,2|4,0:0|0:3,0:0:0:0:
408,104,75047,1,8,0:0:0:0:
503,123,75491,6,0,P|515:172|507:221,1,100,4|8,0:3|0:0,0:0:0:0:
456,308,76380,2,0,P|419:342|373:360,1,100,2|8,0:0|0:0,0:0:0:0:
323,355,77047,1,0,0:3:0:0:
290,316,77269,2,0,L|294:217,1,100,4|8,0:3|0:0,0:0:0:0:
300,116,78157,2,0,P|268:128|240:128,1,50,2|4,0:0|0:3,0:0:0:0:
203,124,78602,1,8,0:0:0:0:
232,28,79047,6,0,L|340:32,1,100,4|8,0:3|0:0,0:0:0:0:
352,133,79936,2,0,L|252:129,1,100,2|8,0:0|0:0,0:0:0:0:
214,161,80602,1,0,0:3:0:0:
183,200,80824,2,0,B|175:250|175:250|182:298,1,100,4|8,0:3|0:0,0:0:0:0:
279,274,81713,2,0,B|283:250|283:250|279:223,1,50,2|4,0:0|0:3,0:0:0:0:
268,175,82158,1,8,0:0:0:0:
190,111,82602,6,0,L|74:103,1,100,4|8,0:3|0:0,0:0:0:0:
132,12,83491,2,0,L|231:18,1,100,0|0,0:3|1:0,0:0:0:0:
280,24,84158,1,0,1:0:0:0:
324,48,84380,6,0,P|396:128|388:248,1,200,0|2,0:0|0:0,0:0:0:0:
316,272,85713,2,0,L|244:264,1,50,0|0,1:0|1:0,0:0:0:0:
216,260,86158,5,4,3:2:0:0:
256,192,86269,12,0,89713,0:0:0:0:
