osu file format v14

[General]
AudioFilename: audio.mp3
AudioLeadIn: 0
PreviewTime: 96320
Countdown: 0
SampleSet: None
StackLeniency: 0.7
Mode: 3
LetterboxInBreaks: 0
SpecialStyle: 1
WidescreenStoryboard: 1

[Editor]
DistanceSpacing: 2
BeatDivisor: 8
GridSize: 4
TimelineZoom: 1.9

[Metadata]
Title:Devillic Sphere
TitleUnicode:Devillic Sphere
Artist:3R2
ArtistUnicode:3R2
Creator:Ryu Sei
Version:Rejected 1K
Source:Cytus 2
Tags:acid ROBO_Head
BeatmapID:3803121
BeatmapSetID:851096

[Difficulty]
HPDrainRate:8
CircleSize:1
OverallDifficulty:8
ApproachRate:5
SliderMultiplier:1.4
SliderTickRate:1

[Events]
//Background and Video events
0,0,"stupidbg.jpg",0,0
//Break Periods
2,62020,66432
//Storyboard Layer 0 (Background)
//Storyboard Layer 1 (Fail)
//Storyboard Layer 2 (Pass)
//Storyboard Layer 3 (Foreground)
//Storyboard Layer 4 (Overlay)
//Storyboard Sound Samples

[TimingPoints]
1820,375,4,2,1,11,1,0
79445,375,4,2,1,11,1,0
79468,375,4,2,1,11,1,0
79491,375,4,2,1,11,1,0
79515,375,4,2,1,11,1,0
79538,375,4,2,1,11,1,0
79562,375,4,2,1,11,1,0
79585,375,4,2,1,11,1,0
79609,375,4,2,1,11,1,0
79632,375,4,2,1,11,1,0
79655,375,4,2,1,11,1,0
79679,375,4,2,1,11,1,0
79702,375,4,2,1,11,1,0
79726,375,4,2,1,11,1,0
79749,375,4,2,1,11,1,0
79773,375,4,2,1,11,1,0
79796,375,4,2,1,11,1,0
79820,375,4,2,1,11,1,0

[HitObjects]
32,192,1820,5,0,0:0:0:0:
32,192,2195,1,0,0:0:0:0:
32,192,2288,1,0,0:0:0:0:
32,192,2476,1,0,0:0:0:0:
32,192,2570,1,0,0:0:0:0:
32,192,3320,1,0,0:0:0:0:
32,192,3695,1,0,0:0:0:0:
32,192,3788,1,0,0:0:0:0:
32,192,3976,1,0,0:0:0:0:
32,192,4070,1,0,0:0:0:0:
32,192,4820,1,0,0:0:0:0:
32,192,5195,1,0,0:0:0:0:
32,192,5288,1,0,0:0:0:0:
32,192,5476,1,0,0:0:0:0:
32,192,5570,1,0,0:0:0:0:
32,192,5945,1,0,0:0:0:0:
32,192,6038,1,0,0:0:0:0:
32,192,6226,1,0,0:0:0:0:
32,192,6320,1,0,0:0:0:0:
32,192,6695,1,0,0:0:0:0:
32,192,6788,1,0,0:0:0:0:
32,192,6976,1,0,0:0:0:0:
32,192,7070,1,0,0:0:0:0:
32,192,7632,1,0,0:0:0:0:
32,192,7820,1,0,0:0:0:0:
32,192,8195,1,0,0:0:0:0:
32,192,8288,1,0,0:0:0:0:
32,192,8476,1,0,0:0:0:0:
32,192,8570,1,0,0:0:0:0:
32,192,9320,1,0,0:0:0:0:
32,192,9695,1,0,0:0:0:0:
32,192,9788,1,0,0:0:0:0:
32,192,9976,1,0,0:0:0:0:
32,192,10070,1,0,0:0:0:0:
32,192,10820,1,0,0:0:0:0:
32,192,11195,1,0,0:0:0:0:
32,192,11288,1,0,0:0:0:0:
32,192,11476,1,0,0:0:0:0:
32,192,11570,1,0,0:0:0:0:
32,192,11945,1,0,0:0:0:0:
32,192,12038,1,0,0:0:0:0:
32,192,12226,1,0,0:0:0:0:
32,192,12320,1,0,0:0:0:0:
32,192,12695,1,0,0:0:0:0:
32,192,12788,1,0,0:0:0:0:
32,192,12976,1,0,0:0:0:0:
32,192,13070,1,0,0:0:0:0:
32,192,13820,1,0,0:0:0:0:
256,192,14195,1,0,0:0:0:0:
256,192,14570,1,0,0:0:0:0:
256,192,14945,1,0,0:0:0:0:
256,192,15320,1,0,0:0:0:0:
256,192,15695,1,0,0:0:0:0:
256,192,16070,1,0,0:0:0:0:
256,192,16445,1,0,0:0:0:0:
32,192,16820,1,0,0:0:0:0:
256,192,17195,1,0,0:0:0:0:
256,192,17570,1,0,0:0:0:0:
256,192,17945,1,0,0:0:0:0:
256,192,18320,1,0,0:0:0:0:
256,192,18695,1,0,0:0:0:0:
256,192,19070,1,0,0:0:0:0:
32,192,19445,1,0,0:0:0:0:
32,192,19538,1,0,0:0:0:0:
32,192,19632,1,0,0:0:0:0:
32,192,19726,1,0,0:0:0:0:
32,192,19820,1,0,0:0:0:0:
256,192,20195,1,0,0:0:0:0:
256,192,20570,1,0,0:0:0:0:
256,192,20945,1,0,0:0:0:0:
256,192,21320,1,0,0:0:0:0:
256,192,21695,1,0,0:0:0:0:
256,192,22070,1,0,0:0:0:0:
256,192,22445,1,0,0:0:0:0:
256,192,22632,1,0,0:0:0:0:
32,192,22820,1,0,0:0:0:0:
256,192,23195,1,0,0:0:0:0:
256,192,23570,1,0,0:0:0:0:
256,192,23945,1,0,0:0:0:0:
32,192,24320,1,0,0:0:0:0:
32,192,24695,1,0,0:0:0:0:
32,192,25070,1,0,0:0:0:0:
32,192,25445,1,0,0:0:0:0:
32,192,25820,1,0,0:0:0:0:
256,192,26195,1,0,0:0:0:0:
256,192,26570,1,0,0:0:0:0:
256,192,26945,1,0,0:0:0:0:
256,192,27320,1,0,0:0:0:0:
256,192,27695,1,0,0:0:0:0:
256,192,28070,1,0,0:0:0:0:
256,192,28445,1,0,0:0:0:0:
32,192,28820,1,0,0:0:0:0:
256,192,29195,1,0,0:0:0:0:
256,192,29570,1,0,0:0:0:0:
256,192,29945,1,0,0:0:0:0:
256,192,30132,1,0,0:0:0:0:
256,192,30320,1,0,0:0:0:0:
256,192,30695,1,0,0:0:0:0:
256,192,31070,1,0,0:0:0:0:
256,192,31445,1,0,0:0:0:0:
256,192,31632,1,0,0:0:0:0:
256,192,31679,1,0,0:0:0:0:
256,192,31726,1,0,0:0:0:0:
256,192,31773,1,0,0:0:0:0:
256,192,31820,1,0,0:0:0:0:
256,192,31913,1,0,0:0:0:0:
256,192,32007,1,0,0:0:0:0:
256,192,32101,1,0,0:0:0:0:
32,192,32195,1,0,0:0:0:0:
256,192,32570,1,0,0:0:0:0:
256,192,32945,1,0,0:0:0:0:
256,192,33320,1,0,0:0:0:0:
256,192,33695,1,0,0:0:0:0:
256,192,34070,1,0,0:0:0:0:
256,192,34445,1,0,0:0:0:0:
32,192,34632,1,0,0:0:0:0:
32,192,35007,1,0,0:0:0:0:
32,192,35195,1,0,0:0:0:0:
256,192,35570,1,0,0:0:0:0:
256,192,35945,1,0,0:0:0:0:
256,192,36132,1,0,0:0:0:0:
32,192,36320,1,0,0:0:0:0:
32,192,36695,1,0,0:0:0:0:
32,192,37070,1,0,0:0:0:0:
32,192,37445,1,0,0:0:0:0:
32,192,37820,1,0,0:0:0:0:
32,192,38195,1,0,0:0:0:0:
32,192,38570,1,0,0:0:0:0:
32,192,38945,1,0,0:0:0:0:
32,192,39038,1,0,0:0:0:0:
32,192,39320,1,0,0:0:0:0:
32,192,39695,1,0,0:0:0:0:
32,192,40070,1,0,0:0:0:0:
32,192,40445,1,0,0:0:0:0:
32,192,40632,1,0,0:0:0:0:
32,192,40820,1,0,0:0:0:0:
32,192,41195,1,0,0:0:0:0:
32,192,41570,1,0,0:0:0:0:
32,192,41945,1,0,0:0:0:0:
32,192,42038,1,0,0:0:0:0:
32,192,42320,1,0,0:0:0:0:
32,192,42695,1,0,0:0:0:0:
32,192,43070,1,0,0:0:0:0:
32,192,43445,1,0,0:0:0:0:
32,192,43632,1,0,0:0:0:0:
32,192,43820,1,0,0:0:0:0:
32,192,44195,1,0,0:0:0:0:
32,192,44570,1,0,0:0:0:0:
32,192,44945,1,0,0:0:0:0:
32,192,45038,1,0,0:0:0:0:
32,192,45320,1,0,0:0:0:0:
32,192,45695,1,0,0:0:0:0:
32,192,46070,1,0,0:0:0:0:
32,192,46445,1,0,0:0:0:0:
32,192,46632,1,0,0:0:0:0:
32,192,46820,1,0,0:0:0:0:
32,192,47195,1,0,0:0:0:0:
32,192,47570,1,0,0:0:0:0:
32,192,47945,1,0,0:0:0:0:
32,192,48038,1,0,0:0:0:0:
32,192,48320,1,0,0:0:0:0:
32,192,48695,1,0,0:0:0:0:
32,192,49070,1,0,0:0:0:0:
32,192,49445,1,0,0:0:0:0:
32,192,49632,1,0,0:0:0:0:
32,192,49820,1,0,0:0:0:0:
32,192,50195,1,0,0:0:0:0:
32,192,50570,1,0,0:0:0:0:
32,192,50945,1,0,0:0:0:0:
32,192,51038,1,0,0:0:0:0:
32,192,51320,1,0,0:0:0:0:
32,192,51695,1,0,0:0:0:0:
32,192,52070,1,0,0:0:0:0:
32,192,52445,1,0,0:0:0:0:
32,192,52632,1,0,0:0:0:0:
32,192,52820,1,0,0:0:0:0:
32,192,53195,1,0,0:0:0:0:
32,192,53570,1,0,0:0:0:0:
32,192,53945,1,0,0:0:0:0:
32,192,54038,1,0,0:0:0:0:
32,192,54320,1,0,0:0:0:0:
32,192,54695,1,0,0:0:0:0:
32,192,55070,1,0,0:0:0:0:
32,192,55445,1,0,0:0:0:0:
32,192,55632,1,0,0:0:0:0:
32,192,55820,1,0,0:0:0:0:
32,192,56195,1,0,0:0:0:0:
32,192,56570,1,0,0:0:0:0:
32,192,56945,1,0,0:0:0:0:
32,192,57132,1,0,0:0:0:0:
32,192,57320,1,0,0:0:0:0:
32,192,57695,1,0,0:0:0:0:
32,192,58070,1,0,0:0:0:0:
32,192,58445,1,0,0:0:0:0:
32,192,58632,1,0,0:0:0:0:
32,192,58820,1,0,0:0:0:0:
32,192,59195,1,0,0:0:0:0:
32,192,59570,1,0,0:0:0:0:
32,192,59945,1,0,0:0:0:0:
32,192,60132,1,0,0:0:0:0:
32,192,60320,1,0,0:0:0:0:
32,192,61632,5,0,0:0:0:0:
32,192,61820,1,0,0:0:0:0:
32,192,67632,5,0,0:0:0:0:
32,192,67820,1,0,0:0:0:0:
32,192,70820,128,0,72132:0:0:0:0:
32,192,72320,1,0,0:0:0:0:
32,192,72507,1,0,0:0:0:0:
32,192,72601,1,0,0:0:0:0:
32,192,72695,1,0,0:0:0:0:
32,192,72882,1,0,0:0:0:0:
32,192,72976,1,0,0:0:0:0:
32,192,73070,1,0,0:0:0:0:
32,192,73257,1,0,0:0:0:0:
32,192,73351,1,0,0:0:0:0:
32,192,73445,1,0,0:0:0:0:
32,192,73820,1,0,0:0:0:0:
32,192,74195,1,0,0:0:0:0:
32,192,74570,1,0,0:0:0:0:
32,192,74945,1,0,0:0:0:0:
32,192,75320,1,0,0:0:0:0:
32,192,75695,1,0,0:0:0:0:
32,192,76070,1,0,0:0:0:0:
32,192,76445,1,0,0:0:0:0:
32,192,76820,1,0,0:0:0:0:
32,192,77195,1,0,0:0:0:0:
32,192,77570,1,0,0:0:0:0:
32,192,77945,1,0,0:0:0:0:
32,192,78320,1,0,0:0:0:0:
32,192,78695,1,0,0:0:0:0:
32,192,79070,1,0,0:0:0:0:
32,192,79445,1,0,0:0:0:0:
32,192,79820,1,0,0:0:0:0:
32,192,80195,1,0,0:0:0:0:
32,192,80570,1,0,0:0:0:0:
32,192,80945,1,0,0:0:0:0:
32,192,81320,1,0,0:0:0:0:
32,192,81695,1,0,0:0:0:0:
32,192,82070,1,0,0:0:0:0:
32,192,82445,1,0,0:0:0:0:
32,192,82820,1,0,0:0:0:0:
32,192,83195,1,0,0:0:0:0:
32,192,83570,1,0,0:0:0:0:
32,192,83945,1,0,0:0:0:0:
32,192,84320,1,0,0:0:0:0:
32,192,84695,1,0,0:0:0:0:
32,192,84788,1,0,0:0:0:0:
32,192,84882,1,0,0:0:0:0:
32,192,84976,1,0,0:0:0:0:
32,192,85070,1,0,0:0:0:0:
32,192,85257,1,0,0:0:0:0:
32,192,85445,1,0,0:0:0:0:
32,192,85632,1,0,0:0:0:0:
32,192,85820,1,0,0:0:0:0:
32,192,85913,1,0,0:0:0:0:
32,192,86101,1,0,0:0:0:0:
32,192,86195,1,0,0:0:0:0:
32,192,86382,1,0,0:0:0:0:
32,192,86476,1,0,0:0:0:0:
32,192,86570,1,0,0:0:0:0:
32,192,86663,1,0,0:0:0:0:
32,192,86757,1,0,0:0:0:0:
32,192,86945,1,0,0:0:0:0:
32,192,87038,1,0,0:0:0:0:
32,192,87132,1,0,0:0:0:0:
32,192,87320,1,0,0:0:0:0:
32,192,87413,1,0,0:0:0:0:
32,192,87601,1,0,0:0:0:0:
32,192,87695,1,0,0:0:0:0:
32,192,87882,1,0,0:0:0:0:
32,192,87976,1,0,0:0:0:0:
32,192,88070,1,0,0:0:0:0:
32,192,88163,1,0,0:0:0:0:
32,192,88257,1,0,0:0:0:0:
32,192,88445,1,0,0:0:0:0:
32,192,88538,1,0,0:0:0:0:
32,192,88632,1,0,0:0:0:0:
32,192,88820,1,0,0:0:0:0:
32,192,88913,1,0,0:0:0:0:
32,192,89101,1,0,0:0:0:0:
32,192,89195,1,0,0:0:0:0:
32,192,89382,1,0,0:0:0:0:
32,192,89476,1,0,0:0:0:0:
32,192,89570,1,0,0:0:0:0:
32,192,89663,1,0,0:0:0:0:
32,192,89757,1,0,0:0:0:0:
32,192,89945,1,0,0:0:0:0:
32,192,90038,1,0,0:0:0:0:
32,192,90132,1,0,0:0:0:0:
32,192,90320,1,0,0:0:0:0:
32,192,90413,1,0,0:0:0:0:
32,192,90601,1,0,0:0:0:0:
32,192,90695,1,0,0:0:0:0:
32,192,90882,1,0,0:0:0:0:
32,192,90976,1,0,0:0:0:0:
32,192,91070,1,0,0:0:0:0:
32,192,91163,1,0,0:0:0:0:
32,192,91257,1,0,0:0:0:0:
32,192,91445,1,0,0:0:0:0:
32,192,91538,1,0,0:0:0:0:
32,192,91632,1,0,0:0:0:0:
32,192,91820,1,0,0:0:0:0:
32,192,91913,1,0,0:0:0:0:
32,192,92101,1,0,0:0:0:0:
32,192,92195,1,0,0:0:0:0:
32,192,92382,1,0,0:0:0:0:
32,192,92476,1,0,0:0:0:0:
32,192,92570,1,0,0:0:0:0:
32,192,92663,1,0,0:0:0:0:
32,192,92757,1,0,0:0:0:0:
32,192,92945,1,0,0:0:0:0:
32,192,93038,1,0,0:0:0:0:
32,192,93132,1,0,0:0:0:0:
32,192,93320,1,0,0:0:0:0:
32,192,93413,1,0,0:0:0:0:
32,192,93601,1,0,0:0:0:0:
32,192,93695,1,0,0:0:0:0:
32,192,93882,1,0,0:0:0:0:
32,192,93976,1,0,0:0:0:0:
32,192,94070,1,0,0:0:0:0:
32,192,94163,1,0,0:0:0:0:
32,192,94257,1,0,0:0:0:0:
32,192,94445,1,0,0:0:0:0:
32,192,94538,1,0,0:0:0:0:
32,192,94632,1,0,0:0:0:0:
32,192,94820,1,0,0:0:0:0:
32,192,94913,1,0,0:0:0:0:
32,192,95101,1,0,0:0:0:0:
32,192,95195,5,0,0:0:0:0:
32,192,95382,1,0,0:0:0:0:
32,192,95476,1,0,0:0:0:0:
32,192,95570,1,0,0:0:0:0:
32,192,95663,1,0,0:0:0:0:
32,192,95757,1,0,0:0:0:0:
32,192,95945,1,0,0:0:0:0:
32,192,96038,1,0,0:0:0:0:
32,192,96132,1,0,0:0:0:0:
32,192,96320,5,0,0:0:0:0:
32,192,96507,1,0,0:0:0:0:
32,192,96601,1,0,0:0:0:0:
32,192,96695,1,0,0:0:0:0:
32,192,96788,1,0,0:0:0:0:
32,192,96882,1,0,0:0:0:0:
32,192,96976,1,0,0:0:0:0:
32,192,97070,1,0,0:0:0:0:
32,192,97163,1,0,0:0:0:0:
32,192,97257,1,0,0:0:0:0:
32,192,97351,1,0,0:0:0:0:
32,192,97445,1,0,0:0:0:0:
32,192,97538,1,0,0:0:0:0:
32,192,97820,1,0,0:0:0:0:
32,192,97913,1,0,0:0:0:0:
32,192,98101,1,0,0:0:0:0:
32,192,98195,1,0,0:0:0:0:
32,192,98382,1,0,0:0:0:0:
32,192,98476,1,0,0:0:0:0:
32,192,98570,1,0,0:0:0:0:
32,192,98663,1,0,0:0:0:0:
32,192,98757,1,0,0:0:0:0:
32,192,98945,1,0,0:0:0:0:
32,192,99038,1,0,0:0:0:0:
32,192,99132,1,0,0:0:0:0:
32,192,99320,1,0,0:0:0:0:
32,192,99413,1,0,0:0:0:0:
32,192,99601,1,0,0:0:0:0:
32,192,99695,1,0,0:0:0:0:
32,192,99882,1,0,0:0:0:0:
32,192,99976,1,0,0:0:0:0:
32,192,100070,1,0,0:0:0:0:
32,192,100163,1,0,0:0:0:0:
32,192,100257,1,0,0:0:0:0:
32,192,100445,1,0,0:0:0:0:
32,192,100538,1,0,0:0:0:0:
32,192,100632,1,0,0:0:0:0:
32,192,100820,1,0,0:0:0:0:
32,192,100913,1,0,0:0:0:0:
32,192,101101,1,0,0:0:0:0:
32,192,101195,1,0,0:0:0:0:
32,192,101382,1,0,0:0:0:0:
32,192,101476,1,0,0:0:0:0:
32,192,101570,1,0,0:0:0:0:
32,192,101663,1,0,0:0:0:0:
32,192,101757,1,0,0:0:0:0:
32,192,101945,1,0,0:0:0:0:
32,192,102038,1,0,0:0:0:0:
32,192,102132,1,0,0:0:0:0:
32,192,102320,1,0,0:0:0:0:
32,192,102413,1,0,0:0:0:0:
32,192,102601,1,0,0:0:0:0:
32,192,102695,1,0,0:0:0:0:
32,192,102882,1,0,0:0:0:0:
32,192,102976,1,0,0:0:0:0:
32,192,103070,1,0,0:0:0:0:
32,192,103163,1,0,0:0:0:0:
32,192,103257,1,0,0:0:0:0:
32,192,103445,1,0,0:0:0:0:
32,192,103538,1,0,0:0:0:0:
32,192,103632,1,0,0:0:0:0:
32,192,103820,1,0,0:0:0:0:
32,192,103913,1,0,0:0:0:0:
32,192,104101,1,0,0:0:0:0:
32,192,104195,1,0,0:0:0:0:
32,192,104382,1,0,0:0:0:0:
32,192,104476,1,0,0:0:0:0:
32,192,104570,1,0,0:0:0:0:
32,192,104663,1,0,0:0:0:0:
32,192,104757,1,0,0:0:0:0:
32,192,104945,1,0,0:0:0:0:
32,192,105038,1,0,0:0:0:0:
32,192,105132,1,0,0:0:0:0:
32,192,105320,1,0,0:0:0:0:
32,192,105413,1,0,0:0:0:0:
32,192,105601,1,0,0:0:0:0:
32,192,105695,1,0,0:0:0:0:
32,192,105882,1,0,0:0:0:0:
32,192,105976,1,0,0:0:0:0:
32,192,106070,1,0,0:0:0:0:
32,192,106163,1,0,0:0:0:0:
32,192,106257,1,0,0:0:0:0:
32,192,106445,1,0,0:0:0:0:
32,192,106538,1,0,0:0:0:0:
32,192,106632,1,0,0:0:0:0:
32,192,106820,1,0,0:0:0:0:
32,192,106913,1,0,0:0:0:0:
32,192,107101,1,0,0:0:0:0:
32,192,107195,1,0,0:0:0:0:
32,192,107382,1,0,0:0:0:0:
32,192,107476,1,0,0:0:0:0:
32,192,107570,1,0,0:0:0:0:
32,192,107663,1,0,0:0:0:0:
32,192,107757,1,0,0:0:0:0:
32,192,107945,1,0,0:0:0:0:
32,192,108038,1,0,0:0:0:0:
32,192,108132,1,0,0:0:0:0:
32,192,108320,1,0,0:0:0:0:
32,192,108413,1,0,0:0:0:0:
32,192,108601,1,0,0:0:0:0:
32,192,108695,1,0,0:0:0:0:
32,192,108882,1,0,0:0:0:0:
32,192,108976,1,0,0:0:0:0:
32,192,109070,1,0,0:0:0:0:
32,192,109163,1,0,0:0:0:0:
32,192,109257,1,0,0:0:0:0:
32,192,109445,1,0,0:0:0:0:
32,192,109538,1,0,0:0:0:0:
32,192,109632,1,0,0:0:0:0:
32,192,109820,1,0,0:0:0:0:
32,192,109913,1,0,0:0:0:0:
32,192,110101,1,0,0:0:0:0:
32,192,110195,1,0,0:0:0:0:
32,192,110382,1,0,0:0:0:0:
32,192,110476,1,0,0:0:0:0:
32,192,110570,1,0,0:0:0:0:
32,192,110663,1,0,0:0:0:0:
32,192,110757,1,0,0:0:0:0:
32,192,110945,1,0,0:0:0:0:
32,192,111038,1,0,0:0:0:0:
32,192,111132,1,0,0:0:0:0:
32,192,111320,1,0,0:0:0:0:
32,192,111413,1,0,0:0:0:0:
32,192,111601,1,0,0:0:0:0:
32,192,111695,1,0,0:0:0:0:
32,192,111882,1,0,0:0:0:0:
32,192,111976,1,0,0:0:0:0:
32,192,112070,1,0,0:0:0:0:
32,192,112163,1,0,0:0:0:0:
32,192,112257,1,0,0:0:0:0:
32,192,112445,1,0,0:0:0:0:
32,192,112538,1,0,0:0:0:0:
32,192,112632,1,0,0:0:0:0:
32,192,112820,1,0,0:0:0:0:
32,192,112913,1,0,0:0:0:0:
32,192,113101,1,0,0:0:0:0:
32,192,113195,1,0,0:0:0:0:
32,192,113382,1,0,0:0:0:0:
32,192,113476,1,0,0:0:0:0:
32,192,113570,1,0,0:0:0:0:
32,192,113663,1,0,0:0:0:0:
32,192,113757,1,0,0:0:0:0:
32,192,113945,1,0,0:0:0:0:
32,192,114038,1,0,0:0:0:0:
32,192,114132,1,0,0:0:0:0:
32,192,114320,1,0,0:0:0:0:
32,192,114413,1,0,0:0:0:0:
32,192,114601,1,0,0:0:0:0:
32,192,114695,1,0,0:0:0:0:
32,192,114882,1,0,0:0:0:0:
32,192,114976,1,0,0:0:0:0:
32,192,115070,1,0,0:0:0:0:
32,192,115163,1,0,0:0:0:0:
32,192,115257,1,0,0:0:0:0:
32,192,115445,1,0,0:0:0:0:
32,192,115538,1,0,0:0:0:0:
32,192,115632,1,0,0:0:0:0:
32,192,115820,1,0,0:0:0:0:
32,192,115913,1,0,0:0:0:0:
32,192,116101,1,0,0:0:0:0:
32,192,116195,1,0,0:0:0:0:
32,192,116382,1,0,0:0:0:0:
32,192,116476,1,0,0:0:0:0:
32,192,116570,1,0,0:0:0:0:
32,192,116663,1,0,0:0:0:0:
32,192,116757,1,0,0:0:0:0:
32,192,116945,1,0,0:0:0:0:
32,192,117038,1,0,0:0:0:0:
32,192,117132,1,0,0:0:0:0:
32,192,117320,1,0,0:0:0:0:
32,192,117413,1,0,0:0:0:0:
32,192,117601,1,0,0:0:0:0:
32,192,117695,1,0,0:0:0:0:
32,192,117882,1,0,0:0:0:0:
32,192,117976,1,0,0:0:0:0:
32,192,118070,1,0,0:0:0:0:
32,192,118163,1,0,0:0:0:0:
32,192,118257,1,0,0:0:0:0:
32,192,118445,1,0,0:0:0:0:
32,192,118538,1,0,0:0:0:0:
32,192,118632,1,0,0:0:0:0:
32,192,118820,1,0,0:0:0:0:
32,192,118913,1,0,0:0:0:0:
32,192,119101,1,0,0:0:0:0:
32,192,119195,5,0,0:0:0:0:
32,192,119382,1,0,0:0:0:0:
32,192,119476,1,0,0:0:0:0:
32,192,119570,1,0,0:0:0:0:
32,192,119663,1,0,0:0:0:0:
32,192,119757,1,0,0:0:0:0:
32,192,119945,1,0,0:0:0:0:
32,192,120038,1,0,0:0:0:0:
32,192,120132,1,0,0:0:0:0:
32,192,120320,128,0,121726:0:0:0:0:
32,192,121820,1,0,0:0:0:0:
