osu file format v14

[General]
AudioFilename: audio.mp3
AudioLeadIn: 0
PreviewTime: 96320
Countdown: 0
SampleSet: None
StackLeniency: 0.7
Mode: 3
LetterboxInBreaks: 0
SpecialStyle: 1
WidescreenStoryboard: 1

[Editor]
DistanceSpacing: 2
BeatDivisor: 4
GridSize: 4
TimelineZoom: 0.5999999

[Metadata]
Title:Devillic Sphere
TitleUnicode:Devillic Sphere
Artist:3R2
ArtistUnicode:3R2
Creator:Ryu Sei
Version:Beginner Floored 4K
Source:Cytus 2
Tags:acid ROBO_Head
BeatmapID:3803115
BeatmapSetID:851096

[Difficulty]
HPDrainRate:8
CircleSize:4
OverallDifficulty:8
ApproachRate:5
SliderMultiplier:1.4
SliderTickRate:1

[Events]
//Background and Video events
0,0,"stupidbg.jpg",0,0
//Break Periods
2,62020,72620
//Storyboard Layer 0 (Background)
//Storyboard Layer 1 (Fail)
//Storyboard Layer 2 (Pass)
//Storyboard Layer 3 (Foreground)
//Storyboard Layer 4 (Overlay)
//Storyboard Sound Samples

[TimingPoints]
1820,375,4,2,1,11,1,0
79445,375,4,2,1,11,1,0
79468,375,4,2,1,11,1,0
79491,375,4,2,1,11,1,0
79515,375,4,2,1,11,1,0
79538,375,4,2,1,11,1,0
79562,375,4,2,1,11,1,0
79585,375,4,2,1,11,1,0
79609,375,4,2,1,11,1,0
79632,375,4,2,1,11,1,0
79655,375,4,2,1,11,1,0
79679,375,4,2,1,11,1,0
79702,375,4,2,1,11,1,0
79726,375,4,2,1,11,1,0
79749,375,4,2,1,11,1,0
79773,375,4,2,1,11,1,0
79796,375,4,2,1,11,1,0
79820,375,4,2,1,11,1,0

[HitObjects]
448,192,7820,128,0,8171:0:0:0:0:
64,192,7820,128,0,8171:0:0:0:0:
448,192,8195,1,0,0:0:0:0:
64,192,8195,1,0,0:0:0:0:
64,192,10820,128,0,12226:0:0:0:0:
192,192,11195,128,0,11851:0:0:0:0:
320,192,11570,128,0,12320:0:0:0:0:
192,192,11945,128,0,12320:0:0:0:0:
448,192,12320,1,0,0:0:0:0:
64,192,12320,1,0,0:0:0:0:
320,192,13257,1,0,0:0:0:0:
320,192,13445,1,0,0:0:0:0:
64,192,13820,128,0,14476:0:0:0:0:
320,192,14195,128,0,15226:0:0:0:0:
64,192,14570,128,0,16726:0:0:0:0:
192,192,14945,128,0,16351:0:0:0:0:
320,192,15320,128,0,15976:0:0:0:0:
448,192,15695,128,0,17101:0:0:0:0:
320,192,16070,128,0,17476:0:0:0:0:
192,192,16445,128,0,17851:0:0:0:0:
64,192,16820,128,0,18976:0:0:0:0:
448,192,17195,128,0,18601:0:0:0:0:
320,192,17570,128,0,18226:0:0:0:0:
192,192,17945,128,0,19351:0:0:0:0:
320,192,18320,128,0,21226:0:0:0:0:
448,192,18695,128,0,19726:0:0:0:0:
64,192,19070,128,0,19538:0:0:0:0:
192,192,19445,128,0,20101:0:0:0:0:
64,192,19632,128,0,20851:0:0:0:0:
448,192,19820,128,0,20476:0:0:0:0:
192,192,20195,128,0,21976:0:0:0:0:
448,192,20570,128,0,22726:0:0:0:0:
64,192,20945,128,0,21601:0:0:0:0:
320,192,21320,128,0,22351:0:0:0:0:
64,192,21695,128,0,23851:0:0:0:0:
192,192,22070,128,0,23476:0:0:0:0:
320,192,22445,128,0,23101:0:0:0:0:
448,192,22820,128,0,24226:0:0:0:0:
320,192,23195,128,0,24226:0:0:0:0:
192,192,23570,128,0,24226:0:0:0:0:
64,192,23945,128,0,24226:0:0:0:0:
320,192,24320,1,0,0:0:0:0:
64,192,24320,1,0,0:0:0:0:
320,192,24695,1,0,0:0:0:0:
64,192,24695,1,0,0:0:0:0:
448,192,25070,1,0,0:0:0:0:
192,192,25070,1,0,0:0:0:0:
320,192,25445,1,0,0:0:0:0:
192,192,25445,1,0,0:0:0:0:
448,192,25820,128,0,26476:0:0:0:0:
320,192,26195,128,0,27226:0:0:0:0:
448,192,26570,128,0,28726:0:0:0:0:
192,192,26945,128,0,28351:0:0:0:0:
320,192,27320,128,0,27976:0:0:0:0:
64,192,27695,128,0,29101:0:0:0:0:
320,192,28070,128,0,29476:0:0:0:0:
192,192,28445,128,0,29851:0:0:0:0:
448,192,28820,128,0,30976:0:0:0:0:
64,192,29195,128,0,30601:0:0:0:0:
320,192,29570,128,0,30226:0:0:0:0:
192,192,29945,128,0,31351:0:0:0:0:
320,192,30320,128,0,33226:0:0:0:0:
64,192,30695,128,0,31726:0:0:0:0:
448,192,31070,128,0,31538:0:0:0:0:
192,192,31445,128,0,32101:0:0:0:0:
448,192,31632,128,0,32851:0:0:0:0:
64,192,31820,128,0,32476:0:0:0:0:
192,192,32195,128,0,33976:0:0:0:0:
64,192,32570,128,0,34726:0:0:0:0:
448,192,32945,128,0,33601:0:0:0:0:
320,192,33320,128,0,34351:0:0:0:0:
448,192,33695,128,0,35851:0:0:0:0:
192,192,34070,128,0,35476:0:0:0:0:
320,192,34445,128,0,35101:0:0:0:0:
64,192,34820,128,0,36226:0:0:0:0:
320,192,35195,128,0,36226:0:0:0:0:
192,192,35570,128,0,36226:0:0:0:0:
448,192,35945,128,0,36226:0:0:0:0:
448,192,36320,1,0,0:0:0:0:
320,192,36320,1,0,0:0:0:0:
448,192,36695,1,0,0:0:0:0:
320,192,36695,1,0,0:0:0:0:
192,192,37070,1,0,0:0:0:0:
64,192,37070,1,0,0:0:0:0:
320,192,37445,1,0,0:0:0:0:
192,192,37445,1,0,0:0:0:0:
192,192,37820,128,0,40445:0:0:0:0:
64,192,37820,128,0,38101:0:0:0:0:
64,192,38195,128,0,40351:0:0:0:0:
320,192,38570,128,0,38851:0:0:0:0:
320,192,38945,128,0,39976:0:0:0:0:
448,192,39320,128,0,39601:0:0:0:0:
448,192,39695,128,0,40445:0:0:0:0:
320,192,40070,128,0,40445:0:0:0:0:
64,192,40445,1,0,0:0:0:0:
192,192,40820,128,0,43445:0:0:0:0:
448,192,40820,128,0,41101:0:0:0:0:
448,192,41195,128,0,43351:0:0:0:0:
320,192,41570,128,0,41851:0:0:0:0:
320,192,41945,128,0,42976:0:0:0:0:
64,192,42320,128,0,42601:0:0:0:0:
64,192,42695,128,0,43445:0:0:0:0:
320,192,43070,128,0,43445:0:0:0:0:
448,192,43445,1,0,0:0:0:0:
192,192,43820,128,0,46445:0:0:0:0:
64,192,43820,128,0,44101:0:0:0:0:
64,192,44195,128,0,46351:0:0:0:0:
320,192,44570,128,0,44851:0:0:0:0:
320,192,44945,128,0,45976:0:0:0:0:
448,192,45320,128,0,45601:0:0:0:0:
448,192,45695,128,0,46445:0:0:0:0:
320,192,46070,128,0,46445:0:0:0:0:
64,192,46445,1,0,0:0:0:0:
192,192,46820,128,0,49445:0:0:0:0:
448,192,46820,128,0,47101:0:0:0:0:
448,192,47195,128,0,49351:0:0:0:0:
320,192,47570,128,0,47851:0:0:0:0:
320,192,47945,128,0,48976:0:0:0:0:
64,192,48320,128,0,48601:0:0:0:0:
64,192,48695,128,0,49445:0:0:0:0:
320,192,49070,128,0,49445:0:0:0:0:
448,192,49445,1,0,0:0:0:0:
320,192,49820,128,0,52445:0:0:0:0:
64,192,49820,128,0,50101:0:0:0:0:
64,192,50195,128,0,52351:0:0:0:0:
192,192,50570,128,0,50851:0:0:0:0:
192,192,50945,128,0,51976:0:0:0:0:
448,192,51320,128,0,51601:0:0:0:0:
448,192,51695,128,0,52445:0:0:0:0:
192,192,52070,128,0,52445:0:0:0:0:
64,192,52445,1,0,0:0:0:0:
320,192,52820,128,0,55445:0:0:0:0:
448,192,52820,128,0,53101:0:0:0:0:
448,192,53195,128,0,55351:0:0:0:0:
192,192,53570,128,0,53851:0:0:0:0:
192,192,53945,128,0,54976:0:0:0:0:
64,192,54320,128,0,54601:0:0:0:0:
64,192,54695,128,0,55445:0:0:0:0:
192,192,55070,128,0,55445:0:0:0:0:
448,192,55445,1,0,0:0:0:0:
320,192,55820,128,0,56195:0:0:0:0:
64,192,55820,1,0,0:0:0:0:
64,192,56195,1,0,0:0:0:0:
320,192,56570,1,0,0:0:0:0:
64,192,56570,128,0,58726:0:0:0:0:
448,192,57320,1,0,0:0:0:0:
320,192,57320,128,0,57695:0:0:0:0:
448,192,57695,1,0,0:0:0:0:
320,192,58070,1,0,0:0:0:0:
448,192,58070,128,0,58726:0:0:0:0:
192,192,58820,1,0,0:0:0:0:
64,192,58820,1,0,0:0:0:0:
192,192,59195,1,0,0:0:0:0:
64,192,59195,1,0,0:0:0:0:
448,192,59570,1,0,0:0:0:0:
192,192,59570,1,0,0:0:0:0:
448,192,59945,1,0,0:0:0:0:
192,192,59945,1,0,0:0:0:0:
320,192,60320,1,0,0:0:0:0:
192,192,60320,1,0,0:0:0:0:
320,192,61820,1,0,0:0:0:0:
192,192,61820,1,0,0:0:0:0:
320,192,73820,5,0,0:0:0:0:
320,192,74195,1,0,0:0:0:0:
320,192,74570,1,0,0:0:0:0:
320,192,74945,1,0,0:0:0:0:
320,192,75320,1,0,0:0:0:0:
320,192,75695,1,0,0:0:0:0:
320,192,76070,1,0,0:0:0:0:
320,192,76445,1,0,0:0:0:0:
320,192,76820,1,0,0:0:0:0:
320,192,77195,1,0,0:0:0:0:
320,192,77570,1,0,0:0:0:0:
320,192,77945,1,0,0:0:0:0:
320,192,78320,1,0,0:0:0:0:
320,192,78695,1,0,0:0:0:0:
320,192,79070,1,0,0:0:0:0:
64,192,79445,128,0,79820:0:0:0:0:
448,192,79445,128,0,79820:0:0:0:0:
192,192,79819,1,0,0:0:0:0:
192,192,80195,1,0,0:0:0:0:
192,192,80570,1,0,0:0:0:0:
192,192,80945,1,0,0:0:0:0:
192,192,81320,1,0,0:0:0:0:
192,192,81695,1,0,0:0:0:0:
192,192,82070,1,0,0:0:0:0:
192,192,82445,1,0,0:0:0:0:
192,192,82820,1,0,0:0:0:0:
192,192,83195,1,0,0:0:0:0:
192,192,83570,1,0,0:0:0:0:
192,192,83945,1,0,0:0:0:0:
448,192,84320,1,0,0:0:0:0:
64,192,84320,1,0,0:0:0:0:
64,192,85820,128,0,86101:0:0:0:0:
64,192,86195,128,0,87226:0:0:0:0:
192,192,86570,128,0,86851:0:0:0:0:
192,192,86945,128,0,89476:0:0:0:0:
64,192,87320,128,0,87976:0:0:0:0:
320,192,87695,128,0,88351:0:0:0:0:
64,192,88070,128,0,91726:0:0:0:0:
320,192,88445,128,0,90601:0:0:0:0:
448,192,88820,128,0,89101:0:0:0:0:
448,192,89195,128,0,90226:0:0:0:0:
192,192,89570,128,0,89851:0:0:0:0:
192,192,89945,128,0,92101:0:0:0:0:
448,192,90320,128,0,90976:0:0:0:0:
320,192,90695,128,0,91351:0:0:0:0:
448,192,91070,128,0,93226:0:0:0:0:
320,192,91445,128,0,92476:0:0:0:0:
64,192,91820,128,0,94726:0:0:0:0:
192,192,92195,128,0,93976:0:0:0:0:
320,192,92570,128,0,93601:0:0:0:0:
448,192,93320,128,0,95476:0:0:0:0:
320,192,93695,128,0,95851:0:0:0:0:
192,192,94070,128,0,95101:0:0:0:0:
64,192,94820,128,0,96226:0:0:0:0:
192,192,95195,128,0,96226:0:0:0:0:
448,192,95570,128,0,96226:0:0:0:0:
320,192,95945,128,0,96226:0:0:0:0:
448,192,96320,1,0,0:0:0:0:
64,192,96320,1,0,0:0:0:0:
64,192,97820,1,0,0:0:0:0:
192,192,97820,128,0,99226:0:0:0:0:
320,192,97820,128,0,100726:0:0:0:0:
448,192,97820,128,0,102226:0:0:0:0:
64,192,98195,1,0,0:0:0:0:
64,192,98570,1,0,0:0:0:0:
64,192,98945,128,0,103726:0:0:0:0:
192,192,99320,1,0,0:0:0:0:
192,192,99695,1,0,0:0:0:0:
192,192,100070,1,0,0:0:0:0:
192,192,100445,128,0,104101:0:0:0:0:
320,192,100820,1,0,0:0:0:0:
320,192,101195,1,0,0:0:0:0:
320,192,101570,1,0,0:0:0:0:
320,192,101945,128,0,104476:0:0:0:0:
448,192,102320,1,0,0:0:0:0:
448,192,102695,1,0,0:0:0:0:
448,192,103070,1,0,0:0:0:0:
448,192,103445,128,0,105601:0:0:0:0:
64,192,103820,128,0,105226:0:0:0:0:
192,192,104195,128,0,104851:0:0:0:0:
320,192,104570,128,0,107101:0:0:0:0:
192,192,104945,128,0,105976:0:0:0:0:
64,192,105320,128,0,106726:0:0:0:0:
448,192,105695,128,0,106351:0:0:0:0:
192,192,106070,128,0,108226:0:0:0:0:
448,192,106445,128,0,107851:0:0:0:0:
64,192,106820,128,0,107476:0:0:0:0:
320,192,107195,128,0,108976:0:0:0:0:
64,192,107570,128,0,109351:0:0:0:0:
448,192,107945,128,0,108601:0:0:0:0:
192,192,108320,128,0,109351:0:0:0:0:
448,192,108695,128,0,109351:0:0:0:0:
320,192,109070,128,0,109351:0:0:0:0:
320,192,109445,1,0,0:0:0:0:
192,192,109445,1,0,0:0:0:0:
64,192,109820,128,0,110851:0:0:0:0:
192,192,109820,128,0,110101:0:0:0:0:
320,192,109820,128,0,111226:0:0:0:0:
448,192,109820,128,0,110476:0:0:0:0:
192,192,110195,128,0,114226:0:0:0:0:
448,192,110570,128,0,111976:0:0:0:0:
64,192,110945,128,0,111601:0:0:0:0:
320,192,111320,128,0,112351:0:0:0:0:
64,192,111695,128,0,113101:0:0:0:0:
448,192,112070,128,0,112726:0:0:0:0:
320,192,112445,128,0,113476:0:0:0:0:
448,192,112820,128,0,114976:0:0:0:0:
64,192,113195,128,0,113851:0:0:0:0:
320,192,113570,128,0,116101:0:0:0:0:
64,192,113945,128,0,114601:0:0:0:0:
192,192,114320,128,0,115351:0:0:0:0:
64,192,114695,128,0,116851:0:0:0:0:
448,192,115070,128,0,115726:0:0:0:0:
192,192,115445,128,0,116476:0:0:0:0:
448,192,115820,128,0,116851:0:0:0:0:
320,192,116195,128,0,116851:0:0:0:0:
192,192,116570,128,0,116851:0:0:0:0:
320,192,116945,1,0,0:0:0:0:
192,192,116945,1,0,0:0:0:0:
64,192,117320,128,0,118351:0:0:0:0:
192,192,117320,128,0,117601:0:0:0:0:
320,192,117320,128,0,117976:0:0:0:0:
448,192,117320,128,0,118351:0:0:0:0:
192,192,117695,128,0,118351:0:0:0:0:
320,192,118070,128,0,118351:0:0:0:0:
320,192,118445,1,0,0:0:0:0:
192,192,118445,1,0,0:0:0:0:
448,192,118820,1,0,0:0:0:0:
320,192,118820,1,0,0:0:0:0:
320,192,119195,1,0,0:0:0:0:
64,192,119195,1,0,0:0:0:0:
448,192,119570,1,0,0:0:0:0:
320,192,119570,1,0,0:0:0:0:
320,192,119945,1,0,0:0:0:0:
64,192,119945,1,0,0:0:0:0:
320,192,120320,128,0,121796:0:0:0:0:
192,192,120320,128,0,121796:0:0:0:0:
192,192,121820,1,0,0:0:0:0:
320,192,121820,1,0,0:0:0:0:
