osu file format v14

[General]
AudioFilename: audio.mp3
AudioLeadIn: 0
PreviewTime: 894
Countdown: 0
SampleSet: Soft
StackLeniency: 0.7
Mode: 0
LetterboxInBreaks: 0
WidescreenStoryboard: 0

[Editor]
Bookmarks: 22790,47523
DistanceSpacing: 1.2
BeatDivisor: 4
GridSize: 4
TimelineZoom: 1.8

[Metadata]
Title:Bunny Panic!!!
TitleUnicode:Bunny Panic!!!
Artist:3R2
ArtistUnicode:3R2
Creator:Kyubey
Version:Bunny Extinction
Source:Rabi-Ribi
Tags:ost original soundtrack bgm ăƒ©ăƒ“ăƒȘビ uprprc nozhomi gabe veus
BeatmapID:1215641
BeatmapSetID:573894

[Difficulty]
HPDrainRate:7
CircleSize:5
OverallDifficulty:9
ApproachRate:9
SliderMultiplier:1.9
SliderTickRate:1

[Events]
//Background and Video events
0,0,"123.jpg",0,0
//Break Periods
//Storyboard Layer 0 (Background)
//Storyboard Layer 1 (Fail)
//Storyboard Layer 2 (Pass)
//Storyboard Layer 3 (Foreground)
//Storyboard Sound Samples

[TimingPoints]
895,342.857142857143,4,2,0,50,1,0

[Colours]
Combo1 : 95,187,226
Combo2 : 118,94,215
Combo3 : 71,209,116
Combo4 : 249,138,155

[HitObjects]
204,92,894,5,4,0:0:0:0:
312,180,1066,1,2,0:0:0:0:
304,228,1152,1,0,0:0:0:0:
296,276,1237,1,0,0:0:0:0:
184,224,1409,1,2,0:0:0:0:
364,104,1580,1,0,0:0:0:0:
404,184,1752,1,2,0:0:0:0:
204,92,1923,1,0,0:0:0:0:
240,12,2095,1,2,0:0:0:0:
312,180,2266,5,0,0:0:0:0:
152,24,2437,1,2,0:0:0:0:
40,136,2609,1,0,0:0:0:0:
128,192,2780,1,2,0:0:0:0:
144,340,2952,1,0,0:0:0:0:
232,284,3123,1,2,0:0:0:0:
216,136,3295,1,0,0:0:0:0:
304,192,3466,1,2,0:0:0:0:
72,292,3637,5,0,0:0:0:0:
120,124,3809,1,2,0:0:0:0:
168,132,3895,1,0,0:0:0:0:
216,136,3980,1,0,0:0:0:0:
312,32,4152,1,2,0:0:0:0:
156,16,4323,1,0,0:0:0:0:
304,120,4495,1,2,0:0:0:0:
456,32,4666,1,0,0:0:0:0:
308,136,4837,1,2,0:0:0:0:
432,228,5009,5,0,0:0:0:0:
376,312,5180,1,2,0:0:0:0:
308,136,5352,1,0,0:0:0:0:
364,220,5523,1,2,0:0:0:0:
168,264,5695,1,0,0:0:0:0:
208,176,5866,1,2,0:0:0:0:
239,200,5952,1,0,0:0:0:0:
258,234,6037,1,0,0:0:0:0:
262,273,6123,1,0,0:0:0:0:
250,310,6209,1,2,0:0:0:0:
225,340,6295,1,0,0:0:0:0:
190,358,6380,5,0,0:0:0:0:
352,272,6552,1,2,0:0:0:0:
360,320,6637,1,0,0:0:0:0:
368,368,6723,1,0,0:0:0:0:
464,224,6895,1,2,0:0:0:0:
296,88,7066,1,0,0:0:0:0:
332,200,7237,1,2,0:0:0:0:
344,44,7409,1,0,0:0:0:0:
277,250,7580,1,2,0:0:0:0:
200,160,7752,5,0,0:0:0:0:
332,200,7923,1,2,0:0:0:0:
216,24,8095,1,0,0:0:0:0:
148,224,8266,1,2,0:0:0:0:
32,184,8437,1,0,0:0:0:0:
200,160,8609,1,2,0:0:0:0:
196,296,8780,1,0,0:0:0:0:
84,280,8952,1,2,0:0:0:0:
216,128,9123,5,0,0:0:0:0:
356,200,9295,1,2,0:0:0:0:
308,208,9380,1,0,0:0:0:0:
260,220,9466,1,0,0:0:0:0:
404,84,9637,1,2,0:0:0:0:
352,272,9809,1,0,0:0:0:0:
316,128,9980,1,2,0:0:0:0:
212,296,10152,1,0,0:0:0:0:
248,152,10323,1,2,0:0:0:0:
285,362,10495,5,0,0:0:0:0:
254,367,10580,1,0,0:0:0:0:
223,361,10666,1,2,0:0:0:0:
196,344,10752,1,0,0:0:0:0:
178,318,10837,1,0,0:0:0:0:
171,287,10923,1,0,0:0:0:0:
176,256,11009,1,2,0:0:0:0:
192,229,11095,1,0,0:0:0:0:
217,210,11180,5,0,0:0:0:0:
254,230,11266,1,0,0:0:0:0:
296,231,11352,1,2,0:0:0:0:
333,210,11437,1,0,0:0:0:0:
351,171,11523,1,2,0:0:0:0:
345,128,11609,1,2,0:0:0:0:
319,93,11695,1,2,0:0:0:0:
278,79,11780,1,2,0:0:0:0:
236,87,11866,5,2,0:0:0:0:
296,231,12037,1,2,0:0:0:0:
311,273,12123,1,0,0:0:0:0:
328,317,12209,1,0,0:0:0:0:
408,212,12380,1,2,0:0:0:0:
184,176,12552,1,0,0:0:0:0:
224,280,12723,1,2,0:0:0:0:
80,192,12895,1,0,0:0:0:0:
120,88,13066,1,2,0:0:0:0:
292,196,13237,5,0,0:0:0:0:
120,268,13409,1,2,0:0:0:0:
272,352,13580,1,0,0:0:0:0:
224,280,13752,1,2,0:0:0:0:
376,208,13923,1,0,0:0:0:0:
328,280,14095,1,2,0:0:0:0:
240,136,14266,1,0,0:0:0:0:
296,208,14437,1,2,0:0:0:0:
512,100,14609,5,0,0:0:0:0:
484,264,14780,1,2,0:0:0:0:
492,312,14866,1,0,0:0:0:0:
500,360,14952,1,0,0:0:0:0:
344,256,15123,1,2,0:0:0:0:
488,164,15295,1,0,0:0:0:0:
444,96,15466,1,2,0:0:0:0:
260,252,15637,1,0,0:0:0:0:
304,184,15809,1,2,0:0:0:0:
396,352,15980,5,0,0:0:0:0:
260,356,16152,1,2,0:0:0:0:
360,224,16323,1,0,0:0:0:0:
328,384,16495,1,2,0:0:0:0:
196,304,16666,1,0,0:0:0:0:
52,360,16837,1,2,0:0:0:0:
56,332,16923,1,0,0:0:0:0:
60,304,17009,1,0,0:0:0:0:
64,276,17095,1,0,0:0:0:0:
68,248,17180,1,2,0:0:0:0:
72,220,17266,1,0,0:0:0:0:
76,192,17352,5,0,0:0:0:0:
196,100,17523,1,2,0:0:0:0:
240,116,17609,1,0,0:0:0:0:
284,132,17695,1,0,0:0:0:0:
184,236,17866,1,2,0:0:0:0:
152,40,18037,1,0,0:0:0:0:
268,16,18209,1,2,0:0:0:0:
308,248,18380,1,0,0:0:0:0:
284,132,18552,1,2,0:0:0:0:
424,28,18723,5,0,0:0:0:0:
392,136,18895,1,2,0:0:0:0:
272,296,19066,1,0,0:0:0:0:
163,146,19237,1,2,0:0:0:0:
339,203,19409,1,0,0:0:0:0:
163,260,19580,1,2,0:0:0:0:
272,111,19752,1,0,0:0:0:0:
339,203,19923,1,2,0:0:0:0:
440,148,20095,5,0,0:0:0:0:
296,17,20266,1,2,0:0:0:0:
284,64,20352,1,0,0:0:0:0:
272,111,20437,1,0,0:0:0:0:
339,203,20609,1,2,0:0:0:0:
156,160,20780,1,0,0:0:0:0:
116,56,20952,1,2,0:0:0:0:
244,184,21123,1,0,1:0:0:0:
204,288,21295,1,2,0:0:0:0:
16,152,21466,5,4,0:2:0:0:
116,56,21637,1,2,0:0:0:0:
163,61,21723,1,0,0:0:0:0:
211,68,21809,1,2,0:0:0:0:
304,188,21980,1,2,0:0:0:0:
349,202,22066,1,0,0:0:0:0:
390,179,22152,1,2,0:0:0:0:
393,131,22237,1,0,0:0:0:0:
360,95,22323,1,2,0:0:0:0:
312,102,22409,1,0,0:0:0:0:
291,145,22495,1,2,1:2:0:0:
304,188,22580,1,0,0:0:0:0:
296,235,22666,1,2,0:0:0:0:
255,260,22752,1,0,0:0:0:0:
208,254,22837,5,6,1:2:0:0:
128,90,23009,1,2,0:0:0:0:
128,90,23095,1,0,0:0:0:0:
128,90,23180,1,0,0:0:0:0:
296,235,23352,1,2,0:0:0:0:
128,315,23523,1,0,0:0:0:0:
77,208,23695,1,2,0:0:0:0:
278,104,23866,1,0,0:0:0:0:
227,211,24037,1,2,0:0:0:0:
201,25,24209,5,0,0:0:0:0:
316,28,24380,1,2,0:0:0:0:
395,111,24552,1,0,0:0:0:0:
392,225,24723,1,2,0:0:0:0:
202,198,24895,1,0,0:0:0:0:
281,114,25066,1,2,0:0:0:0:
395,111,25237,1,0,0:0:0:0:
478,189,25409,1,2,0:0:0:0:
299,298,25580,5,0,0:0:0:0:
272,198,25752,1,2,0:0:0:0:
402,37,25923,1,0,0:0:0:0:
360,164,26095,1,2,0:0:0:0:
244,88,26266,1,0,0:0:0:0:
244,88,26437,1,2,0:0:0:0:
450,152,26609,1,0,0:0:0:0:
448,320,26780,1,2,0:0:0:0:
436,272,26866,1,0,0:0:0:0:
424,224,26952,5,0,0:0:0:0:
348,284,27123,1,2,0:0:0:0:
256,264,27295,1,0,0:0:0:0:
212,180,27466,1,2,0:0:0:0:
248,92,27637,1,0,0:0:0:0:
340,72,27809,1,2,0:0:0:0:
416,128,27980,1,0,0:0:0:0:
212,180,28152,1,2,0:0:0:0:
56,36,28323,5,0,0:0:0:0:
136,176,28495,1,2,0:0:0:0:
144,224,28580,1,0,0:0:0:0:
152,272,28666,1,0,0:0:0:0:
40,196,28837,1,2,0:0:0:0:
252,128,29009,1,0,0:0:0:0:
296,224,29180,1,2,0:0:0:0:
368,16,29352,1,0,0:0:0:0:
324,112,29523,1,2,0:0:0:0:
468,316,29695,5,0,0:0:0:0:
485,196,29866,1,2,0:0:0:0:
366,179,30037,1,0,0:0:0:0:
348,298,30209,1,2,0:0:0:0:
366,179,30380,1,0,0:0:0:0:
262,71,30552,1,2,0:0:0:0:
156,173,30723,1,0,0:0:0:0:
257,280,30895,1,2,0:0:0:0:
416,64,31066,5,0,0:0:0:0:
232,24,31237,1,2,0:0:0:0:
96,208,31409,1,0,0:0:0:0:
280,168,31580,1,2,0:0:0:0:
116,100,31752,1,0,0:0:0:0:
240,244,31923,1,2,0:0:0:0:
416,168,32095,1,0,0:0:0:0:
416,168,32437,5,0,0:0:0:0:
304,132,32609,1,2,0:0:0:0:
204,192,32780,1,0,0:0:0:0:
68,136,32952,1,2,0:0:0:0:
112,116,33037,1,0,0:0:0:0:
156,100,33123,1,0,0:0:0:0:
304,132,33295,1,2,0:0:0:0:
144,16,33466,1,0,0:0:0:0:
64,348,33809,5,2,0:0:0:0:
252,276,33980,1,2,0:0:0:0:
252,276,34066,1,0,0:0:0:0:
252,276,34152,1,0,0:0:0:0:
188,368,34323,1,2,0:0:0:0:
152,152,34495,1,0,0:0:0:0:
256,196,34666,1,2,0:0:0:0:
356,144,34837,1,0,0:0:0:0:
252,100,35009,1,2,0:0:0:0:
336,316,35180,5,0,0:0:0:0:
432,212,35352,1,2,0:0:0:0:
352,344,35523,1,0,0:0:0:0:
464,221,35695,1,2,0:0:0:0:
292,68,35866,5,0,0:0:0:0:
342,226,36037,1,2,0:0:0:0:
268,91,36209,1,0,0:0:0:0:
310,226,36380,1,2,0:0:0:0:
136,144,36552,5,0,0:0:0:0:
268,91,36723,1,2,0:0:0:0:
164,224,36895,1,0,0:0:0:0:
136,144,37066,1,2,0:0:0:0:
220,304,37237,1,0,0:0:0:0:
88,251,37409,1,2,0:0:0:0:
264,224,37580,1,0,0:0:0:0:
220,304,37752,1,2,0:0:0:0:
220,304,37837,1,0,0:0:0:0:
220,304,37923,5,0,0:0:0:0:
314,324,38095,1,2,0:0:0:0:
393,277,38266,1,0,0:0:0:0:
417,187,38437,1,2,0:0:0:0:
372,106,38609,1,0,0:0:0:0:
283,79,38780,1,2,0:0:0:0:
201,122,38952,1,0,0:0:0:0:
171,210,39123,1,2,0:0:0:0:
372,106,39295,5,0,0:0:0:0:
208,32,39466,1,2,0:0:0:0:
256,36,39552,1,0,0:0:0:0:
304,40,39637,1,0,0:0:0:0:
171,210,39809,1,2,0:0:0:0:
132,80,39980,1,0,0:0:0:0:
240,180,40152,1,2,0:0:0:0:
99,223,40323,1,0,0:0:0:0:
212,100,40495,1,2,0:0:0:0:
364,168,40666,5,0,0:0:0:0:
400,276,40837,1,2,0:0:0:0:
292,348,41009,1,0,0:0:0:0:
328,240,41180,1,2,0:0:0:0:
172,288,41352,1,0,0:0:0:0:
128,157,41523,1,2,0:0:0:0:
258,70,41695,1,0,0:0:0:0:
215,201,41866,1,2,0:0:0:0:
0,8,42037,5,0,0:0:0:0:
176,72,42209,1,2,0:0:0:0:
0,128,42380,1,0,0:0:0:0:
84,44,42552,1,2,0:0:0:0:
280,128,42723,1,0,0:0:0:0:
104,192,42895,1,2,0:0:0:0:
372,276,43066,1,0,1:0:0:0:
372,276,43409,5,4,0:0:0:0:
397,169,43580,1,2,0:0:0:0:
340,76,43752,1,2,0:0:0:0:
233,50,43923,1,2,0:0:0:0:
140,108,44095,1,2,0:0:0:0:
114,214,44266,1,2,0:0:0:0:
172,308,44437,1,2,1:2:0:0:
356,0,44780,5,4,0:0:0:0:
356,0,45123,1,0,1:0:0:0:
156,384,45466,1,4,0:0:0:0:
156,384,45809,1,0,1:0:0:0:
356,0,46152,1,4,1:2:0:0:
256,192,46495,5,0,1:0:0:0:
356,0,46666,1,4,0:0:0:0:
408,284,47009,5,0,1:0:0:0:
308,92,47180,1,4,0:0:0:0:
156,384,47523,5,4,0:0:0:0:
