osu file format v14

[General]
AudioFilename: audio.mp3
AudioLeadIn: 0
PreviewTime: 852
Countdown: 0
SampleSet: Normal
StackLeniency: 0.7
Mode: 1
LetterboxInBreaks: 0
WidescreenStoryboard: 0

[Editor]
Bookmarks: 11866,22837,33809,47523
DistanceSpacing: 1.2
BeatDivisor: 3
GridSize: 4
TimelineZoom: 1.4

[Metadata]
Title:Bunny Panic!!!
TitleUnicode:Bunny Panic!!!
Artist:3R2
ArtistUnicode:3R2
Creator:Faputa
Version:Kantan
Source:Rabi-Ribi
Tags:CreSpirit 酷思特 GemaYue Sekai Project cute bullet hell metroidvania indie rabbit bunny usagi ost original soundtrack bgm background music ラビリビ rabi ribi ラビ-リビ steam cynplytholowazy -GN Junior Jr. cyn-zy video game instrumental
BeatmapID:2329916
BeatmapSetID:898340

[Difficulty]
HPDrainRate:8.5
CircleSize:2
OverallDifficulty:3
ApproachRate:10
SliderMultiplier:1.4
SliderTickRate:1

[Events]
//Background and Video events
0,0,"bg.jpg",0,-60
//Break Periods
//Storyboard Layer 0 (Background)
//Storyboard Layer 1 (Fail)
//Storyboard Layer 2 (Pass)
//Storyboard Layer 3 (Foreground)
//Storyboard Layer 4 (Overlay)
//Storyboard Sound Samples

[TimingPoints]
853,342.857142857143,4,1,0,50,1,0
44738,-100,4,1,0,50,0,1
47481,-100,4,1,0,50,0,0

[HitObjects]
256,192,852,5,12,0:0:0:0:
256,192,1538,1,8,0:0:0:0:
256,192,1881,1,8,0:0:0:0:
256,192,2224,1,8,0:0:0:0:
256,192,2567,1,0,0:0:0:0:
256,192,2910,1,8,0:0:0:0:
256,192,3595,1,0,0:0:0:0:
256,192,4281,1,8,0:0:0:0:
256,192,4624,1,8,0:0:0:0:
256,192,4967,1,8,0:0:0:0:
256,192,6338,1,0,0:0:0:0:
256,192,7024,1,8,0:0:0:0:
256,192,7367,1,0,0:0:0:0:
256,192,7710,1,8,0:0:0:0:
256,192,8053,1,8,0:0:0:0:
256,192,8395,1,0,0:0:0:0:
256,192,9081,1,0,0:0:0:0:
256,192,9767,1,8,0:0:0:0:
256,192,10453,1,8,0:0:0:0:
256,192,10795,1,0,0:0:0:0:
256,192,11138,1,8,0:0:0:0:
256,192,11481,1,0,0:0:0:0:
256,192,11824,1,8,0:0:0:0:
256,192,12853,1,0,0:0:0:0:
256,192,13195,1,8,0:0:0:0:
256,192,13881,1,8,0:0:0:0:
256,192,14224,1,8,0:0:0:0:
256,192,14567,1,0,0:0:0:0:
256,192,15253,1,8,0:0:0:0:
256,192,15938,1,8,0:0:0:0:
256,192,16624,1,0,0:0:0:0:
256,192,16967,1,0,0:0:0:0:
256,192,17310,1,8,0:0:0:0:
256,192,18338,1,8,0:0:0:0:
256,192,18681,1,8,0:0:0:0:
256,192,19367,1,0,0:0:0:0:
256,192,19710,1,8,0:0:0:0:
256,192,20053,1,0,0:0:0:0:
256,192,20738,1,8,0:0:0:0:
256,192,21081,1,0,0:0:0:0:
256,192,21424,1,12,0:0:0:0:
256,192,22453,1,0,0:0:0:0:
256,192,22795,1,12,0:0:0:0:
256,192,23481,1,8,0:0:0:0:
256,192,24167,1,0,0:0:0:0:
256,192,24853,1,0,0:0:0:0:
256,192,25538,1,8,0:0:0:0:
256,192,26224,1,0,0:0:0:0:
256,192,26567,1,0,0:0:0:0:
256,192,26910,1,8,0:0:0:0:
256,192,28281,1,8,0:0:0:0:
256,192,28967,1,8,0:0:0:0:
256,192,29653,1,0,0:0:0:0:
256,192,30338,1,0,0:0:0:0:
256,192,31024,1,8,0:0:0:0:
256,192,31710,1,8,0:0:0:0:
256,192,32053,1,0,0:0:0:0:
256,192,32395,1,8,0:0:0:0:
256,192,33081,1,8,0:0:0:0:
256,192,33424,1,8,0:0:0:0:
256,192,33767,1,8,0:0:0:0:
256,192,35138,1,0,0:0:0:0:
256,192,35824,1,0,0:0:0:0:
256,192,36510,1,8,0:0:0:0:
256,192,37195,1,0,0:0:0:0:
256,192,37538,1,0,0:0:0:0:
256,192,37881,1,8,0:0:0:0:
256,192,38567,1,0,0:0:0:0:
256,192,39253,1,8,0:0:0:0:
256,192,40624,1,0,0:0:0:0:
256,192,41310,1,0,0:0:0:0:
256,192,41995,1,8,0:0:0:0:
256,192,42681,1,8,0:0:0:0:
256,192,43024,1,0,0:0:0:0:
256,192,43367,1,12,0:0:0:0:
256,192,44395,1,8,0:0:0:0:
256,192,44738,1,4,0:0:0:0:
256,192,45424,1,4,0:0:0:0:
256,192,46110,1,12,0:0:0:0:
256,192,46624,1,12,0:0:0:0:
256,192,47138,1,12,0:0:0:0:
256,192,47481,1,12,0:0:0:0:
