osu file format v14

[General]
AudioFilename: Brawl Breaks.mp3
AudioLeadIn: 1000
PreviewTime: 12410
Countdown: 0
SampleSet: Soft
StackLeniency: 0.6
Mode: 0
LetterboxInBreaks: 0
WidescreenStoryboard: 0

[Editor]
DistanceSpacing: 1.5
BeatDivisor: 4
GridSize: 4
TimelineZoom: 2.3

[Metadata]
Title:Brawl Breaks
TitleUnicode:Brawl Breaks
Artist:3R2
ArtistUnicode:3R2
Creator:sahuang
Version:Hard
Source:Rabi-Ribi
Tags:ăƒ©ăƒ“-ăƒȘビ RabiRibi Original Soundtrack Steam kano-bi CreSpirit Animen Sekai Project Plurk GemaYue Erina Ribbon Kotri Boss Battle #2
BeatmapID:1157363
BeatmapSetID:546068

[Difficulty]
HPDrainRate:5
CircleSize:3.5
OverallDifficulty:6
ApproachRate:7.3
SliderMultiplier:1.4
SliderTickRate:1

[Events]
//Background and Video events
0,0,"bunny.jpg",0,0
//Break Periods
//Storyboard Layer 0 (Background)
//Storyboard Layer 1 (Fail)
//Storyboard Layer 2 (Pass)
//Storyboard Layer 3 (Foreground)
//Storyboard Sound Samples

[TimingPoints]
865,363.636363636364,4,2,2,40,1,0
12138,-100,4,2,2,55,0,0
12501,-83.3333333333333,4,2,2,70,0,1
35774,-111.111111111111,4,2,2,65,0,0
59228,-100,4,2,2,5,0,0

[Colours]
Combo1 : 45,239,244
Combo2 : 188,69,239
Combo3 : 0,100,221
Combo4 : 184,176,82

[HitObjects]
83,116,865,5,4,0:0:0:0:
38,210,1046,1,8,0:0:0:0:
95,297,1228,1,0,0:0:0:0:
95,297,1319,1,8,0:0:0:0:
218,199,1592,2,0,P|214:143|214:79,2,105,8|8|8,0:0|0:0|0:0,0:0:0:0:
316,234,2319,5,2,0:0:0:0:
297,131,2501,1,8,0:0:0:0:
218,199,2683,1,0,0:0:0:0:
218,199,2774,1,8,0:0:0:0:
265,348,3046,2,0,P|313:341|387:346,2,105,8|8|8,0:0|0:0|0:0,0:0:0:0:
171,298,3774,5,2,0:0:0:0:
79,347,3955,1,8,0:0:0:0:
87,242,4137,1,0,0:0:0:0:
87,242,4228,1,8,0:0:0:0:
173,110,4501,2,0,P|113:107|49:118,2,105,8|8|8,0:0|0:0|0:0,0:0:0:0:
269,71,5228,5,2,0:0:0:0:
186,6,5410,1,8,0:0:0:0:
173,110,5592,1,0,0:0:0:0:
173,110,5683,1,8,0:0:0:0:
295,207,5955,2,0,B|346:199|346:199|409:209,2,105,8|8|8,0:0|0:0|0:0,0:0:0:0:
225,286,6683,5,2,0:0:0:0:
138,345,6865,1,8,0:0:0:0:
51,288,7046,1,0,0:0:0:0:
51,288,7137,1,8,0:0:0:0:
138,156,7410,2,0,L|141:35,2,105,8|8|8,0:0|0:0|0:0,0:0:0:0:
216,226,8137,5,2,0:0:0:0:
279,142,8319,1,8,0:0:0:0:
365,202,8501,1,0,0:0:0:0:
365,202,8592,1,8,0:0:0:0:
270,328,8865,2,0,P|216:335|148:326,2,105,8|8|8,0:0|0:0|0:0,0:0:0:0:
365,283,9592,5,2,0:0:0:0:
457,332,9774,1,8,0:0:0:0:
449,227,9955,1,0,0:0:0:0:
449,227,10046,1,8,0:0:0:0:
296,186,10319,2,0,P|242:179|174:188,2,105,8|8|8,0:0|0:0|0:0,0:0:0:0:
391,141,11046,5,2,0:0:0:0:
449,227,11228,1,8,0:0:0:0:
496,133,11410,1,0,0:0:0:0:
496,133,11501,1,8,0:0:0:0:
327,47,11774,2,0,L|283:41,3,35,8|8|8|8,0:0|0:0|0:0|0:0,0:0:0:0:
242,57,12137,2,0,L|198:51,3,35,8|8|8|8,2:0|2:0|2:0|2:0,0:0:0:0:
158,74,12501,6,0,L|166:178,1,83.9999974365235,12|0,0:0|0:0,0:0:0:0:
112,254,12865,2,0,L|117:313,2,41.9999987182618,8|8|8,0:0|0:0|0:0,0:0:0:0:
219,240,13228,2,0,P|266:248|319:243,1,83.9999974365235,2|8,0:0|0:0,0:0:0:0:
403,203,13592,1,8,0:0:0:0:
315,132,13774,1,0,0:0:0:0:
315,132,13865,1,0,0:0:0:0:
315,132,13955,6,0,L|308:45,1,83.9999974365235,2|0,0:0|0:0,0:0:0:0:
227,123,14319,2,0,L|220:39,1,83.9999974365235,8|0,0:0|0:0,0:0:0:0:
112,14,14683,1,2,0:0:0:0:
45,100,14865,1,8,0:0:0:0:
131,166,15046,1,8,0:0:0:0:
69,256,15228,2,0,L|72:307,1,41.9999987182618,8|0,0:0|0:0,0:0:0:0:
83,338,15410,6,0,L|191:350,1,83.9999974365235,2|0,0:0|0:0,0:0:0:0:
244,270,15774,2,0,L|160:260,1,83.9999974365235,8|0,0:0|0:0,0:0:0:0:
237,182,16137,2,0,L|321:192,2,83.9999974365235,2|8|8,0:0|0:0|0:0,0:0:0:0:
160,102,16683,1,0,0:0:0:0:
160,102,16774,1,0,0:0:0:0:
160,102,16865,6,0,P|148:50|155:19,1,83.9999974365235,2|2,0:0|0:0,0:0:0:0:
263,15,17228,2,0,P|275:67|268:98,1,83.9999974365235,8|0,0:0|0:0,0:0:0:0:
320,191,17592,1,8,0:0:0:0:
398,269,17774,1,8,0:0:0:0:
474,191,17955,1,8,0:0:0:0:
398,114,18137,1,8,0:0:0:0:
320,191,18319,6,0,L|216:183,1,83.9999974365235,12|0,0:0|0:0,0:0:0:0:
149,252,18683,2,0,L|162:324,2,41.9999987182618,8|8|8,0:0|0:0|0:0,0:0:0:0:
53,198,19046,2,0,P|45:151|50:98,1,83.9999974365235,2|8,0:0|0:0,0:0:0:0:
135,50,19410,1,8,0:0:0:0:
233,97,19592,1,0,0:0:0:0:
233,97,19683,1,0,0:0:0:0:
233,97,19774,6,0,L|320:104,1,83.9999974365235,2|0,0:0|0:0,0:0:0:0:
367,201,20137,2,0,L|451:208,1,83.9999974365235,8|0,0:0|0:0,0:0:0:0:
507,301,20501,1,2,0:0:0:0:
401,328,20683,1,8,0:0:0:0:
295,355,20865,1,8,0:0:0:0:
203,296,21046,2,0,L|152:293,1,41.9999987182618,8|0,0:0|0:0,0:0:0:0:
124,314,21228,6,0,P|130:278|112:206,1,83.9999974365235,2|0,0:0|0:0,0:0:0:0:
28,174,21592,2,0,P|22:138|40:66,1,83.9999974365235,8|0,0:0|0:0,0:0:0:0:
119,30,21955,2,0,L|229:17,2,83.9999974365235,2|0|8,0:0|0:0|0:0,0:0:0:0:
175,122,22501,1,0,0:0:0:0:
175,122,22592,1,0,0:0:0:0:
175,122,22683,6,0,L|235:114,2,41.9999987182618,8|8|8,0:0|0:0|0:0,0:0:0:0:
111,211,23046,1,8,0:0:0:0:
178,296,23228,1,2,0:0:0:0:
285,274,23410,2,0,L|389:283,1,83.9999974365235,8|8,0:0|0:0,0:0:0:0:
457,215,23774,2,0,L|466:111,1,83.9999974365235,8|8,0:0|0:0,0:0:0:0:
363,88,24137,6,0,L|371:192,1,83.9999974365235,12|0,0:0|0:0,0:0:0:0:
368,281,24501,2,0,L|373:340,2,41.9999987182618,8|8|8,0:0|0:0|0:0,0:0:0:0:
271,230,24865,2,0,P|220:225|171:233,1,83.9999974365235,2|8,0:0|0:0,0:0:0:0:
96,290,25228,1,8,0:0:0:0:
91,180,25410,1,0,0:0:0:0:
91,180,25501,1,0,0:0:0:0:
91,180,25592,6,0,L|98:93,1,83.9999974365235,2|0,0:0|0:0,0:0:0:0:
198,53,25955,2,0,L|191:137,1,83.9999974365235,8|0,0:0|0:0,0:0:0:0:
293,97,26319,1,2,0:0:0:0:
358,184,26501,1,8,0:0:0:0:
401,84,26683,1,8,0:0:0:0:
467,170,26865,2,0,L|464:221,1,41.9999987182618,8|0,0:0|0:0,0:0:0:0:
459,254,27046,6,0,L|470:356,1,83.9999974365235,2|0,0:0|0:0,0:0:0:0:
380,270,27410,2,0,L|390:354,1,83.9999974365235,8|0,0:0|0:0,0:0:0:0:
301,265,27774,2,0,L|312:367,2,83.9999974365235,2|8|8,0:0|0:0|0:0,0:0:0:0:
241,173,28319,1,0,0:0:0:0:
241,173,28410,1,0,0:0:0:0:
241,173,28501,6,0,P|189:161|158:168,1,83.9999974365235,2|2,0:0|0:0,0:0:0:0:
110,261,28865,2,0,P|162:273|193:266,1,83.9999974365235,8|0,0:0|0:0,0:0:0:0:
301,265,29228,1,8,0:0:0:0:
402,312,29410,1,8,0:0:0:0:
447,212,29592,1,8,0:0:0:0:
348,166,29774,1,8,0:0:0:0:
301,265,29955,6,0,L|307:362,1,83.9999974365235,12|0,0:0|0:0,0:0:0:0:
203,310,30319,2,0,L|207:351,2,41.9999987182618,8|8|8,0:0|0:0|0:0,0:0:0:0:
94,326,30683,2,0,P|95:284|113:246,1,83.9999974365235,2|8,0:0|0:0,0:0:0:0:
203,183,31046,1,8,0:0:0:0:
176,76,31228,1,0,0:0:0:0:
176,76,31319,1,0,0:0:0:0:
176,76,31410,6,0,L|263:69,1,83.9999974365235,2|0,0:0|0:0,0:0:0:0:
347,135,31774,2,0,L|354:219,1,83.9999974365235,8|0,0:0|0:0,0:0:0:0:
457,183,32137,1,2,0:0:0:0:
438,290,32319,1,8,0:0:0:0:
336,329,32501,1,8,0:0:0:0:
253,258,32683,2,0,L|201:255,1,41.9999987182618,8|0,0:0|0:0,0:0:0:0:
171,270,32865,6,0,P|135:276|63:258,1,83.9999974365235,2|0,0:0|0:0,0:0:0:0:
43,168,33228,2,0,P|55:133|107:80,1,83.9999974365235,8|0,0:0|0:0,0:0:0:0:
194,97,33592,2,0,P|217:125|237:196,2,83.9999974365235,2|0|8,0:0|0:0|0:0,0:0:0:0:
268,17,34137,1,0,0:0:0:0:
268,17,34228,1,0,0:0:0:0:
268,17,34319,6,0,L|328:25,2,41.9999987182618,8|8|8,0:0|0:0|0:0,0:0:0:0:
325,110,34683,2,0,L|415:96,1,83.9999974365235,8|0,0:0|0:0,0:0:0:0:
478,180,35046,1,8,0:0:0:0:
446,284,35228,2,0,P|407:301|337:298,1,83.9999974365235,8|8,0:0|2:0,0:0:0:0:
316,279,35501,2,0,L|317:218,2,41.9999987182618,8|8|8,2:0|2:0|2:0,0:0:0:0:
270,307,35774,6,0,P|207:301|121:308,1,125.999996154785,12|2,0:0|0:0,0:0:0:0:
120,212,36319,2,0,P|183:218|269:211,1,125.999996154785,8|0,0:0|0:0,0:0:0:0:
289,130,36865,1,2,0:0:0:0:
232,55,37046,1,8,0:0:0:0:
325,43,37228,6,0,L|408:28,2,62.9999980773926,2|2|8,0:0|0:0|0:0,0:0:0:0:
381,119,37774,1,2,0:0:0:0:
358,210,37955,2,0,L|364:289,1,62.9999980773926,0|8,0:0|0:0,0:0:0:0:
332,362,38319,2,0,L|283:355,3,31.4999990386963,8|8|8|8,0:0|0:0|0:0|0:0,0:0:0:0:
264,326,38683,6,0,L|183:331,1,62.9999980773926,2|0,0:0|0:0,0:0:0:0:
106,330,39046,2,0,P|93:302|87:265,1,62.9999980773926,8|0,0:0|0:0,0:0:0:0:
149,198,39410,2,0,P|162:170|168:133,1,62.9999980773926,8|0,0:0|0:0,0:0:0:0:
152,44,39774,2,0,P|194:40|239:48,1,62.9999980773926,8|0,0:0|0:0,0:0:0:0:
293,94,40137,6,0,L|380:90,1,62.9999980773926,2|0,0:0|0:0,0:0:0:0:
442,130,40501,2,0,P|446:166|445:194,1,62.9999980773926,8|0,0:0|0:0,0:0:0:0:
378,260,40865,1,8,0:0:0:0:
378,260,41046,1,8,0:0:0:0:
287,233,41228,1,8,0:0:0:0:
287,233,41410,1,8,0:0:0:0:
205,281,41592,6,0,B|196:239|196:239|204:132,1,125.999996154785,12|2,0:0|0:0,0:0:0:0:
209,61,42137,2,0,B|251:52|251:52|358:60,1,125.999996154785,8|0,0:0|0:0,0:0:0:0:
428,67,42683,1,2,0:0:0:0:
484,142,42865,1,8,0:0:0:0:
459,233,43046,6,0,L|468:319,2,62.9999980773926,2|2|8,0:0|0:0|0:0,0:0:0:0:
366,211,43592,1,2,0:0:0:0:
292,269,43774,2,0,L|213:275,1,62.9999980773926,0|8,0:0|0:0,0:0:0:0:
146,226,44137,2,0,L|153:177,3,31.4999990386963,8|8|8|8,0:0|0:0|0:0|0:0,0:0:0:0:
144,147,44501,6,0,L|139:66,1,62.9999980773926,2|0,0:0|0:0,0:0:0:0:
220,30,44865,2,0,P|248:17|285:11,1,62.9999980773926,8|0,0:0|0:0,0:0:0:0:
355,68,45228,2,0,P|383:81|420:87,1,62.9999980773926,8|0,0:0|0:0,0:0:0:0:
480,155,45592,2,0,P|485:191|476:242,1,62.9999980773926,8|0,0:0|0:0,0:0:0:0:
417,286,45955,6,0,L|344:285,1,62.9999980773926,2|8,0:0|0:0,0:0:0:0:
273,335,46319,2,0,L|271:379,2,31.4999990386963,2|8|0,0:0|0:0|0:0,0:0:0:0:
205,267,46683,1,8,0:0:0:0:
287,221,46865,2,0,L|280:128,1,62.9999980773926,8|8,0:0|0:0,0:0:0:0:
274,111,47137,2,0,L|305:111,2,31.4999990386963,8|8|8,0:0|0:0|0:0,0:0:0:0:
231,90,47410,6,0,P|165:92|82:91,1,125.999996154785,12|2,0:0|0:0,0:0:0:0:
61,175,47955,2,0,P|127:177|210:176,1,125.999996154785,8|0,0:0|0:0,0:0:0:0:
224,264,48501,1,2,0:0:0:0:
183,349,48683,1,8,0:0:0:0:
277,345,48865,6,0,L|338:356,2,62.9999980773926,2|2|8,0:0|0:0|0:0,0:0:0:0:
320,261,49410,1,2,0:0:0:0:
272,179,49592,2,0,P|268:143|264:102,1,62.9999980773926,0|8,0:0|0:0,0:0:0:0:
198,48,49955,2,0,L|161:56,3,31.4999990386963,8|8|8|8,0:0|0:0|0:0|0:0,0:0:0:0:
120,61,50319,6,0,P|121:98|115:142,1,62.9999980773926,2|0,0:0|0:0,0:0:0:0:
70,205,50683,2,0,L|60:286,1,62.9999980773926,8|0,0:0|0:0,0:0:0:0:
107,350,51046,2,0,P|135:337|172:331,1,62.9999980773926,8|0,0:0|0:0,0:0:0:0:
258,308,51410,2,0,P|262:272|254:221,1,62.9999980773926,8|0,0:0|0:0,0:0:0:0:
224,157,51774,6,0,L|228:70,1,62.9999980773926,2|0,0:0|0:0,0:0:0:0:
305,39,52137,2,0,P|336:38|367:42,1,62.9999980773926,8|0,0:0|0:0,0:0:0:0:
450,88,52501,1,8,0:0:0:0:
450,88,52683,1,8,0:0:0:0:
368,136,52865,1,8,0:0:0:0:
368,136,53046,1,8,0:0:0:0:
393,226,53228,6,0,P|356:252|272:231,1,125.999996154785,12|2,0:0|0:0,0:0:0:0:
236,154,53774,2,0,P|199:128|115:149,1,125.999996154785,8|0,0:0|0:0,0:0:0:0:
73,221,54319,1,2,0:0:0:0:
91,313,54501,1,8,0:0:0:0:
182,336,54683,6,0,P|182:304|166:248,2,62.9999980773926,2|2|8,0:0|0:0|0:0,0:0:0:0:
270,370,55228,1,2,0:0:0:0:
334,300,55410,2,0,L|402:295,1,62.9999980773926,0|8,0:0|0:0,0:0:0:0:
490,277,55774,2,0,L|495:242,3,31.4999990386963,8|8|8|8,0:0|0:0|0:0|0:0,0:0:0:0:
485,199,56137,6,0,L|412:192,1,62.9999980773926,2|0,0:0|0:0,0:0:0:0:
442,99,56501,2,0,L|369:92,1,62.9999980773926,8|2,0:0|0:0,0:0:0:0:
321,168,56865,2,0,L|248:161,1,62.9999980773926,8|2,0:0|0:0,0:0:0:0:
278,68,57228,2,0,L|205:61,1,62.9999980773926,8|2,0:0|0:0,0:0:0:0:
157,137,57592,6,0,L|84:130,1,62.9999980773926,8|2,0:0|0:0,0:0:0:0:
114,37,57955,2,0,L|41:30,1,62.9999980773926,8|2,0:0|0:0,0:0:0:0:
94,130,58319,2,0,L|77:175,3,31.4999990386963,8|8|8|8,0:0|0:0|0:0|0:0,0:0:0:0:
91,206,58683,2,0,L|74:251,3,31.4999990386963,8|8|8|8,0:0|0:0|0:0|0:0,0:0:0:0:
94,280,59046,5,6,0:0:0:0:
256,192,59137,12,0,64865,0:0:0:0:
