osu file format v14

[General]
AudioFilename: audio.mp3
AudioLeadIn: 0
PreviewTime: 12232
Countdown: 0
SampleSet: Soft
StackLeniency: 0.7
Mode: 0
LetterboxInBreaks: 0
WidescreenStoryboard: 0

[Editor]
Bookmarks: 12991,25143
DistanceSpacing: 1
BeatDivisor: 4
GridSize: 4
TimelineZoom: 1

[Metadata]
Title:Bounce Bounce
TitleUnicode:Bounce Bounce
Artist:3R2
ArtistUnicode:3R2
Creator:Nozhomi
Version:Nely's Normal
Source:Rabi-Ribi
Tags:ăƒ©ăƒ“-ăƒȘビ RabiRibi Original Soundtrack kano-bi CreSpirit Animen Sekai Project Plurk GemaYue Erina Xinely
BeatmapID:1168952
BeatmapSetID:551125

[Difficulty]
HPDrainRate:4
CircleSize:3.5
OverallDifficulty:4
ApproachRate:5
SliderMultiplier:1.2
SliderTickRate:1

[Events]
//Background and Video events
0,0,"Rabi-Ribi_03.jpg",0,0
//Break Periods
//Storyboard Layer 0 (Background)
//Storyboard Layer 1 (Fail)
//Storyboard Layer 2 (Pass)
//Storyboard Layer 3 (Foreground)
//Storyboard Sound Samples

[TimingPoints]
840,379.746835443038,4,2,1,40,1,0
25143,-100,4,2,1,50,0,0
36726,-100,4,2,1,30,0,0
36915,-100,4,2,1,40,0,0
37105,-100,4,2,1,45,0,0
37295,-100,4,2,1,50,0,0
60270,-100,4,2,1,40,0,0
63118,-100,4,2,1,45,0,0
63877,-100,4,2,1,40,0,0
64257,-100,4,2,1,35,0,0
64637,-100,4,2,1,30,0,0

[Colours]
Combo1 : 228,158,14
Combo2 : 227,103,28
Combo3 : 238,115,170
Combo4 : 84,209,41

[HitObjects]
100,208,840,6,0,P|164:208|224:184,1,120,4|4,3:0|0:3,0:0:0:0:
292,96,1599,2,0,L|284:28,2,60,4|2|4,0:3|0:0|0:3,0:0:0:0:
388,168,2358,2,0,P|436:208|452:264,1,120,4|4,0:3|0:3,0:0:0:0:
364,344,3118,2,0,L|280:336,1,60,4|2,0:3|0:0,0:0:0:0:
248,320,3498,2,0,L|164:312,1,60,4|2,0:3|0:0,0:0:0:0:
128,300,3877,6,0,P|144:252|120:168,1,120,4|4,0:3|0:3,0:0:0:0:
180,76,4637,2,0,L|172:8,2,60,4|2|4,0:3|0:0|0:3,0:0:0:0:
288,128,5396,2,0,P|344:111|402:124,1,120,4|4,0:3|0:3,0:0:0:0:
376,240,6156,2,0,P|344:264|320:272,1,60,4|2,0:3|0:0,0:0:0:0:
264,276,6536,2,0,P|232:257|204:224,1,60,4|2,0:3|0:0,0:0:0:0:
164,208,6915,6,0,P|107:192|50:207,1,120,4|0,0:3|1:0,0:0:0:0:
100,316,7675,2,0,P|100:348|80:396,2,60,4|2|0,0:3|0:0|1:0,0:0:0:0:
220,336,8434,2,0,P|276:352|354:342,1,120,4|0,0:3|1:0,0:0:0:0:
412,260,9194,2,0,P|435:289|463:309,1,60,4|2,0:3|0:0,0:0:0:0:
508,280,9574,2,0,P|513:250|510:220,1,60,0|2,1:0|0:0,0:0:0:0:
495,161,9953,6,0,P|434:157|373:201,1,120,4|0,0:3|1:0,0:0:0:0:
276,240,10713,2,0,L|244:304,2,60,4|2|0,0:3|0:0|1:0,0:0:0:0:
284,120,11472,1,4,3:0:0:0:
284,120,12232,6,0,L|216:108,1,60,0|0,1:0|1:0,0:0:0:0:
164,112,12612,2,0,L|88:136,1,60,0|0,1:0|1:0,0:0:0:0:
56,164,12991,6,0,P|52:224|60:292,1,120,4|0,3:0|1:0,0:0:0:0:
160,348,13751,2,0,L|216:328,1,60,4|2,0:3|0:0,0:0:0:0:
276,332,14131,2,0,L|344:344,1,60,0|0,1:0|0:0,0:0:0:0:
396,352,14510,5,4,0:3:0:0:
448,240,14890,1,0,1:0:0:0:
436,120,15270,2,0,P|400:124|368:144,1,60,4|2,0:3|0:0,0:0:0:0:
336,176,15650,1,0,1:0:0:0:
336,176,15840,2,0,P|300:192|272:196,1,60,2|4,0:0|0:3,0:0:0:0:
188,120,16409,5,0,1:0:0:0:
68,116,16789,2,0,P|76:156|68:192,1,60,4|2,0:3|0:0,0:0:0:0:
40,224,17169,2,0,P|28:268|40:308,1,60,0|0,1:0|0:0,0:0:0:0:
80,312,17548,6,0,P|148:304|200:308,1,120,4|0,0:3|1:0,0:0:0:0:
308,356,18308,2,0,P|320:328|320:284,1,60,4|2,0:3|0:0,0:0:0:0:
328,240,18688,2,0,P|319:210|290:177,1,60,0|2,1:0|0:0,0:0:0:0:
264,140,19067,5,4,3:0:0:0:
176,56,19447,1,0,1:0:0:0:
292,32,19827,2,0,L|348:12,1,60,4|2,0:3|0:0,0:0:0:0:
372,68,20207,2,0,L|436:48,1,60,0|0,1:0|0:0,0:0:0:0:
480,80,20586,5,4,0:3:0:0:
488,200,20966,1,0,1:0:0:0:
372,176,21346,2,0,L|368:244,1,60,4|2,0:3|0:0,0:0:0:0:
368,296,21726,1,0,1:0:0:0:
368,296,21916,2,0,P|332:312|304:316,1,60,2|4,0:0|0:3,0:0:0:0:
192,312,22485,5,0,1:0:0:0:
92,244,22865,2,0,P|84:204|88:176,1,60,4|2,0:3|0:0,0:0:0:0:
72,128,23245,2,0,P|85:89|102:67,1,60,0|0,1:0|0:0,0:0:0:0:
140,32,23624,6,0,P|208:24|260:28,1,120,4|0,0:3|1:0,0:0:0:0:
372,76,24384,2,0,L|368:144,1,60,4|2,0:3|0:0,0:0:0:0:
360,196,24764,2,0,L|344:272,1,60,0|0,1:0|0:0,0:0:0:0:
312,304,25143,6,0,L|192:304,1,120,4|0,0:3|1:0,0:0:0:0:
88,240,25903,2,0,L|84:156,1,60,4|2,0:3|0:0,0:0:0:0:
84,120,26283,2,0,P|116:104|148:104,1,60,0|0,1:0|0:0,0:0:0:0:
200,100,26662,5,4,0:3:0:0:
316,140,27042,1,0,1:0:0:0:
432,116,27422,2,0,L|436:200,1,60,4|2,0:3|0:0,0:0:0:0:
400,228,27802,1,0,1:0:0:0:
400,228,27992,2,0,P|364:244|336:248,1,60,2|4,0:0|0:3,0:0:0:0:
232,200,28561,5,0,1:0:0:0:
136,272,28941,1,4,0:3:0:0:
36,204,29321,2,0,P|24:160|24:124,1,60,0|0,1:0|0:0,0:0:0:0:
44,88,29700,6,0,P|96:80|172:80,1,120,4|0,0:3|1:0,0:0:0:0:
280,72,30460,2,0,P|304:64|356:64,1,60,4|2,0:3|0:0,0:0:0:0:
396,76,30840,2,0,P|403:111|400:152,1,60,0|2,1:0|0:0,0:0:0:0:
400,196,31219,5,4,3:0:0:0:
384,316,31599,1,0,1:0:0:0:
268,340,31979,2,0,L|200:332,1,60,4|2,0:3|0:0,0:0:0:0:
152,316,32358,2,0,L|90:285,1,60,0|0,1:0|0:0,0:0:0:0:
48,256,32738,5,4,0:3:0:0:
72,140,33118,1,0,1:0:0:0:
168,68,33498,2,0,L|180:140,1,60,4|2,0:3|0:0,0:0:0:0:
224,164,33877,1,0,1:0:0:0:
224,164,34068,2,0,P|253:157|280:144,1,60,2|4,0:0|0:3,0:0:0:0:
388,92,34637,5,0,1:0:0:0:
436,204,35017,2,0,P|434:233|442:262,1,60,4|2,0:3|0:0,0:0:0:0:
456,320,35397,2,0,P|440:345|412:364,1,60,0|0,1:0|0:0,0:0:0:0:
360,340,35776,6,0,P|300:332|240:344,1,120,4|0,3:3|0:0,0:0:0:0:
180,356,36346,2,0,P|120:364|60:360,1,120,4|0,3:0|1:0,0:0:0:0:
24,312,36916,2,0,L|36:253,1,60,0|0,1:0|1:0,0:0:0:0:
56,196,37295,6,0,P|116:176|176:196,1,120,4|0,0:3|1:0,0:0:0:0:
276,244,38055,2,0,L|272:96,1,120,4|0,0:3|1:0,0:0:0:0:
260,64,38624,6,0,P|316:92|384:88,1,120,0|2,0:0|0:0,0:0:0:0:
428,72,39194,1,0,1:0:0:0:
480,180,39574,2,0,P|480:216|468:252,1,60,4|0,0:3|0:0,0:0:0:0:
424,268,39953,2,0,P|393:268|352:280,1,60,0|0,1:0|0:0,0:0:0:0:
308,296,40333,6,0,P|248:300|172:292,1,120,4|0,0:3|1:0,0:0:0:0:
68,280,41093,2,0,P|62:220|66:160,1,120,4|0,0:3|1:0,0:0:0:0:
100,44,41852,6,0,L|228:32,1,120,4|0,0:3|1:0,0:0:0:0:
276,56,42422,1,2,0:0:0:0:
276,56,42612,2,0,P|272:120|276:128,1,60,4|2,0:3|0:0,0:0:0:0:
288,172,42991,2,0,P|297:200|294:229,1,60,0|2,1:0|0:0,0:0:0:0:
248,272,43371,5,4,0:3:0:0:
160,356,43751,2,0,L|28:336,2,120,0|4|0,1:0|3:0|1:0,0:0:0:0:
216,372,44700,6,0,P|264:356|344:300,1,120,0|2,0:0|0:0,0:0:0:0:
360,272,45270,1,0,1:0:0:0:
476,304,45650,2,0,L|468:228,1,60,4|0,0:3|0:0,0:0:0:0:
452,188,46029,2,0,P|422:185|392:187,1,60,0|0,1:0|0:0,0:0:0:0:
332,200,46409,6,0,P|272:224|208:244,1,120,4|0,0:3|1:0,0:0:0:0:
100,260,47169,2,0,P|80:220|60:128,1,120,4|0,0:3|1:0,0:0:0:0:
132,48,47928,6,0,P|184:60|272:52,1,120,4|0,0:3|1:0,0:0:0:0:
308,40,48498,1,2,0:0:0:0:
308,40,48688,2,0,L|392:36,1,60,4|2,0:3|3:2,0:0:0:0:
404,84,49067,2,0,P|412:124|412:156,1,60,0|2,1:0|3:2,0:0:0:0:
392,200,49447,6,0,L|392:332,1,120,4|0,0:3|1:0,0:0:0:0:
276,288,50207,2,0,L|276:168,1,120,4|0,0:3|1:0,0:0:0:0:
260,112,50776,6,0,P|296:120|396:108,1,120,2|2,0:0|0:0,0:0:0:0:
436,100,51346,2,0,L|464:224,1,120,0|4,1:0|0:3,0:0:0:0:
416,328,52105,2,0,L|344:320,1,60,0|2,1:0|0:0,0:0:0:0:
296,316,52485,6,0,P|241:306|156:312,1,120,4|0,0:3|1:0,0:0:0:0:
68,256,53245,2,0,P|28:208|20:136,1,120,4|0,0:3|1:0,0:0:0:0:
108,76,54004,6,0,L|236:64,1,120,4|0,0:3|1:0,0:0:0:0:
280,92,54574,1,2,0:0:0:0:
280,92,54764,2,0,P|308:149|316:154,1,60,4|2,0:3|0:0,0:0:0:0:
352,184,55143,2,0,P|323:241|316:246,1,60,0|2,1:0|0:0,0:0:0:0:
292,288,55523,5,4,0:3:0:0:
200,228,55903,2,0,L|64:220,2,120,0|4|0,1:0|3:0|1:0,0:0:0:0:
260,220,56852,6,0,P|272:160|280:88,1,120,2|2,0:0|0:0,0:0:0:0:
276,40,57422,1,0,1:0:0:0:
396,40,57802,2,0,L|408:116,1,60,4|0,0:3|0:0,0:0:0:0:
464,96,58181,2,0,L|448:180,1,60,0|2,1:0|0:0,0:0:0:0:
468,212,58561,6,0,P|404:212|344:256,1,120,4|0,0:3|1:0,0:0:0:0:
252,304,59321,2,0,L|184:288,1,60,4|4,0:3|0:3,0:0:0:0:
136,284,59700,2,0,P|120:264|116:220,1,60,0|4,1:0|0:3,0:0:0:0:
140,176,60080,6,0,P|144:112|136:48,1,120,4|0,0:3|0:0,0:0:0:0:
256,28,60840,1,0,0:0:0:0:
376,48,61219,1,8,0:0:0:0:
360,172,61599,5,4,3:2:0:0:
256,192,61694,12,0,64637,0:0:0:0:
