osu file format v14

[General]
AudioFilename: audio.mp3
AudioLeadIn: 0
PreviewTime: 12232
Countdown: 0
SampleSet: Soft
StackLeniency: 0.6
Mode: 0
LetterboxInBreaks: 0
WidescreenStoryboard: 0

[Editor]
DistanceSpacing: 1.2
BeatDivisor: 4
GridSize: 4
TimelineZoom: 1

[Metadata]
Title:Bounce Bounce
TitleUnicode:Bounce Bounce
Artist:3R2
ArtistUnicode:3R2
Creator:Nozhomi
Version:Hard
Source:Rabi-Ribi
Tags:ăƒ©ăƒ“-ăƒȘビ RabiRibi Original Soundtrack kano-bi CreSpirit Animen Sekai Project Plurk GemaYue Erina Xinely
BeatmapID:1175090
BeatmapSetID:551125

[Difficulty]
HPDrainRate:5
CircleSize:4
OverallDifficulty:6.5
ApproachRate:7.5
SliderMultiplier:1.6
SliderTickRate:1

[Events]
//Background and Video events
0,0,"Rabi-Ribi_2.jpg",0,0
//Break Periods
//Storyboard Layer 0 (Background)
//Storyboard Layer 1 (Fail)
//Storyboard Layer 2 (Pass)
//Storyboard Layer 3 (Foreground)
//Storyboard Sound Samples

[TimingPoints]
840,379.746835443038,4,2,1,40,1,0
25143,-83.3333333333333,4,2,1,50,0,0
36726,-83.3333333333333,4,2,1,30,0,0
36915,-83.3333333333333,4,2,1,40,0,0
37105,-83.3333333333333,4,2,1,45,0,0
37295,-100,4,2,1,50,0,0
60270,-100,4,2,1,40,0,0
61599,-100,4,2,1,50,0,0
63118,-100,4,2,1,45,0,0
63877,-100,4,2,1,40,0,0
64257,-100,4,2,1,35,0,0
64637,-100,4,2,1,30,0,0

[Colours]
Combo1 : 228,158,14
Combo2 : 136,163,44
Combo3 : 238,115,170
Combo4 : 84,209,41

[HitObjects]
64,272,840,5,4,3:0:0:0:
240,200,1219,2,0,L|328:208,1,80,4|0,0:3|0:0,0:0:0:0:
404,164,1599,1,4,0:3:0:0:
248,276,1979,2,0,L|168:268,1,80,4|0,0:3|0:0,0:0:0:0:
88,216,2358,5,4,0:3:0:0:
200,60,2738,1,4,0:3:0:0:
256,136,2928,1,0,0:0:0:0:
312,60,3118,2,0,P|350:50|388:60,1,80,4|2,0:3|0:0,0:0:0:0:
468,112,3498,2,0,P|493:142|500:181,1,80,4|2,0:3|0:0,0:0:0:0:
472,272,3877,5,4,0:3:0:0:
284,312,4257,2,0,L|168:300,1,80,4|0,0:3|0:0,0:0:0:0:
132,240,4636,1,4,0:3:0:0:
228,72,5017,2,0,L|307:80,1,80,4|0,0:3|0:0,0:0:0:0:
380,144,5396,5,4,0:3:0:0:
216,240,5776,1,4,0:3:0:0:
136,188,5965,1,0,0:0:0:0:
130,282,6156,2,0,P|154:314|189:332,1,80,4|2,0:3|0:0,0:0:0:0:
242,336,6441,1,4,0:3:0:0:
242,336,6536,2,0,P|282:316|306:280,1,80,4|2,0:3|0:0,0:0:0:0:
304,192,6915,5,4,0:3:0:0:
256,108,7105,1,2,0:0:0:0:
207,192,7295,2,0,P|169:199|130:191,1,80,0|0,1:0|0:0,0:0:0:0:
52,136,7675,1,4,0:3:0:0:
140,96,7865,1,2,0:0:0:0:
130,191,8055,2,0,L|138:283,1,80,0|0,1:0|0:0,0:0:0:0:
208,332,8434,5,4,0:3:0:0:
256,248,8624,1,2,0:0:0:0:
304,332,8814,2,0,P|344:344|404:332,1,80,0|0,1:0|0:0,0:0:0:0:
460,284,9194,2,0,P|472:244|460:183,1,80,4|2,0:3|0:0,0:0:0:0:
412,128,9574,2,0,P|372:116|311:128,1,80,0|2,1:0|0:0,0:0:0:0:
256,176,9953,5,4,0:3:0:0:
178,119,10143,1,2,0:0:0:0:
164,212,10333,2,0,P|152:256|104:292,1,80,0|0,1:0|0:0,0:0:0:0:
36,308,10713,1,4,0:3:0:0:
56,212,10903,1,2,0:0:0:0:
32,120,11093,2,0,B|24:80|24:80|32:40,1,80,0|0,1:0|0:0,0:0:0:0:
120,80,11472,5,4,3:0:0:0:
352,108,12232,2,0,L|356:160,3,40,0|0|0|0,1:0|1:0|1:0|1:0,0:0:0:0:
400,164,12612,2,0,L|404:216,3,40,0|0|0|0,1:0|1:0|1:0|1:0,0:0:0:0:
428,244,12991,5,4,3:0:0:0:
336,320,13181,1,0,0:0:0:0:
336,320,13371,2,0,L|244:312,1,80,0|0,1:0|0:0,0:0:0:0:
192,240,13751,1,4,0:3:0:0:
156,328,13941,1,2,0:0:0:0:
96,256,14131,1,0,1:0:0:0:
132,168,14321,1,0,0:0:0:0:
192,240,14510,5,4,0:3:0:0:
256,140,14700,2,0,L|256:96,2,40,0|0|0,0:0|0:0|1:0,0:0:0:0:
316,216,15080,1,0,0:0:0:0:
392,192,15270,2,0,B|432:184|432:184|470:191,1,80,4|2,0:3|0:0,0:0:0:0:
316,216,15650,2,0,B|283:237|283:237|260:271,1,80,0|2,1:0|0:0,0:0:0:0:
216,356,16029,5,4,0:3:0:0:
168,256,16219,1,0,0:0:0:0:
168,256,16409,2,0,L|172:164,1,80,0|0,1:0|0:0,0:0:0:0:
164,80,16789,1,4,0:3:0:0:
84,132,16979,1,2,0:0:0:0:
171,176,17169,1,0,1:0:0:0:
256,132,17359,1,0,0:0:0:0:
276,40,17548,5,4,0:3:0:0:
164,80,17738,1,2,0:0:0:0:
256,132,17928,2,0,L|348:120,1,80,0|0,1:0|0:0,0:0:0:0:
424,164,18308,2,0,L|463:169,3,40,4|0|2|0,0:3|0:0|0:0|0:0,0:0:0:0:
496,208,18688,1,0,1:0:0:0:
428,276,18877,1,0,0:0:0:0:
352,220,19067,5,4,0:3:0:0:
256,288,19257,1,0,0:0:0:0:
256,289,19447,2,0,L|176:284,1,80,0|0,1:0|0:0,0:0:0:0:
96,232,19827,1,4,0:3:0:0:
92,328,20017,1,2,0:0:0:0:
176,284,20207,1,0,1:0:0:0:
184,188,20397,1,0,0:0:0:0:
96,232,20586,5,4,0:3:0:0:
43,123,20776,2,0,L|24:72,2,40,0|0|0,0:0|0:0|1:0,0:0:0:0:
136,144,21156,1,0,0:0:0:0:
224,107,21346,2,0,P|263:103|303:108,1,80,4|2,0:3|0:0,0:0:0:0:
224,200,21726,2,0,P|263:204|303:199,1,80,0|2,1:0|0:0,0:0:0:0:
388,152,22105,5,4,0:3:0:0:
396,272,22295,1,0,0:0:0:0:
396,272,22485,2,0,P|396:312|428:376,1,80,0|0,1:0|0:0,0:0:0:0:
488,296,22865,1,4,0:3:0:0:
460,204,23055,1,2,0:0:0:0:
396,272,23245,1,0,1:0:0:0:
328,204,23435,1,0,0:0:0:0:
392,132,23624,5,4,0:3:0:0:
316,40,23814,1,2,0:0:0:0:
236,96,24004,2,0,P|196:103|157:98,1,80,0|0,1:0|0:0,0:0:0:0:
68,64,24384,1,4,0:3:0:0:
112,168,24574,1,2,0:0:0:0:
112,168,24669,1,0,0:0:0:0:
112,168,24764,2,0,P|146:182|199:181,1,80,0|0,1:0|0:0,0:0:0:0:
312,160,25143,5,4,0:3:0:0:
424,188,25333,1,0,0:0:0:0:
424,188,25428,1,0,0:0:0:0:
424,188,25523,2,0,P|436:233|424:279,1,95.9999970703126,0|0,1:0|0:0,0:0:0:0:
344,364,25903,1,4,0:3:0:0:
256,288,26093,1,2,0:0:0:0:
168,364,26283,1,0,1:0:0:0:
88,279,26473,1,0,0:0:0:0:
176,204,26662,5,4,0:3:0:0:
256,288,26852,2,0,L|256:340,2,47.9999985351563,0|0|0,0:0|0:0|1:0,0:0:0:0:
336,204,27232,1,0,0:0:0:0:
312,92,27422,2,0,P|308:46|336:4,1,95.9999970703126,4|2,0:3|0:0,0:0:0:0:
200,92,27802,2,0,P|203:46|176:4,1,95.9999970703126,0|2,1:0|0:0,0:0:0:0:
88,76,28181,5,4,0:3:0:0:
184,184,28371,1,0,0:0:0:0:
184,184,28466,1,0,0:0:0:0:
184,184,28561,2,0,L|316:172,1,95.9999970703126,0|0,1:0|0:0,0:0:0:0:
374,108,28941,1,4,0:3:0:0:
279,175,29131,1,2,0:0:0:0:
384,224,29321,1,0,1:0:0:0:
374,108,29511,1,0,0:0:0:0:
476,156,29700,5,4,0:3:0:0:
492,272,29890,1,2,0:0:0:0:
384,312,30080,2,0,P|341:301|301:251,1,95.9999970703126,0|0,1:0|0:0,0:0:0:0:
208,204,30460,2,0,P|188:230|164:245,3,47.9999985351563,4|0|2|0,0:3|0:0|0:0|0:0,0:0:0:0:
132,260,30840,1,0,1:0:0:0:
24,216,31029,1,0,0:0:0:0:
116,116,31219,5,4,0:3:0:0:
183,246,31409,1,0,0:0:0:0:
183,246,31504,1,0,0:0:0:0:
183,246,31599,2,0,B|179:362,1,95.9999970703126,0|0,1:0|0:0,0:0:0:0:
284,296,31979,1,4,0:3:0:0:
332,192,32169,1,2,0:0:0:0:
284,88,32359,1,0,1:0:0:0:
386,35,32549,1,0,0:0:0:0:
488,88,32738,5,4,0:3:0:0:
468,220,32928,2,0,L|476:272,2,47.9999985351563,0|0|0,0:0|0:0|1:0,0:0:0:0:
384,140,33308,1,0,0:0:0:0:
280,192,33498,2,0,P|228:212|168:208,1,95.9999970703126,4|2,0:3|0:0,0:0:0:0:
248,112,33877,2,0,P|192:113|137:88,1,95.9999970703126,0|2,1:0|0:0,0:0:0:0:
248,28,34257,5,4,0:3:0:0:
336,148,34447,1,0,0:0:0:0:
336,148,34542,1,0,0:0:0:0:
336,148,34637,2,0,L|332:252,1,95.9999970703126,0|0,1:0|0:0,0:0:0:0:
264,366,35017,1,4,0:3:0:0:
208,265,35207,1,2,0:0:0:0:
168,372,35397,1,0,1:0:0:0:
112,271,35587,1,0,0:0:0:0:
140,140,35776,5,4,3:3:0:0:
24,184,35966,1,0,0:0:0:0:
112,271,36156,2,0,L|239:263,1,95.9999970703126,0|4,0:0|3:0,0:0:0:0:
312,316,36536,1,2,0:0:0:0:
404,247,36726,2,0,P|427:244|451:247,3,47.9999985351563,0|0|0|0,1:0|1:0|1:0|1:0,0:0:0:0:
492,272,37105,1,0,1:0:0:0:
404,340,37295,5,4,0:3:0:0:
404,340,37485,2,0,L|316:332,1,80,2|0,0:0|1:0,0:0:0:0:
232,352,37865,1,0,0:0:0:0:
232,352,38055,2,0,L|152:344,1,80,4|0,0:3|0:0,0:0:0:0:
72,296,38434,1,0,1:0:0:0:
152,244,38624,1,0,0:0:0:0:
64,204,38814,5,4,0:3:0:0:
140,120,39004,2,0,P|164:96|216:84,1,80,2|0,0:0|1:0,0:0:0:0:
256,168,39384,1,0,0:0:0:0:
304,83,39574,2,0,P|343:92|372:120,1,80,4|0,0:3|0:0,0:0:0:0:
396,212,39953,2,0,L|388:304,1,80,0|0,1:0|0:0,0:0:0:0:
300,328,40333,5,4,0:3:0:0:
256,228,40523,2,0,L|263:149,1,80,2|0,0:0|1:0,0:0:0:0:
283,61,40903,1,0,0:0:0:0:
283,61,41093,2,0,P|244:68|204:61,1,80,4|0,0:3|0:0,0:0:0:0:
119,21,41472,1,0,1:0:0:0:
126,117,41662,1,0,0:0:0:0:
205,62,41852,5,4,0:3:0:0:
227,157,42042,1,2,0:0:0:0:
126,117,42232,1,0,1:0:0:0:
104,212,42422,1,2,0:0:0:0:
219,305,42612,2,0,L|207:201,1,80,4|2,0:3|0:0,0:0:0:0:
307,305,42991,2,0,L|316:225,1,80,0|2,1:0|0:0,0:0:0:0:
263,125,43371,5,4,0:3:0:0:
372,152,43561,2,0,P|412:160|452:152,1,80,2|0,0:0|1:0,0:0:0:0:
448,56,43941,1,0,0:0:0:0:
448,56,44131,2,0,P|408:48|368:56,1,80,4|0,0:3|0:0,0:0:0:0:
288,104,44510,1,0,1:0:0:0:
228,176,44700,1,0,0:0:0:0:
144,128,44890,5,4,0:3:0:0:
156,224,45080,2,0,L|148:312,1,80,2|0,0:0|1:0,0:0:0:0:
64,348,45460,1,0,0:0:0:0:
68,252,45650,2,0,L|60:172,1,80,4|0,0:3|0:0,0:0:0:0:
156,224,46029,2,0,L|148:144,1,80,0|0,1:0|0:0,0:0:0:0:
248,188,46409,5,4,0:3:0:0:
348,240,46599,2,0,L|432:236,1,80,2|0,0:0|1:0,0:0:0:0:
392,328,46979,1,0,0:0:0:0:
392,328,47169,2,0,L|312:324,1,80,4|0,0:3|0:0,0:0:0:0:
256,244,47548,1,0,1:0:0:0:
200,324,47738,1,0,0:0:0:0:
112,288,47928,6,0,P|72:304|16:316,2,80,4|2|0,0:3|0:0|1:0,0:0:0:0:
172,212,48498,1,2,0:0:0:0:
200,120,48688,1,4,0:3:0:0:
312,120,48878,1,2,3:2:0:0:
340,212,49067,1,0,1:0:0:0:
256,288,49257,1,2,3:2:0:0:
256,176,49447,5,4,0:3:0:0:
344,96,49637,1,2,0:0:0:0:
436,116,49827,2,0,L|444:184,2,40,0|0|0,1:0|0:0|0:0,0:0:0:0:
384,36,50207,2,0,P|344:24|305:35,1,80,4|0,0:3|0:0,0:0:0:0:
256,112,50586,1,0,1:0:0:0:
205,33,50776,1,2,0:0:0:0:
144,108,50966,5,4,0:3:0:0:
44,40,51156,1,2,0:0:0:0:
52,136,51346,2,0,L|48:184,2,40,0|0|0,1:0|0:0|0:0,0:0:0:0:
144,108,51726,2,0,L|152:188,1,80,4|0,0:3|0:0,0:0:0:0:
208,268,52105,1,0,1:0:0:0:
256,184,52294,1,2,0:0:0:0:
304,268,52484,5,4,0:3:0:0:
396,188,52675,1,2,0:0:0:0:
448,268,52865,2,0,P|468:272|512:268,2,40,0|0|0,1:0|0:0|0:0,0:0:0:0:
396,188,53245,2,0,B|386:149|386:149|395:110,1,80,4|0,0:3|0:0,0:0:0:0:
456,36,53624,1,0,1:0:0:0:
500,132,53814,1,2,0:0:0:0:
500,132,53909,1,0,0:0:0:0:
500,132,54004,5,4,0:3:0:0:
395,110,54194,1,2,0:0:0:0:
432,232,54384,1,0,1:0:0:0:
327,210,54574,1,2,0:0:0:0:
204,288,54764,2,0,P|188:244|196:196,1,80,4|2,0:3|0:0,0:0:0:0:
313,133,55143,2,0,P|328:169|326:209,1,80,0|2,1:0|0:0,0:0:0:0:
292,300,55523,5,4,0:3:0:0:
190,211,55713,1,2,0:0:0:0:
115,276,55903,2,0,P|118:295|127:313,2,40,0|0|0,1:0|0:0|0:0,0:0:0:0:
116,180,56283,2,0,L|124:88,1,80,4|0,0:3|0:0,0:0:0:0:
92,8,56662,1,0,1:0:0:0:
29,80,56852,1,2,0:0:0:0:
123,100,57042,5,4,0:3:0:0:
232,48,57232,1,2,0:0:0:0:
324,72,57422,2,0,P|344:72|380:60,2,40,0|0|0,1:0|0:0|0:0,0:0:0:0:
316,168,57802,2,0,P|358:169|412:148,1,80,4|0,0:3|0:0,0:0:0:0:
456,84,58181,1,0,1:0:0:0:
489,174,58370,1,2,0:0:0:0:
394,158,58560,5,4,0:3:0:0:
420,276,58751,1,2,0:0:0:0:
324,256,58941,2,0,L|284:258,2,40,0|0|0,1:0|0:0|0:0,0:0:0:0:
352,348,59321,2,0,L|265:354,1,80,4|4,0:3|0:3,0:0:0:0:
196,292,59700,1,0,1:0:0:0:
112,340,59889,1,4,0:3:0:0:
108,328,59984,1,0,0:0:0:0:
104,316,60079,5,4,0:3:0:0:
124,204,60270,2,0,L|127:160,2,40,2|2|0,0:0|0:0|0:0,0:0:0:0:
196,292,60650,2,0,L|200:332,2,40,2|2|0,0:0|0:0|0:0,0:0:0:0:
248,192,61029,2,0,L|252:152,2,40,2|2|0,0:0|0:0|0:0,0:0:0:0:
308,288,61409,1,2,0:0:0:0:
312,304,61504,1,2,0:0:0:0:
316,320,61599,5,4,3:2:0:0:
256,192,61694,12,0,64637,0:0:0:0:
