osu file format v14

[General]
AudioFilename: audio.mp3
AudioLeadIn: 0
PreviewTime: 12232
Countdown: 0
SampleSet: Soft
StackLeniency: 0.7
Mode: 0
LetterboxInBreaks: 0
WidescreenStoryboard: 0

[Editor]
DistanceSpacing: 1.5
BeatDivisor: 4
GridSize: 4
TimelineZoom: 1

[Metadata]
Title:Bounce Bounce
TitleUnicode:Bounce Bounce
Artist:3R2
ArtistUnicode:3R2
Creator:Nozhomi
Version:Bunny Extinction
Source:Rabi-Ribi
Tags:ăƒ©ăƒ“-ăƒȘビ RabiRibi Original Soundtrack kano-bi CreSpirit Animen Sekai Project Plurk GemaYue Erina Xinely
BeatmapID:1167438
BeatmapSetID:551125

[Difficulty]
HPDrainRate:6
CircleSize:4.6
OverallDifficulty:8.1
ApproachRate:9
SliderMultiplier:1.8
SliderTickRate:1

[Events]
//Background and Video events
0,0,"Rabi-Ribi_01.jpg",0,0
//Break Periods
//Storyboard Layer 0 (Background)
//Storyboard Layer 1 (Fail)
//Storyboard Layer 2 (Pass)
//Storyboard Layer 3 (Foreground)
//Storyboard Sound Samples

[TimingPoints]
840,379.746835443038,4,2,1,40,1,0
25143,-76.9230769230769,4,2,1,50,0,0
36726,-76.9230769230769,4,2,1,30,0,0
36915,-76.9230769230769,4,2,1,40,0,0
37105,-76.9230769230769,4,2,1,45,0,0
37295,-100,4,2,1,50,0,0
60270,-71.4285714285714,4,2,1,40,0,0
60650,-76.9230769230769,4,2,1,40,0,0
61029,-83.3333333333333,4,2,1,40,0,0
61409,-90.9090909090909,4,2,1,40,0,0
61599,-100,4,2,1,50,0,0
63118,-100,4,2,1,45,0,0
63877,-100,4,2,1,40,0,0
64257,-100,4,2,1,35,0,0
64637,-100,4,2,1,30,0,0

[Colours]
Combo1 : 228,158,14
Combo2 : 99,55,179
Combo3 : 238,115,170
Combo4 : 84,209,41

[HitObjects]
356,324,840,5,4,3:0:0:0:
332,192,1029,2,0,L|340:112,1,45,2|0,0:0|0:0,0:0:0:0:
336,80,1219,2,0,P|308:29|267:21,1,90,4|0,0:3|0:0,0:0:0:0:
128,84,1599,1,4,0:3:0:0:
216,188,1789,2,0,L|284:184,1,45,2|0,0:0|0:0,0:0:0:0:
288,250,1979,2,0,L|198:254,1,90,4|0,0:3|0:0,0:0:0:0:
48,316,2358,5,4,0:3:0:0:
116,200,2548,2,0,P|124:168|116:128,1,45,2|0,0:0|0:0,0:0:0:0:
112,88,2738,1,4,0:3:0:0:
256,140,2928,1,0,0:0:0:0:
384,96,3118,2,0,P|395:141|373:201,1,90,4|2,0:3|0:0,0:0:0:0:
128,288,3498,2,0,P|117:243|139:183,1,90,4|2,0:3|0:0,0:0:0:0:
256,76,3877,5,4,0:3:0:0:
256,212,4067,2,0,L|256:272,1,45,2|0,0:0|0:0,0:0:0:0:
324,268,4257,2,0,L|324:178,1,90,4|0,0:3|0:0,0:0:0:0:
176,112,4637,1,4,0:3:0:0:
176,264,4827,2,0,P|180:287|192:309,1,45,2|0,0:0|0:0,0:0:0:0:
245,349,5017,2,0,P|287:359|347:337,1,90,4|0,0:3|0:0,0:0:0:0:
460,248,5396,5,4,0:3:0:0:
376,144,5586,2,0,L|384:88,1,45,2|0,0:0|0:0,0:0:0:0:
424,44,5776,1,4,0:3:0:0:
500,176,5966,1,0,0:0:0:0:
352,216,6156,2,0,P|304:212|272:184,1,90,4|2,0:3|0:0,0:0:0:0:
256,160,6441,1,4,0:3:0:0:
238,185,6536,2,0,P|204:213|160:216,1,90,4|2,0:3|0:0,0:0:0:0:
56,68,6915,5,4,0:3:0:0:
192,36,7105,1,2,0:0:0:0:
192,36,7200,1,0,0:0:0:0:
192,36,7295,2,0,L|284:40,1,90,0|0,1:0|0:0,0:0:0:0:
416,132,7675,1,4,0:3:0:0:
300,204,7865,1,2,0:0:0:0:
300,204,7960,1,0,0:0:0:0:
300,204,8055,2,0,L|210:207,1,90,0|0,1:0|0:0,0:0:0:0:
72,292,8434,5,4,0:3:0:0:
112,164,8624,1,2,0:0:0:0:
112,164,8719,1,0,0:0:0:0:
112,164,8814,2,0,P|112:116|92:72,1,90,0|0,1:0|0:0,0:0:0:0:
136,228,9194,2,0,P|177:251|225:256,1,90,4|2,0:3|0:0,0:0:0:0:
376,228,9574,2,0,P|334:251|286:256,1,90,0|2,1:0|0:0,0:0:0:0:
256,80,9953,5,4,0:3:0:0:
129,138,10143,1,2,0:0:0:0:
129,138,10238,1,0,0:0:0:0:
129,138,10333,2,0,L|137:250,1,90,0|0,1:0|0:0,0:0:0:0:
256,340,10713,1,4,0:3:0:0:
376,227,10903,1,2,0:0:0:0:
376,227,10998,1,0,0:0:0:0:
376,227,11093,2,0,L|383:138,1,90,0|0,1:0|0:0,0:0:0:0:
500,276,11472,5,4,3:0:0:0:
392,304,12232,1,0,1:0:0:0:
363,318,12327,1,0,1:0:0:0:
331,318,12422,1,0,1:0:0:0:
303,302,12517,1,0,1:0:0:0:
285,275,12612,1,0,1:0:0:0:
281,243,12707,1,0,1:0:0:0:
289,212,12802,1,0,1:0:0:0:
291,180,12896,1,0,1:0:0:0:
276,152,12991,5,4,3:0:0:0:
172,236,13181,1,0,0:0:0:0:
172,236,13276,1,0,0:0:0:0:
172,236,13371,2,0,L|176:332,1,90,0|0,1:0|0:0,0:0:0:0:
289,212,13751,1,4,0:3:0:0:
280,76,13941,1,2,0:0:0:0:
136,152,14131,1,0,1:0:0:0:
272,144,14321,1,0,0:0:0:0:
424,240,14510,5,4,0:3:0:0:
332,340,14700,1,0,0:0:0:0:
332,340,14795,1,0,0:0:0:0:
332,340,14890,1,0,1:0:0:0:
289,212,15080,1,0,0:0:0:0:
140,276,15270,2,0,P|92:284|28:260,1,90,4|2,0:3|0:0,0:0:0:0:
52,109,15650,2,0,P|96:99|140:108,1,90,0|2,1:0|0:0,0:0:0:0:
256,248,16029,5,4,0:3:0:0:
296,124,16219,1,0,0:0:0:0:
296,124,16314,1,0,0:0:0:0:
296,124,16409,2,0,L|288:32,1,90,0|0,1:0|0:0,0:0:0:0:
140,108,16789,1,4,0:3:0:0:
172,240,16979,1,2,0:0:0:0:
296,124,17169,1,0,1:0:0:0:
328,256,17358,1,0,0:0:0:0:
208,116,17548,5,4,0:3:0:0:
240,247,17738,2,0,P|234:269|221:288,1,45,2|0,0:0|0:0,0:0:0:0:
116,340,17928,2,0,L|112:236,1,90,0|0,1:0|0:0,0:0:0:0:
163,122,18308,2,0,L|208:116,1,45,4|0,0:3|0:0,0:0:0:0:
112,72,18498,2,0,L|67:66,1,45,2|0,0:0|0:0,0:0:0:0:
180,52,18688,1,0,1:0:0:0:
104,172,18877,1,0,0:0:0:0:
240,308,19067,5,4,0:3:0:0:
356,236,19257,1,0,0:0:0:0:
356,236,19352,1,0,0:0:0:0:
355,236,19447,2,0,P|399:224|442:231,1,90,0|0,1:0|0:0,0:0:0:0:
292,172,19827,1,4,0:3:0:0:
276,36,20017,1,2,0:0:0:0:
160,148,20207,1,0,1:0:0:0:
292,172,20396,1,0,0:0:0:0:
172,40,20586,5,4,0:3:0:0:
76,132,20776,1,0,0:0:0:0:
76,132,20871,1,0,0:0:0:0:
76,132,20966,1,0,1:0:0:0:
108,292,21156,1,0,0:0:0:0:
216,196,21346,2,0,P|232:153|216:97,1,90,4|2,0:3|0:0,0:0:0:0:
192,272,21726,2,0,P|235:273|282:240,1,90,0|2,1:0|0:0,0:0:0:0:
92,212,22105,5,4,0:3:0:0:
152,344,22295,1,0,0:0:0:0:
152,344,22390,1,0,0:0:0:0:
152,344,22485,2,0,L|256:340,1,90,0|0,1:0|0:0,0:0:0:0:
348,216,22865,1,4,0:3:0:0:
242,340,23055,1,0,0:0:0:0:
258,208,23245,1,0,1:0:0:0:
332,348,23434,1,2,0:0:0:0:
412,284,23624,5,4,0:3:0:0:
379,128,23814,2,0,P|376:105|380:83,1,45,2|0,0:0|0:0,0:0:0:0:
492,64,24004,2,0,P|499:112|489:158,1,90,0|0,1:0|0:0,0:0:0:0:
348,216,24384,1,4,0:3:0:0:
208,156,24574,1,2,0:0:0:0:
208,156,24669,1,0,0:0:0:0:
208,156,24764,2,0,B|160:148|160:148|120:156,1,90,0|0,1:0|0:0,0:0:0:0:
233,335,25143,5,4,0:3:0:0:
355,223,25333,1,0,0:0:0:0:
355,223,25428,1,0,0:0:0:0:
355,223,25523,2,0,L|351:107,1,116.999994644165,0|0,1:0|0:0,0:0:0:0:
156,24,25903,1,4,0:3:0:0:
156,188,26093,1,2,0:0:0:0:
351,106,26283,1,0,1:0:0:0:
188,108,26472,1,0,0:0:0:0:
276,324,26662,5,4,0:3:0:0:
112,344,26852,1,0,0:0:0:0:
112,344,26947,1,0,0:0:0:0:
112,344,27042,1,0,1:0:0:0:
176,152,27232,1,0,0:0:0:0:
340,284,27422,2,0,P|392:280|356:228,1,116.999994644165,4|2,0:3|0:0,0:0:0:0:
172,283,27802,2,0,P|120:280|132:230,1,116.999994644165,0|2,1:0|0:0,0:0:0:0:
256,368,28181,5,4,0:3:0:0:
420,356,28371,1,0,0:0:0:0:
420,356,28466,1,0,0:0:0:0:
420,356,28561,2,0,P|467:304|473:249,1,116.999994644165,0|0,1:0|0:0,0:0:0:0:
432,52,28941,1,4,0:3:0:0:
328,176,29131,1,2,0:0:0:0:
80,52,29321,1,0,1:0:0:0:
184,176,29510,1,0,0:0:0:0:
256,24,29700,5,4,0:3:0:0:
124,136,29890,2,0,P|113:160|117:200,1,58.4999973220826,2|0,0:0|0:0,0:0:0:0:
256,264,30080,2,0,P|192:272|139:252,1,116.999994644165,0|0,1:0|0:0,0:0:0:0:
287,324,30460,2,0,P|260:337|232:340,1,58.4999973220826,4|0,0:3|0:0,0:0:0:0:
163,336,30650,2,0,P|123:324|100:307,1,58.4999973220826,2|0,0:0|0:0,0:0:0:0:
40,228,30840,1,0,1:0:0:0:
16,60,31029,1,0,0:0:0:0:
216,128,31219,5,4,0:3:0:0:
356,40,31409,1,0,0:0:0:0:
356,40,31504,1,0,0:0:0:0:
356,40,31599,2,0,B|376:76|376:76|368:160,1,116.999994644165,0|0,1:0|0:0,0:0:0:0:
256,332,31979,1,4,0:3:0:0:
392,240,32169,1,2,0:0:0:0:
120,240,32358,1,0,1:0:0:0:
256,148,32548,1,0,0:0:0:0:
448,276,32738,5,4,0:3:0:0:
488,116,32928,1,0,0:0:0:0:
488,116,33023,1,0,0:0:0:0:
488,116,33118,1,0,1:0:0:0:
352,208,33308,1,0,0:0:0:0:
204,56,33498,2,0,B|164:44|164:44|136:68|64:80,1,116.999994644165,4|2,0:3|0:0,0:0:0:0:
308,56,33877,2,0,B|348:44|348:44|376:68|416:73,1,116.999994644165,0|2,1:0|0:0,0:0:0:0:
256,212,34257,5,4,0:3:0:0:
128,316,34447,1,0,0:0:0:0:
128,316,34542,1,0,0:0:0:0:
128,316,34637,2,0,P|92:248|96:208,1,116.999994644165,0|0,1:0|0:0,0:0:0:0:
196,24,35017,1,4,0:3:0:0:
184,188,35207,1,2,0:0:0:0:
316,24,35396,1,0,1:0:0:0:
328,188,35586,1,0,0:0:0:0:
112,100,35776,5,4,3:3:0:0:
136,260,35966,2,0,L|192:276,1,58.4999973220826
322,296,36156,2,0,P|344:243|328:188,1,116.999994644165,0|4,0:0|3:0,0:0:0:0:
188,100,36536,1,2,0:0:0:0:
68,212,36726,1,0,1:0:0:0:
52,249,36821,1,0,1:0:0:0:
58,288,36915,1,0,1:0:0:0:
81,321,37010,1,0,1:0:0:0:
118,336,37105,1,0,1:0:0:0:
158,328,37200,1,0,1:0:0:0:
181,307,37295,5,4,0:3:0:0:
148,148,37485,1,2,0:0:0:0:
256,228,37675,1,0,1:0:0:0:
272,92,37865,1,0,0:0:0:0:
176,224,38055,1,4,0:3:0:0:
296,164,38245,1,0,0:0:0:0:
180,52,38434,2,0,L|90:58,1,90,0|0,1:0|0:0,0:0:0:0:
24,176,38814,5,4,0:3:0:0:
112,280,39004,1,2,0:0:0:0:
176,160,39194,1,0,1:0:0:0:
212,292,39384,1,0,0:0:0:0:
256,136,39574,1,4,0:3:0:0:
300,292,39764,1,0,0:0:0:0:
336,159,39953,2,0,P|375:146|423:145,1,90,0|0,1:0|0:0,0:0:0:0:
400,280,40333,5,4,0:3:0:0:
256,204,40523,1,2,0:0:0:0:
324,88,40713,1,0,1:0:0:0:
188,88,40903,1,0,0:0:0:0:
256,236,41093,1,4,0:3:0:0:
256,100,41283,1,0,0:0:0:0:
136,208,41472,2,0,L|140:312,1,90,0|0,1:0|0:0,0:0:0:0:
373,297,41852,5,4,0:3:0:0:
373,297,42042,1,2,0:0:0:0:
468,164,42232,1,0,1:0:0:0:
468,164,42422,1,2,0:0:0:0:
344,32,42612,1,4,0:3:0:0:
324,212,42802,1,2,0:0:0:0:
128,100,42991,1,0,1:0:0:0:
344,32,43181,1,2,0:0:0:0:
236,160,43371,5,4,0:3:0:0:
304,308,43561,1,2,0:0:0:0:
172,276,43751,1,0,1:0:0:0:
296,228,43941,1,0,0:0:0:0:
184,344,44131,1,4,0:3:0:0:
160,208,44321,1,0,0:0:0:0:
304,308,44510,2,0,P|346:292|371:250,1,90,0|0,1:0|0:0,0:0:0:0:
380,120,44890,5,4,0:3:0:0:
228,220,45080,1,2,0:0:0:0:
208,88,45270,1,0,1:0:0:0:
312,172,45460,1,0,0:0:0:0:
324,12,45650,1,4,0:3:0:0:
208,88,45840,1,0,0:0:0:0:
340,180,46029,2,0,L|444:172,1,90,0|0,1:0|0:0,0:0:0:0:
392,304,46409,5,4,0:3:0:0:
264,192,46599,1,2,0:0:0:0:
239,329,46789,1,0,1:0:0:0:
131,239,46979,1,0,0:0:0:0:
291,267,47169,1,4,0:3:0:0:
184,177,47358,1,0,0:0:0:0:
159,315,47548,2,0,P|118:318|66:284,1,90,0|0,1:0|0:0,0:0:0:0:
20,76,47928,5,4,0:3:0:0:
192,24,48118,1,2,0:0:0:0:
160,192,48308,1,0,1:0:0:0:
105,50,48498,1,2,0:0:0:0:
264,136,48688,1,4,0:3:0:0:
440,108,48877,1,2,3:2:0:0:
264,248,49067,1,0,1:0:0:0:
440,276,49257,1,2,3:2:0:0:
212,192,49447,5,4,0:3:0:0:
60,248,49637,1,2,0:0:0:0:
84,116,49827,1,0,1:0:0:0:
84,116,49922,1,0,0:0:0:0:
84,116,50017,1,0,0:0:0:0:
172,252,50207,2,0,P|214:264|256:249,1,90,4|0,0:3|0:0,0:0:0:0:
320,132,50586,1,0,1:0:0:0:
316,108,50681,1,0,0:0:0:0:
312,84,50776,1,2,0:0:0:0:
308,60,50871,1,0,0:0:0:0:
304,36,50966,5,4,0:3:0:0:
160,112,51156,1,2,0:0:0:0:
260,216,51346,1,0,1:0:0:0:
260,216,51441,1,0,0:0:0:0:
260,216,51536,1,0,0:0:0:0:
384,112,51726,2,0,P|428:99|484:120,1,90,4|0,0:3|0:0,0:0:0:0:
469,274,52105,1,0,1:0:0:0:
448,282,52200,1,0,0:0:0:0:
426,284,52295,1,2,0:0:0:0:
404,281,52390,1,0,0:0:0:0:
384,272,52485,5,4,0:3:0:0:
256,168,52675,1,2,0:0:0:0:
152,256,52865,1,0,1:0:0:0:
128,252,52960,1,0,0:0:0:0:
104,248,53055,1,0,0:0:0:0:
268,244,53245,2,0,P|272:296|264:340,1,90,4|0,0:3|0:0,0:0:0:0:
216,188,53624,1,0,1:0:0:0:
212,164,53719,1,0,0:0:0:0:
212,140,53814,1,2,0:0:0:0:
216,116,53909,1,0,0:0:0:0:
224,96,54004,5,4,0:3:0:0:
328,12,54194,1,2,0:0:0:0:
426,169,54384,1,0,1:0:0:0:
426,169,54574,1,2,0:0:0:0:
316,312,54764,1,4,0:3:0:0:
212,164,54953,1,2,0:0:0:0:
96,356,55143,1,0,1:0:0:0:
316,312,55333,1,2,0:0:0:0:
164,252,55523,5,4,0:3:0:0:
288,148,55713,1,2,0:0:0:0:
168,100,55903,1,0,1:0:0:0:
168,100,55998,1,0,0:0:0:0:
168,100,56093,1,0,0:0:0:0:
236,248,56283,2,0,P|228:291|194:320,1,90,4|0,0:3|0:0,0:0:0:0:
84,208,56662,1,0,1:0:0:0:
88,184,56757,1,0,0:0:0:0:
92,160,56852,1,2,0:0:0:0:
96,136,56947,1,0,0:0:0:0:
100,112,57042,5,4,0:3:0:0:
76,272,57232,1,2,0:0:0:0:
196,208,57422,1,0,1:0:0:0:
220,204,57517,1,0,0:0:0:0:
244,208,57612,1,0,0:0:0:0:
388,284,57802,2,0,P|372:248|376:192,1,90,4|0,0:3|0:0,0:0:0:0:
476,72,58181,1,0,1:0:0:0:
464,91,58276,1,0,0:0:0:0:
448,107,58371,1,2,0:0:0:0:
429,119,58466,1,0,0:0:0:0:
408,127,58561,5,4,0:3:0:0:
256,68,58751,1,2,0:0:0:0:
140,136,58941,1,0,1:0:0:0:
116,140,59036,1,0,0:0:0:0:
92,136,59131,1,0,0:0:0:0:
248,180,59321,2,0,L|244:300,1,90,4|4,0:3|0:3,0:0:0:0:
352,148,59700,1,0,1:0:0:0:
352,126,59795,1,0,0:0:0:0:
351,103,59890,1,4,0:3:0:0:
350,81,59985,1,0,0:0:0:0:
349,58,60080,1,4,0:3:0:0:
144,116,60270,5,2,0:0:0:0:
144,116,60365,2,0,P|108:116|72:100,1,62.9999980773926,2|0,0:0|0:0,0:0:0:0:
200,224,60650,5,2,0:0:0:0:
200,224,60745,2,0,P|164:236|128:232,1,58.4999973220826,2|0,0:0|0:0,0:0:0:0:
328,264,61029,5,2,0:0:0:0:
328,264,61124,2,0,P|320:288|292:312,1,53.9999983520508,2|0,0:0|0:0,0:0:0:0:
432,180,61409,5,2,0:0:0:0:
440,192,61504,1,2,0:0:0:0:
448,204,61599,1,4,3:2:0:0:
256,192,61694,12,0,64637,0:0:0:0:
