osu file format v14

[General]
AudioFilename: audio.mp3
AudioLeadIn: 0
PreviewTime: 12232
Countdown: 0
SampleSet: Soft
StackLeniency: 0.7
Mode: 0
LetterboxInBreaks: 0
WidescreenStoryboard: 0

[Editor]
DistanceSpacing: 1
BeatDivisor: 2
GridSize: 4
TimelineZoom: 1

[Metadata]
Title:Bounce Bounce
TitleUnicode:Bounce Bounce
Artist:3R2
ArtistUnicode:3R2
Creator:Nozhomi
Version:Easy
Source:Rabi-Ribi
Tags:ăƒ©ăƒ“-ăƒȘビ RabiRibi Original Soundtrack kano-bi CreSpirit Animen Sekai Project Plurk GemaYue Erina Xinely
BeatmapID:1167564
BeatmapSetID:551125

[Difficulty]
HPDrainRate:2.5
CircleSize:2.8
OverallDifficulty:2.5
ApproachRate:3
SliderMultiplier:1
SliderTickRate:1

[Events]
//Background and Video events
0,0,"Rabi-Ribi_04.jpg",0,0
//Break Periods
//Storyboard Layer 0 (Background)
//Storyboard Layer 1 (Fail)
//Storyboard Layer 2 (Pass)
//Storyboard Layer 3 (Foreground)
//Storyboard Sound Samples

[TimingPoints]
840,379.746835443038,4,2,1,40,1,0
25143,-100,4,2,1,50,0,0
36726,-100,4,2,1,30,0,0
36915,-100,4,2,1,40,0,0
37105,-100,4,2,1,45,0,0
37295,-100,4,2,1,50,0,0
60270,-100,4,2,1,40,0,0
61599,-100,4,2,1,50,0,0
63118,-100,4,2,1,45,0,0
63877,-100,4,2,1,40,0,0
64257,-100,4,2,1,35,0,0
64637,-100,4,2,1,30,0,0

[Colours]
Combo1 : 228,158,14
Combo2 : 201,90,104
Combo3 : 84,209,41
Combo4 : 238,115,170

[HitObjects]
156,104,840,6,0,P|116:192|157:280,1,200,4|4,3:0|0:3,0:0:0:0:
355,280,2358,2,0,P|395:192|356:104,1,200,4|4,0:3|0:3,0:0:0:0:
256,84,3498,1,4,0:3:0:0:
184,152,3877,6,0,L|192:360,1,200,4|4,0:3|0:3,0:0:0:0:
356,236,5396,2,0,B|378:138|378:138|345:44,1,200,4|4,0:3|0:3,0:0:0:0:
256,94,6536,1,4,0:3:0:0:
170,44,6915,6,0,P|121:32|74:44,1,100,4|0,0:3|1:0,0:0:0:0:
73,142,7675,2,0,P|121:155|170:143,1,100,4|0,0:3|1:0,0:0:0:0:
256,94,8434,2,0,L|264:216,1,100,4|0,0:3|1:0,0:0:0:0:
204,276,9194,1,4,0:3:0:0:
123,218,9574,1,0,1:0:0:0:
126,318,9953,6,0,P|152:350|210:365,1,100,4|0,0:3|1:0,0:0:0:0:
305,365,10713,2,0,P|353:354|386:318,1,100,4|0,0:3|1:0,0:0:0:0:
389,218,11472,1,4,3:0:0:0:
252,72,12232,1,0,1:0:0:0:
164,120,12612,1,0,1:0:0:0:
160,20,12991,5,4,3:0:0:0:
71,64,13371,2,0,P|64:160|135:224,1,200,0|0,1:0|1:0,0:0:0:0:
212,156,14510,1,4,0:3:0:0:
256,244,14890,1,0,1:0:0:0:
300,156,15270,2,0,P|348:144|396:155,1,100,4|0,0:3|1:0,0:0:0:0:
484,204,16029,5,4,0:3:0:0:
428,287,16409,2,0,P|332:304|256:244,1,200,0|0,1:0|1:0,0:0:0:0:
256,144,17548,1,4,0:3:0:0:
306,56,17928,1,0,1:0:0:0:
206,56,18308,2,0,B|168:56|168:56|96:80,1,100,4|0,0:3|1:0,0:0:0:0:
16,112,19067,5,4,0:3:0:0:
96,172,19447,2,0,B|164:188|164:188|304:164,1,200,0|0,1:0|1:0,0:0:0:0:
388,140,20586,1,4,0:3:0:0:
360,236,20966,1,0,1:0:0:0:
264,260,21346,2,0,L|165:276,1,100,4|0,0:3|1:0,0:0:0:0:
88,212,22105,5,4,0:3:0:0:
176,164,22485,2,0,P|264:130|359:171,1,200,0|0,1:0|1:0,0:0:0:0:
424,244,23624,1,4,0:3:0:0:
340,296,24004,2,0,L|224:288,1,100,0|4,1:0|0:3,0:0:0:0:
148,248,24763,1,0,1:0:0:0:
160,348,25143,5,4,0:3:0:0:
68,308,25523,2,0,P|49:263|58:204,2,100,0|4|0,1:0|0:3|1:0,0:0:0:0:
148,248,26662,1,4,0:3:0:0:
160,348,27042,1,0,1:0:0:0:
240,289,27422,2,0,L|244:185,1,100,4|0,0:3|1:0,0:0:0:0:
216,92,28181,5,4,0:3:0:0:
315,107,28561,2,0,P|365:111|412:96,2,100,0|4|0,1:0|0:3|1:0,0:0:0:0:
256,28,29700,1,4,0:3:0:0:
197,107,30080,2,0,P|147:111|100:96,1,100,0|4,1:0|0:3,0:0:0:0:
20,36,30839,1,0,1:0:0:0:
8,136,31219,5,4,0:3:0:0:
88,196,31599,2,0,L|72:308,2,100,0|4|0,1:0|0:3|1:0,0:0:0:0:
100,96,32738,1,4,0:3:0:0:
180,156,33118,1,0,1:0:0:0:
260,96,33498,2,0,P|307:83|355:95,1,100,4|0,0:3|1:0,0:0:0:0:
444,144,34257,5,4,0:3:0:0:
404,236,34637,2,0,L|412:340,2,100,0|4|0,1:0|0:3|1:0,0:0:0:0:
332,168,35776,1,4,3:3:0:0:
256,230,36156,2,0,B|213:205|213:205|180:168,1,100,2|0,0:0|0:0,0:0:0:0:
256,104,36916,1,0,1:0:0:0:
332,168,37295,6,0,P|405:179|474:151,2,150,4|0|0,0:3|0:0|1:0,0:0:0:0:
256,232,38814,2,0,P|289:282|391:322,2,150,4|0|0,0:3|0:0|1:0,0:0:0:0:
156,220,40333,6,0,P|143:280|187:380,2,150,4|0|0,0:3|0:0|1:0,0:0:0:0:
216,140,41852,2,0,L|315:130,1,100,4|0,0:3|1:0,0:0:0:0:
356,223,42612,2,0,L|256:232,1,100,4|0,0:3|1:0,0:0:0:0:
156,220,43371,6,0,P|118:156|132:84,2,150,4|0|0,0:3|0:0|1:0,0:0:0:0:
256,204,44890,2,0,L|256:54,2,150,4|0|0,0:3|0:0|1:0,0:0:0:0:
355,220,46409,6,0,P|393:156|379:84,2,150,4|0|0,0:3|0:0|1:0,0:0:0:0:
256,204,47928,2,0,P|207:192|159:204,1,100,4|0,0:3|1:0,0:0:0:0:
159,304,48688,2,0,P|207:316|256:304,1,100,4|0,0:3|1:0,0:0:0:0:
336,248,49447,6,0,L|356:80,2,150,4|0|0,0:3|0:0|1:0,0:0:0:0:
256,188,50966,2,0,L|256:38,2,150,4|0|0,0:3|0:0|1:0,0:0:0:0:
176,248,52485,6,0,L|156:80,2,150,4|0|0,0:3|0:0|1:0,0:0:0:0:
132,336,54004,2,0,P|93:299|77:238,1,100,4|0,0:3|1:0,0:0:0:0:
84,156,54764,1,4,0:3:0:0:
172,208,55143,1,0,1:0:0:0:
240,132,55523,6,0,P|304:112|396:144,2,150,4|0|0,0:3|0:0|1:0,0:0:0:0:
160,192,57042,2,0,B|116:192|87:207|87:207|56:192|14:192,2,150,4|0|0,0:3|0:0|1:0,0:0:0:0:
240,252,58561,6,0,P|304:272|396:240,2,150,4|0|0,0:3|0:0|1:0,0:0:0:0:
206,158,60080,2,0,B|194:111|194:111|206:61,1,100,4|0,0:3|0:0,0:0:0:0:
306,61,60840,2,0,B|318:111|318:111|306:158,1,100,0|0,0:0|0:0,0:0:0:0:
256,244,61599,5,4,3:2:0:0:
256,192,61789,12,0,64637,0:0:0:0:
