osu file format v14

[General]
AudioFilename: audio.mp3
AudioLeadIn: 0
PreviewTime: 41167
Countdown: 0
SampleSet: Soft
StackLeniency: 0.7
Mode: 2
LetterboxInBreaks: 0
WidescreenStoryboard: 1

[Editor]
DistanceSpacing: 1.4
BeatDivisor: 4
GridSize: 4
TimelineZoom: 1.9

[Metadata]
Title:Adventure Starts Here
TitleUnicode:Adventure Starts Here
Artist:3R2
ArtistUnicode:3R2
Creator:Myxo
Version:Nely's Platter
Source:Rabi-Ribi
Tags:xinely instrumental video game folk rabi ribi original soundtrack ost ăƒ©ăƒ“-ăƒȘビ starting forest
BeatmapID:2675712
BeatmapSetID:1285524

[Difficulty]
HPDrainRate:4
CircleSize:3.5
OverallDifficulty:7.5
ApproachRate:7.5
SliderMultiplier:1.7
SliderTickRate:2

[Events]
//Background and Video events
0,0,"rabiribi-screenshot-10.jpg",0,0
//Break Periods
//Storyboard Layer 0 (Background)
//Storyboard Layer 1 (Fail)
//Storyboard Layer 2 (Pass)
//Storyboard Layer 3 (Foreground)
//Storyboard Layer 4 (Overlay)
//Storyboard Sound Samples

[TimingPoints]
888,419.58041958042,4,2,0,45,1,0
14314,-100,4,2,0,55,0,0
21237,-90.9090909090909,4,2,0,55,0,0
23755,-100,4,2,0,55,0,0
34664,-90.9090909090909,4,2,0,55,0,0
37181,-100,4,2,0,55,0,0

[Colours]
Combo1 : 179,151,213
Combo2 : 125,218,112
Combo3 : 186,186,205
Combo4 : 90,159,83

[HitObjects]
93,253,888,5,2,0:2:0:0:
273,258,1307,1,0,0:2:0:0:
93,253,1517,2,0,P|43:193|127:139,1,170,2|0,0:2|0:2,0:2:0:0:
195,131,2146,1,0,0:2:0:0:
379,128,2356,6,0,P|421:202|361:242,1,170,2|2,0:2|0:2,0:2:0:0:
268,245,2985,1,0,0:2:0:0:
83,242,3195,2,0,L|87:155,1,85,2|0,0:2|0:2,0:2:0:0:
205,160,3615,2,0,L|203:276,1,85,2|0,0:2|0:2,0:2:0:0:
83,242,4034,1,2,0:2:0:0:
278,251,4244,5,2,0:2:0:0:
83,242,4664,1,0,0:2:0:0:
272,251,4874,2,0,P|312:191|254:119,1,170,2|0,0:2|0:2,0:2:0:0:
174,131,5503,1,0,0:2:0:0:
357,131,5713,6,0,L|515:248,1,170,2|2,0:2|0:2,0:2:0:0:
301,288,6342,2,0,L|189:292,1,85,2|0,0:3|0:0,0:2:0:0:
87,279,6762,2,0,L|86:182,1,85,2|8,0:3|0:2,0:0:0:0:
205,159,7181,2,0,L|291:156,1,85,8|0,0:2|0:2,0:2:0:0:
109,160,7601,5,2,3:2:0:0:
289,156,8020,1,0,0:2:0:0:
94,163,8230,2,0,P|48:234|98:289,1,170,2|2,0:2|0:2,0:2:0:0:
204,298,8860,1,0,0:2:0:0:
397,281,9069,2,0,L|291:279,1,85,2|0,0:2|3:2,0:2:0:0:
190,198,9489,6,0,L|285:197,1,85,2|0,0:2|0:2,0:2:0:0:
470,196,9908,2,0,L|468:83,1,85,2|0,0:2|3:2,0:2:0:0:
367,110,10328,2,0,L|282:113,2,85,2|0|2,0:2|0:2|0:2,0:2:0:0:
187,117,10957,5,2,3:2:0:0:
312,111,11377,1,0,0:2:0:0:
119,122,11587,2,0,L|124:217,1,85,2|0,0:2|3:2,0:2:0:0:
202,241,12006,1,2,0:2:0:0:
89,249,12216,1,0,3:2:0:0:
273,180,12426,6,0,L|459:172,1,170,2|8,3:2|0:2,0:2:0:0:
508,204,13055,1,8,0:2:0:0:
506,280,13265,1,2,1:2:0:0:
431,307,13475,1,2,1:2:0:0:
316,307,13685,1,10,0:2:0:0:
482,301,13894,1,2,1:2:0:0:
511,329,13999,1,0,1:2:0:0:
483,356,14104,1,10,0:2:0:0:
194,352,14314,6,0,P|136:315|203:276,1,170,6|0,0:2|1:2,0:2:0:0:
283,278,14943,1,2,0:2:0:0:
97,254,15153,2,0,P|45:184|106:142,1,170,2|2,0:2|1:2,0:2:0:0:
289,110,15783,6,0,P|233:144|123:98,1,170,2|2,0:2|0:2,0:2:0:0:
330,164,16622,1,2,0:0:0:0:
128,193,17041,2,0,L|38:186,2,85,2|2|2,0:2|1:3|0:2,0:0:0:0:
421,273,17671,6,0,P|469:196|419:152,1,170,2|2,0:2|1:2,0:2:0:0:
198,156,18510,2,0,P|148:216|198:276,1,170,2|2,0:2|1:2,0:2:0:0:
392,269,19139,2,0,L|477:268,1,85,2|0,0:2|0:2,0:2:0:0:
373,347,19559,6,0,L|280:343,1,85,2|0,0:2|1:2,0:2:0:0:
195,293,19978,2,0,L|197:189,1,85,2|0,0:2|0:2,0:2:0:0:
387,186,20398,2,0,L|506:189,2,85,10|10|2,0:2|1:2|0:2,0:0:0:0:
97,176,21027,5,6,0:2:0:0:
30,226,21237,1,2,0:2:0:0:
29,298,21447,1,0,1:2:0:0:
97,342,21657,1,2,0:2:0:0:
315,328,21867,2,0,P|378:286|305:229,1,187.000005706787,2|0,0:3|1:2,0:2:0:0:
128,228,22496,6,0,L|333:225,1,187.000005706787,2|2,0:0|0:2,0:2:0:0:
190,222,23125,2,0,L|96:218,2,93.5000028533936,0|2|2,1:2|0:2|0:3,0:0:0:0:
381,220,23755,2,0,L|496:219,2,85,2|2|2,0:2|1:2|0:2,0:0:0:0:
89,238,24384,6,0,P|31:189|90:152,1,170,2|2,0:2|1:2,0:2:0:0:
338,69,25223,2,0,L|159:69,1,170,2|2,0:2|1:2,0:2:0:0:
356,232,25853,2,0,P|407:156|335:122,1,170,2|0,0:2|0:2,0:2:0:0:
245,129,26482,1,0,1:2:0:0:
352,190,26692,6,0,L|476:182,2,85,2|2|2,0:2|0:2|1:2,0:2:0:0:
172,190,27321,1,2,1:2:0:0:
172,190,27531,1,2,1:2:0:0:
454,275,27741,6,0,P|507:217|418:171,1,170,6|0,0:2|1:2,0:2:0:0:
373,161,28370,1,2,0:2:0:0:
192,166,28580,2,0,L|385:161,1,170,2|2,0:2|1:2,0:2:0:0:
177,249,29209,6,0,L|76:252,1,85,2|0,0:2|0:2,0:2:0:0:
202,334,29629,2,0,L|301:327,1,85,2|2,0:2|1:3,0:0:0:0:
105,197,30048,1,2,0:0:0:0:
327,183,30468,2,0,L|417:168,2,85,2|2|2,0:2|1:3|0:2,0:0:0:0:
55,195,31097,6,0,P|9:138|64:62,1,170,2|2,0:2|1:2,0:2:0:0:
137,62,31727,1,0,0:2:0:0:
326,58,31936,2,0,L|495:53,1,170,2|2,0:2|1:2,0:2:0:0:
305,131,32566,6,0,L|219:123,1,85,2|0,0:2|0:2,0:2:0:0:
335,216,32985,2,0,L|419:208,1,85,2|0,0:2|1:2,0:2:0:0:
306,298,33405,2,0,L|220:278,1,85,2|0,0:2|0:2,0:2:0:0:
394,334,33825,2,0,L|483:316,2,85,10|10|2,0:2|1:2|0:2,0:0:0:0:
96,321,34454,5,6,0:2:0:0:
182,255,34664,1,2,0:2:0:0:
186,152,34874,1,0,1:2:0:0:
94,111,35083,1,2,0:2:0:0:
299,103,35293,2,0,L|485:108,1,187.000005706787,2|0,0:3|1:2,0:2:0:0:
305,192,35922,6,0,P|214:184|183:104,1,187.000005706787,2|2,0:2|0:2,0:2:0:0:
299,96,36552,2,0,L|402:94,2,93.5000028533936,0|2|2,1:2|0:2|0:3,0:0:0:0:
115,106,37181,2,0,L|15:99,2,85,2|2|2,0:2|1:2|0:2,0:0:0:0:
387,130,37811,6,0,P|439:200|371:240,1,170,2|2,0:2|1:2,0:2:0:0:
150,245,38650,2,0,P|96:192|156:119,1,170,2|2,0:2|1:2,0:2:0:0:
329,128,39279,2,0,P|253:161|178:127,1,170,2|2,0:2|0:2,0:2:0:0:
358,226,40118,5,2,1:2:0:0:
460,225,40328,1,2,1:2:0:0:
343,226,40538,1,10,0:2:0:0:
452,224,40748,1,2,1:2:0:0:
482,180,40853,1,0,1:2:0:0:
440,147,40957,1,10,0:2:0:0:
155,216,41167,6,0,P|105:175|189:126,1,170,6|10,3:2|0:2,0:0:0:0:
275,115,41797,1,0,0:2:0:0:
80,224,42006,2,0,P|29:171|102:122,1,170,2|10,3:0|0:2,0:0:0:0:
273,219,42636,6,0,L|91:220,1,170,2|2,0:3|0:3,0:2:0:0:
184,222,43265,1,10,0:2:0:0:
360,225,43475,2,0,P|415:184|347:142,1,170,2|10,0:3|0:2,0:2:0:0:
166,127,44104,1,10,0:2:0:0:
121,155,44209,1,2,0:2:0:0:
163,193,44314,1,2,0:3:0:0:
455,192,44524,6,0,L|285:196,1,170,2|10,3:2|0:2,0:0:0:0:
97,192,45363,2,0,L|-4:191,2,85,2|10|8,3:2|0:2|0:2,0:0:0:0:
295,194,45992,2,0,L|397:188,1,85,2|2,0:2|3:2,0:0:0:0:
74,113,46622,6,0,L|76:221,1,85,10|0,0:2|0:2,0:2:0:0:
180,216,47041,2,0,L|280:213,1,85,2|10,3:2|0:2,0:0:0:0:
180,216,47461,2,0,L|178:111,1,85,10|0,0:2|0:2,0:2:0:0:
469,102,47881,6,0,L|276:96,1,170,2|8,3:2|0:2,0:0:0:0:
110,104,48510,2,0,L|279:96,1,170,2|10,0:2|0:2,0:2:0:0:
115,188,49139,2,0,L|109:99,1,85,10|2,0:2|0:2,0:0:0:0:
323,103,49769,6,0,L|443:98,2,85,2|10|2,0:2|0:2|0:2,0:2:0:0:
238,106,50398,1,0,3:2:0:0:
52,114,50608,1,2,1:2:0:0:
140,174,50818,1,0,1:2:0:0:
53,231,51027,1,0,1:2:0:0:
344,237,51237,5,4,3:2:0:0:
240,238,51447,2,0,L|154:233,2,85,2|10|2,0:2|1:2|0:3,0:0:0:0:
426,238,52076,2,0,L|518:217,2,85,2|10|10,3:2|0:2|1:2,0:0:0:0:
133,239,52706,6,0,P|77:183|140:131,1,170,2|2,0:3|0:2,0:2:0:0:
283,124,53335,1,10,1:2:0:0:
180,127,53545,1,2,0:3:0:0:
283,124,53755,1,2,3:2:0:0:
180,127,53964,2,0,L|79:130,1,85,10|10,0:2|1:2,0:0:0:0:
382,258,54384,6,0,L|201:248,1,170,2|2,0:3|0:2,0:0:0:0:
393,258,55013,2,0,L|486:237,2,85,10|2|10,1:2|0:3|1:2,0:0:0:0:
283,261,55643,1,10,0:2:0:0:
393,258,55853,1,10,1:2:0:0:
92,256,56062,5,14,1:2:0:0:
262,256,56482,1,0,1:2:0:0:
92,256,56901,1,0,1:2:0:0:
374,253,57321,1,8,1:2:0:0:
185,244,57531,1,8,1:2:0:0:
156,194,57636,1,0,1:2:0:0:
186,148,57741,1,2,0:3:0:0:
481,148,57950,5,6,0:2:0:0:
