osu file format v14

[General]
AudioFilename: audio.mp3
AudioLeadIn: 0
PreviewTime: 41167
Countdown: 0
SampleSet: Normal
StackLeniency: 0.7
Mode: 1
LetterboxInBreaks: 0
WidescreenStoryboard: 1

[Editor]
DistanceSpacing: 0.2
BeatDivisor: 4
GridSize: 4
TimelineZoom: 1

[Metadata]
Title:Adventure Starts Here
TitleUnicode:Adventure Starts Here
Artist:3R2
ArtistUnicode:3R2
Creator:Myxo
Version:Muzukashii
Source:Rabi-Ribi
Tags:xinely instrumental video game folk rabi ribi original soundtrack ost ăƒ©ăƒ“-ăƒȘビ starting forest
BeatmapID:2669112
BeatmapSetID:1285524

[Difficulty]
HPDrainRate:7
CircleSize:2
OverallDifficulty:4
ApproachRate:10
SliderMultiplier:1.4
SliderTickRate:1

[Events]
//Background and Video events
0,0,"rabiribi-screenshot-10.jpg",0,0
//Break Periods
//Storyboard Layer 0 (Background)
//Storyboard Layer 1 (Fail)
//Storyboard Layer 2 (Pass)
//Storyboard Layer 3 (Foreground)
//Storyboard Layer 4 (Overlay)
//Storyboard Sound Samples

[TimingPoints]
888,419.58041958042,4,1,0,45,1,0
14314,-100,4,1,0,55,0,0

[HitObjects]
256,192,888,5,8,0:0:0:0:
256,192,1307,1,0,0:0:0:0:
256,192,1517,1,8,0:0:0:0:
256,192,2146,1,0,0:0:0:0:
256,192,2356,1,8,0:0:0:0:
256,192,2776,1,8,0:0:0:0:
256,192,2985,1,0,0:0:0:0:
256,192,3195,1,8,0:0:0:0:
256,192,3615,1,0,0:0:0:0:
256,192,4034,1,8,0:0:0:0:
256,192,4244,1,8,0:0:0:0:
256,192,4664,1,0,0:0:0:0:
256,192,4874,1,8,0:0:0:0:
256,192,5503,1,0,0:0:0:0:
256,192,5713,1,8,0:0:0:0:
256,192,6132,1,8,0:0:0:0:
256,192,6342,1,0,0:0:0:0:
256,192,6762,1,0,0:0:0:0:
256,192,7181,1,8,0:0:0:0:
256,192,7601,1,8,0:0:0:0:
256,192,8020,1,0,0:0:0:0:
256,192,8230,1,8,0:0:0:0:
256,192,8650,1,0,0:0:0:0:
256,192,8860,1,0,0:0:0:0:
256,192,9069,1,8,0:0:0:0:
256,192,9489,1,8,0:0:0:0:
256,192,9699,1,0,0:0:0:0:
256,192,9908,1,8,0:0:0:0:
256,192,10328,1,0,0:0:0:0:
256,192,10748,1,8,0:0:0:0:
256,192,10957,1,8,0:0:0:0:
256,192,11377,1,0,0:0:0:0:
256,192,11587,1,8,0:0:0:0:
256,192,12006,1,0,0:0:0:0:
256,192,12216,1,0,0:0:0:0:
256,192,12426,1,12,0:0:0:0:
256,192,12846,1,0,0:0:0:0:
256,192,13055,1,0,0:0:0:0:
256,192,13265,1,0,0:0:0:0:
256,192,13475,1,0,0:0:0:0:
256,192,13685,1,8,0:0:0:0:
256,192,13894,1,8,0:0:0:0:
256,192,13999,1,8,0:0:0:0:
256,192,14104,1,8,0:0:0:0:
256,192,14314,1,4,0:0:0:0:
256,192,14943,1,0,0:0:0:0:
256,192,15153,1,8,0:0:0:0:
256,192,15573,1,8,0:0:0:0:
256,192,15783,1,0,0:0:0:0:
256,192,16202,1,0,0:0:0:0:
256,192,16412,1,8,0:0:0:0:
256,192,16832,1,0,0:0:0:0:
256,192,17041,1,0,0:0:0:0:
256,192,17251,1,8,0:0:0:0:
256,192,17461,1,8,0:0:0:0:
256,192,17671,1,0,0:0:0:0:
256,192,18090,1,8,0:0:0:0:
256,192,18510,1,8,0:0:0:0:
256,192,18929,1,0,0:0:0:0:
256,192,19139,1,8,0:0:0:0:
256,192,19559,1,8,0:0:0:0:
256,192,19978,1,0,0:0:0:0:
256,192,20398,1,0,0:0:0:0:
256,192,20608,1,8,0:0:0:0:
256,192,20818,1,8,0:0:0:0:
256,192,21027,1,0,0:0:0:0:
256,192,21237,1,8,0:0:0:0:
256,192,21447,1,8,0:0:0:0:
256,192,21657,1,8,0:0:0:0:
256,192,21867,1,0,0:0:0:0:
256,192,22286,1,8,0:0:0:0:
256,192,22496,1,0,0:0:0:0:
256,192,22915,1,0,0:0:0:0:
256,192,23125,1,8,0:0:0:0:
256,192,23335,1,8,0:0:0:0:
256,192,23545,1,0,0:0:0:0:
256,192,23755,1,0,0:0:0:0:
256,192,23964,1,8,0:0:0:0:
256,192,24174,1,0,0:0:0:0:
256,192,24384,1,8,0:0:0:0:
256,192,24804,1,8,0:0:0:0:
256,192,25223,1,0,0:0:0:0:
256,192,25643,1,8,0:0:0:0:
256,192,25853,1,0,0:0:0:0:
256,192,26272,1,0,0:0:0:0:
256,192,26692,1,0,0:0:0:0:
256,192,26901,1,0,0:0:0:0:
256,192,27111,1,8,0:0:0:0:
256,192,27321,1,8,0:0:0:0:
256,192,27531,1,0,0:0:0:0:
256,192,27636,1,0,0:0:0:0:
256,192,27741,1,0,0:0:0:0:
256,192,28370,1,0,0:0:0:0:
256,192,28580,1,8,0:0:0:0:
256,192,28999,1,8,0:0:0:0:
256,192,29209,1,0,0:0:0:0:
256,192,29629,1,0,0:0:0:0:
256,192,29839,1,8,0:0:0:0:
256,192,30258,1,0,0:0:0:0:
256,192,30468,1,0,0:0:0:0:
256,192,30678,1,8,0:0:0:0:
256,192,30888,1,8,0:0:0:0:
256,192,31097,1,0,0:0:0:0:
256,192,31517,1,8,0:0:0:0:
256,192,31936,1,8,0:0:0:0:
256,192,32356,1,0,0:0:0:0:
256,192,32566,1,8,0:0:0:0:
256,192,32985,1,8,0:0:0:0:
256,192,33405,1,0,0:0:0:0:
256,192,33825,1,0,0:0:0:0:
256,192,34034,1,8,0:0:0:0:
256,192,34244,1,8,0:0:0:0:
256,192,34454,1,0,0:0:0:0:
256,192,34664,1,8,0:0:0:0:
256,192,34874,1,8,0:0:0:0:
256,192,35083,1,8,0:0:0:0:
256,192,35293,1,0,0:0:0:0:
256,192,35713,1,8,0:0:0:0:
256,192,35923,1,0,0:0:0:0:
256,192,36342,1,0,0:0:0:0:
256,192,36551,1,8,0:0:0:0:
256,192,36761,1,8,0:0:0:0:
256,192,36971,1,0,0:0:0:0:
256,192,37182,1,0,0:0:0:0:
256,192,37391,1,8,0:0:0:0:
256,192,37600,1,0,0:0:0:0:
256,192,37810,1,8,0:0:0:0:
256,192,38230,1,8,0:0:0:0:
256,192,38650,1,0,0:0:0:0:
256,192,39069,1,8,0:0:0:0:
256,192,39279,1,0,0:0:0:0:
256,192,39699,1,8,0:0:0:0:
256,192,39909,1,0,0:0:0:0:
256,192,40118,1,0,0:0:0:0:
256,192,40328,1,0,0:0:0:0:
256,192,40538,1,8,0:0:0:0:
256,192,40748,1,8,0:0:0:0:
256,192,40853,1,8,0:0:0:0:
256,192,40957,1,8,0:0:0:0:
256,192,41167,1,4,0:0:0:0:
256,192,41587,1,8,0:0:0:0:
256,192,42006,1,8,0:0:0:0:
256,192,42426,1,8,0:0:0:0:
256,192,42636,1,0,0:0:0:0:
256,192,43055,1,0,0:0:0:0:
256,192,43265,1,8,0:0:0:0:
256,192,43475,1,0,0:0:0:0:
256,192,44104,1,0,0:0:0:0:
256,192,44209,1,0,0:0:0:0:
256,192,44314,1,0,0:0:0:0:
256,192,44524,1,8,0:0:0:0:
256,192,44943,1,8,0:0:0:0:
256,192,45363,1,0,0:0:0:0:
256,192,45573,1,8,0:0:0:0:
256,192,45992,1,8,0:0:0:0:
256,192,46622,1,8,0:0:0:0:
256,192,47041,1,0,0:0:0:0:
256,192,47461,1,0,0:0:0:0:
256,192,47881,1,0,0:0:0:0:
256,192,48300,1,8,0:0:0:0:
256,192,48510,1,0,0:0:0:0:
256,192,48720,1,8,0:0:0:0:
256,192,49139,1,8,0:0:0:0:
256,192,49349,1,0,0:0:0:0:
256,192,49769,1,0,0:0:0:0:
256,192,49978,1,8,0:0:0:0:
256,192,50188,1,0,0:0:0:0:
256,192,50608,1,8,0:0:0:0:
256,192,50818,1,8,0:0:0:0:
256,192,51027,1,0,0:0:0:0:
256,192,51132,1,0,0:0:0:0:
256,192,51237,1,0,0:0:0:0:
256,192,51447,1,0,0:0:0:0:
256,192,51657,1,8,0:0:0:0:
256,192,51867,1,0,0:0:0:0:
256,192,52076,1,0,0:0:0:0:
256,192,52286,1,8,0:0:0:0:
256,192,52496,1,0,0:0:0:0:
256,192,52706,1,8,0:0:0:0:
256,192,53125,1,0,0:0:0:0:
256,192,53335,1,8,0:0:0:0:
256,192,53545,1,0,0:0:0:0:
256,192,53754,1,8,0:0:0:0:
256,192,53964,1,0,0:0:0:0:
256,192,54174,1,0,0:0:0:0:
256,192,54384,1,8,0:0:0:0:
256,192,54804,1,0,0:0:0:0:
256,192,55013,1,8,0:0:0:0:
256,192,55223,1,0,0:0:0:0:
256,192,55433,1,8,0:0:0:0:
256,192,55643,1,8,0:0:0:0:
256,192,55853,1,0,0:0:0:0:
256,192,56063,1,12,0:0:0:0:
256,192,56482,1,0,0:0:0:0:
256,192,56901,1,0,0:0:0:0:
256,192,57321,1,0,0:0:0:0:
256,192,57531,1,8,0:0:0:0:
256,192,57636,1,8,0:0:0:0:
256,192,57741,1,8,0:0:0:0:
256,192,57950,1,0,0:0:0:0:
